VERSION	0.00.00	1.03.00
FES_MODE	0
BPM_DEF	145.000	145.000	145.000	145.000
MET_DEF	4	4
RESOLUTION	384
CLK_DEF	384
COMPATIBLE_CODE	MA2

BPM	0	0	145.000
MET	0	0	4	4
MET	3	0	8	7
MET	4	288	4	4
MET	9	288	8	7
MET	12	144	4	4
MET	13	144	8	7
MET	16	0	4	4
MET	17	0	8	7
MET	19	240	4	4
MET	20	240	8	7
MET	23	96	4	4
MET	32	96	4	7
MET	39	96	4	4
MET	43	96	4	2
MET	43	288	4	4
MET	81	288	8	7
MET	84	144	4	4
MET	85	144	8	7
MET	88	0	4	4
MET	90	0	16	13
MET	92	168	4	2
MET	92	360	4	4
MET	93	360	8	7
MET	95	264	4	4
MET	100	264	4	2
MET	101	72	4	4

XTP	1	336	0
XTP	1	336	7
XTP	1	352	1
XTP	1	352	6
XTP	1	368	2
XTP	1	368	5
BRK	2	0	3
BRK	2	0	4
XTP	2	96	4
XTP	2	100	3
TAP	2	168	5
TAP	2	192	5
TAP	2	240	3
TAP	2	288	2
BRK	2	336	1
BRK	2	336	4
TAP	3	48	2
TAP	3	72	3
TAP	3	96	1
TAP	3	144	5
TAP	3	168	4
TAP	3	192	6
TAP	3	240	0
TAP	3	240	7
TAP	3	288	1
TAP	3	288	6
BRK	3	336	2
BRK	3	336	5
TAP	4	48	4
TAP	4	72	4
TAP	4	96	3
BRK	4	144	1
BRK	4	144	6
TAP	4	240	2
TAP	4	240	5
TAP	4	288	3
TAP	4	288	4
TAP	4	320	3
TAP	4	352	3
TAP	5	0	2
TAP	5	0	3
TAP	5	32	3
TAP	5	64	3
TAP	5	96	3
TAP	5	96	5
TAP	5	128	3
TAP	5	160	3
TAP	5	192	2
STR	5	192	3
SI_	5	192	3	96	40	7
TAP	5	224	3
TAP	5	256	3
XTP	5	288	3
XHO	5	288	6	144
TAP	6	48	4
TAP	6	72	3
TAP	6	96	3
TTP	6	168	2	B	0	M1
TTP	6	168	2	E	0	M1
TTP	6	168	4	E	0	M1
TTP	6	240	4	E	0	M1
TTP	6	240	6	B	0	M1
TTP	6	240	7	E	0	M1
TTP	6	288	0	B	0	M1
TTP	6	288	1	E	0	M1
TTP	6	288	4	E	0	M1
TTP	6	360	4	E	0	M1
TTP	6	360	5	B	0	M1
TTP	6	360	6	E	0	M1
TTP	7	48	2	B	0	M1
TTP	7	48	3	E	0	M1
TTP	7	48	4	E	0	M1
TAP	7	96	0
TAP	7	128	7
TAP	7	160	0
XTP	7	192	1
XTP	7	192	6
XHO	7	288	2	144
TAP	8	48	3
TAP	8	72	4
TAP	8	96	4
TTP	8	168	0	E	0	M1
TTP	8	168	1	B	0	M1
TTP	8	168	2	E	0	M1
TTP	8	240	0	E	0	M1
TTP	8	240	5	B	0	M1
TTP	8	240	5	E	0	M1
TTP	8	288	0	E	0	M1
TTP	8	288	3	B	0	M1
TTP	8	288	3	E	0	M1
TTP	8	360	0	E	0	M1
TTP	8	360	5	B	0	M1
TTP	8	360	6	E	0	M1
TTP	9	48	0	E	0	M1
TTP	9	48	2	B	0	M1
TTP	9	48	2	E	0	M1
TTP	9	96	0	C	0	M1
TTP	9	96	1	B	0	M1
TTP	9	96	5	B	0	M1
BRK	9	192	0
BRK	9	192	7
STR	9	288	0
SSL	9	288	0	96	144	4
TAP	9	312	0
TAP	9	336	4
TAP	9	360	4
STR	10	240	3
SSR	10	240	3	96	144	7
TAP	10	264	3
TAP	10	288	7
TAP	10	312	7
STR	11	192	0
SSL	11	192	0	96	144	4
TAP	11	192	7
TAP	11	216	0
TAP	11	216	7
TAP	11	240	0
TAP	11	240	7
TAP	11	264	0
TAP	11	264	7
TAP	12	144	0
TAP	12	168	0
TAP	12	192	7
TAP	12	216	1
TAP	12	216	6
TAP	12	264	2
TAP	12	264	5
TAP	12	312	3
TAP	12	312	4
TAP	12	360	1
TAP	13	0	3
TAP	13	24	2
TAP	13	48	4
TAP	13	72	3
TAP	13	96	5
BRK	13	144	0
BRK	13	144	7
TAP	13	192	6
TAP	13	240	4
TAP	13	240	5
HLD	13	264	4	48
TAP	13	264	5
TAP	13	312	3
HLD	13	336	3	48
TAP	14	0	2
TAP	14	24	2
TAP	14	48	4
TAP	14	96	3
TAP	14	96	5
TAP	14	144	2
TAP	14	192	0
HLD	14	216	0	48
TAP	14	264	1
HLD	14	288	1	48
TAP	14	336	2
TAP	14	360	2
TAP	15	0	3
TAP	15	48	0
TAP	15	48	4
TAP	15	96	1
TAP	15	144	2
TAP	15	144	3
TAP	15	168	2
HLD	15	168	3	48
TAP	15	216	4
HLD	15	240	4	48
TAP	15	288	5
TAP	15	312	5
TAP	15	336	3
TAP	16	0	0
TAP	16	0	7
TAP	16	48	5
TAP	16	72	4
TAP	16	72	6
TAP	16	120	2
TAP	16	144	1
TAP	16	144	3
STR	16	192	1
SCL	16	192	1	96	48	6
TAP	16	216	3
TAP	16	240	2
TAP	16	264	4
TAP	16	288	1
BRK	17	0	1
BRK	17	0	6
TAP	17	48	2
TAP	17	48	5
TAP	17	96	6
TAP	17	120	7
TAP	17	168	1
TAP	17	192	0
TAP	17	216	2
TAP	17	240	2
TAP	17	264	3
TAP	17	288	1
TAP	17	336	5
TAP	18	0	4
TAP	18	0	6
TAP	18	48	1
TAP	18	72	0
TAP	18	120	6
TAP	18	144	7
TAP	18	168	5
TAP	18	192	5
TAP	18	216	3
TAP	18	240	4
TAP	18	264	2
TAP	18	288	3
TAP	18	336	2
TAP	18	336	4
TAP	19	0	1
TAP	19	24	0
TAP	19	72	6
TAP	19	96	7
TAP	19	120	5
TAP	19	144	5
TAP	19	168	4
TAP	19	192	5
HLD	19	240	2	48
HLD	19	240	3	48
TAP	19	312	1
TAP	19	312	4
TAP	19	360	3
TAP	19	360	6
TAP	20	24	0
TAP	20	24	5
TAP	20	72	7
TAP	20	96	4
TAP	20	120	5
TAP	20	144	0
TAP	20	168	3
TAP	20	192	2
TAP	20	216	4
TAP	20	240	3
TAP	20	240	4
TAP	20	288	2
TAP	20	288	5
TAP	20	336	6
TAP	20	360	7
TAP	21	24	1
TAP	21	48	0
TAP	21	72	2
TAP	21	96	2
TAP	21	120	3
TAP	21	144	1
TAP	21	192	5
TAP	21	240	4
TAP	21	240	6
TAP	21	288	1
TAP	21	312	0
TAP	21	360	6
TAP	22	0	7
TAP	22	24	5
TAP	22	48	5
TAP	22	72	3
TAP	22	96	4
TAP	22	120	2
TAP	22	144	3
TAP	22	192	2
TAP	22	192	4
TAP	22	240	1
TAP	22	264	0
TAP	22	312	6
TAP	22	336	7
TAP	22	360	5
TAP	23	0	5
TAP	23	24	4
TAP	23	48	5
TAP	23	72	3
TAP	23	96	6
TAP	23	120	6
TAP	23	144	4
TAP	23	168	4
TAP	23	192	2
TAP	23	216	2
TAP	23	240	0
TAP	23	264	0
XTP	23	288	7
XTP	23	304	6
XTP	23	320	5
XTP	23	336	2
XTP	23	352	3
XTP	23	368	4
XTP	24	0	6
XTP	24	16	5
XTP	24	32	4
XTP	24	48	1
XTP	24	64	2
XTP	24	80	3
XTP	24	96	4
XST	24	96	5
SCR	24	96	5	96	192	1
TAP	24	144	3
TAP	24	192	4
TAP	24	216	4
HLD	24	264	2	72
TAP	25	0	3
XST	25	96	2
SCL	25	96	2	96	192	6
XTP	25	96	3
TAP	25	144	4
TAP	25	192	3
TAP	25	216	3
HLD	25	264	5	72
TAP	26	0	3
XTP	26	96	0
XST	26	96	1
SCR	26	96	1	96	192	5
TAP	26	144	7
TAP	26	192	0
TAP	26	216	0
HLD	26	264	6	72
TAP	27	0	0
XST	27	96	6
SCL	27	96	6	96	144	2
XTP	27	96	7
TAP	27	144	0
TAP	27	192	7
TAP	27	216	7
HLD	27	264	1	72
TAP	28	0	0
TAP	28	24	0
TAP	28	48	6
TAP	28	72	4
XST	28	96	5
SXL	28	96	5	96	192	1
TAP	28	144	4
TAP	28	192	3
TAP	28	216	3
HLD	28	264	2	72
TAP	29	0	4
XST	29	96	2
SXR	29	96	2	96	192	6
TAP	29	96	4
TAP	29	144	3
TAP	29	192	4
TAP	29	216	4
HLD	29	264	5	72
TAP	30	0	3
TAP	30	96	0
XST	30	96	6
SXR	30	96	6	96	192	2
TAP	30	144	7
TAP	30	192	0
TAP	30	216	0
HLD	30	264	1	72
TAP	31	0	7
HLD	31	96	1	96
TAP	31	96	7
TAP	31	144	0
TAP	31	192	6
TAP	31	216	6
TAP	31	264	4
TAP	31	264	5
TAP	31	312	2
TAP	31	336	1
TAP	31	336	3
TAP	32	0	0
TAP	32	24	7
TAP	32	48	0
TAP	32	96	3
STR	32	96	4
SI_	32	96	4	96	48	7
TAP	32	168	4
TAP	32	168	5
TAP	32	240	6
TAP	32	288	5
TAP	32	288	7
TAP	32	336	4
STR	33	0	5
SI_	33	0	5	96	48	0
STR	33	0	6
SI_	33	0	6	96	48	3
TAP	33	72	5
TAP	33	72	6
TAP	33	192	1
TAP	33	216	3
TAP	33	240	2
TAP	33	264	4
HLD	33	288	3	96
STR	34	0	4
SI_	34	0	4	96	48	7
TAP	34	72	4
TAP	34	72	5
TAP	34	144	6
TAP	34	192	5
TAP	34	192	7
TAP	34	240	4
STR	34	288	5
SI_	34	288	5	96	48	0
STR	34	288	6
SI_	34	288	6	96	48	3
TAP	34	360	5
TAP	34	360	6
TAP	35	96	0
TAP	35	96	1
TAP	35	144	2
TAP	35	144	3
TAP	35	192	5
TAP	35	216	4
HLD	35	240	5	48
STR	35	288	3
SI_	35	288	3	96	48	0
TAP	35	360	2
TAP	35	360	3
TAP	36	48	1
TAP	36	96	0
TAP	36	96	2
TAP	36	144	3
STR	36	192	1
SI_	36	192	1	96	48	4
STR	36	192	2
SI_	36	192	2	96	48	7
TAP	36	264	1
TAP	36	264	2
TAP	37	0	6
TAP	37	24	4
TAP	37	48	5
TAP	37	72	3
HLD	37	96	4	96
STR	37	192	3
SI_	37	192	3	96	48	0
TAP	37	264	2
TAP	37	264	3
TAP	37	336	1
TAP	38	0	0
TAP	38	0	2
TAP	38	48	3
STR	38	96	1
SI_	38	96	1	96	48	4
STR	38	96	2
SI_	38	96	2	96	48	7
TAP	38	168	1
TAP	38	168	2
TAP	38	288	6
TAP	38	312	4
TAP	38	336	5
TAP	38	360	3
TAP	39	0	4
TAP	39	24	2
TAP	39	48	3
HLD	39	96	0	48
HLD	39	96	1	48
HLD	39	168	2	48
TAP	39	168	7
TAP	39	216	3
TAP	39	240	3
HLD	39	288	6	48
HLD	39	288	7	48
TAP	39	360	0
HLD	39	360	5	48
TAP	40	24	4
TAP	40	48	4
TAP	40	96	1
TAP	40	120	0
TAP	40	144	1
HLD	40	168	2	48
TAP	40	168	7
TAP	40	216	3
TAP	40	240	3
TAP	40	288	6
TAP	40	312	7
TAP	40	336	6
TAP	40	360	0
HLD	40	360	5	48
TAP	41	24	4
TAP	41	48	4
TAP	41	96	0
TAP	41	120	3
TAP	41	144	2
TAP	41	168	7
TAP	41	192	4
TAP	41	216	5
TAP	41	240	1
TAP	41	264	1
TAP	41	288	5
TAP	41	312	4
TAP	41	336	7
TAP	41	360	2
TAP	42	0	3
TAP	42	24	0
TAP	42	48	6
TAP	42	72	6
XTP	42	96	0
TAP	42	112	1
TAP	42	128	2
XTP	42	144	6
TAP	42	160	5
TAP	42	176	4
XTP	42	192	1
TAP	42	208	2
TAP	42	224	3
XTP	42	240	7
TAP	42	256	6
TAP	42	272	5
XTP	42	288	3
XTP	42	288	4
XTP	42	360	1
XTP	42	360	5
XTP	43	48	3
HLD	43	48	7	144
STR	43	192	0
SSL	43	192	0	96	12	4
SSL	43	192	0	96	12	4
BRK	43	288	0
BRK	43	288	7
TTP	43	294	0	C	1	M1
TAP	44	0	5
TAP	44	48	0
TAP	44	48	1
TAP	44	64	2
TAP	44	64	7
TAP	44	80	3
TAP	44	80	6
TAP	44	96	4
HLD	44	96	5	48
TAP	44	144	3
HLD	44	168	3	48
TAP	44	216	6
HLD	44	240	6	88
XTP	44	288	3
XTP	44	296	2
XTP	44	304	1
XTP	44	312	0
XTP	44	320	7
XTP	44	336	5
XTP	44	344	4
HLD	45	0	7	80
XTP	45	48	3
XTP	45	56	2
XTP	45	64	1
XTP	45	72	0
XTP	45	88	6
XTP	45	96	5
XTP	45	104	4
TAP	45	144	7
TAP	45	168	7
TAP	45	192	3
TAP	45	240	4
TAP	45	240	6
XTP	45	288	4
XTP	45	288	6
XTP	45	300	3
XTP	45	300	5
XTP	45	312	2
XTP	45	312	4
XTP	45	324	1
XTP	45	324	3
XHO	45	336	0	96
XTP	45	336	2
TAP	46	0	3
TAP	46	48	3
TAP	46	72	0
XTP	46	96	1
XTP	46	96	3
XTP	46	108	2
XTP	46	108	4
XTP	46	120	3
XTP	46	120	5
XTP	46	132	4
XTP	46	132	6
XTP	46	144	5
XTP	46	144	7
TAP	46	192	7
TAP	46	240	1
TAP	46	240	5
TAP	46	288	2
TAP	46	304	3
TAP	46	320	2
TAP	46	336	3
TAP	46	352	2
TAP	46	368	3
TAP	47	0	1
TAP	47	16	4
TAP	47	32	1
TAP	47	48	4
TAP	47	64	1
TAP	47	80	4
TAP	47	96	0
TAP	47	112	5
TAP	47	128	0
TAP	47	144	5
TAP	47	160	0
TAP	47	176	5
STR	47	192	7
SSR	47	192	7	96	48	3
TAP	47	208	6
TAP	47	224	7
TAP	47	240	6
TAP	47	256	7
TAP	47	272	6
BRK	47	288	7
TAP	48	0	2
TAP	48	48	6
TAP	48	48	7
TAP	48	64	0
TAP	48	64	5
TAP	48	80	1
TAP	48	80	4
HLD	48	96	2	48
TAP	48	96	3
TAP	48	144	4
HLD	48	168	4	48
TAP	48	216	1
HLD	48	240	1	48
XTP	48	288	7
XTP	48	296	6
XTP	48	304	5
XHO	48	312	4	48
XTP	48	360	6
XTP	48	368	5
XTP	48	376	4
XHO	49	0	3	48
HLD	49	48	6	72
XTP	49	96	0
XTP	49	104	1
XTP	49	112	2
XHO	49	120	3	48
XTP	49	168	1
XTP	49	176	2
XTP	49	184	3
XHO	49	192	4	48
TAP	49	240	1
XST	49	288	3
SCL	49	288	3	96	112	5
TAP	50	0	5
STR	50	48	4
SUL	50	48	4	96	48	7
XTP	50	144	0
XTP	50	160	1
XTP	50	176	2
XTP	50	192	3
TAP	50	288	6
TAP	50	304	4
TAP	50	320	6
TAP	50	336	4
TAP	50	352	6
TAP	50	368	4
TAP	51	0	7
TAP	51	16	3
TAP	51	32	7
TAP	51	48	3
TAP	51	64	7
TAP	51	80	3
TAP	51	96	0
TAP	51	112	2
TAP	51	128	0
TAP	51	144	2
TAP	51	160	0
TAP	51	176	2
STR	51	192	1
SCL	51	192	1	96	384	2
TAP	51	208	1
TAP	51	224	1
TAP	51	240	1
TAP	51	256	1
TAP	51	272	1
TTP	51	288	0	C	1	M1
STR	53	96	3
SI_	53	96	3	96	48	0
STR	53	96	4
SI_	53	96	4	96	48	7
TAP	53	192	3
TAP	53	192	4
XTP	53	288	1
XTP	53	288	6
TTP	53	336	3	E	0	M1
TTP	53	360	5	E	0	M1
TTP	54	0	2	E	0	M1
TTP	54	24	6	E	0	M1
TTP	54	48	1	E	0	M1
TTP	54	72	7	E	0	M1
XTP	54	120	2
XTP	54	120	5
TTP	54	168	3	B	0	M1
TTP	54	192	4	B	0	M1
TTP	54	216	0	B	0	M1
TTP	54	240	7	B	0	M1
XTP	54	288	2
XTP	54	288	5
TTP	54	336	3	E	0	M1
TTP	54	360	5	E	0	M1
TTP	55	0	2	E	0	M1
TTP	55	24	6	E	0	M1
TTP	55	48	1	E	0	M1
TTP	55	72	7	E	0	M1
TAP	55	96	3
TAP	55	100	4
TAP	55	128	3
TAP	55	132	4
TAP	55	160	3
TAP	55	164	4
BRK	55	192	2
BRK	55	192	5
XTP	55	288	3
XST	55	288	4
SCR	55	288	4	96	1056	3
HLD	56	96	0	96
TTP	56	288	0	B	0	M1
TTP	57	96	2	B	0	M1
TTP	57	288	4	B	0	M1
TTP	58	96	6	B	0	M1
HLD	58	288	0	192
HLD	59	96	4	96
TAP	59	192	3
TAP	59	224	3
TAP	59	256	3
XST	59	288	3
SCL	59	288	3	96	1056	4
XTP	59	288	4
HLD	60	96	7	96
TTP	60	288	7	B	0	M1
TTP	61	96	5	B	0	M1
TTP	61	288	3	B	0	M1
TTP	62	96	1	B	0	M1
HLD	62	288	7	192
HLD	63	96	3	96
TAP	63	192	4
TAP	63	224	4
TAP	63	256	4
XTP	63	288	1
HLD	63	288	5	144
TAP	64	48	3
HLD	64	96	1	144
TAP	64	240	3
HLD	64	288	5	96
TAP	65	0	4
TAP	65	32	4
TAP	65	64	4
TAP	65	96	3
HLD	65	96	6	96
HLD	65	192	7	96
HLD	65	288	0	96
TAP	66	0	1
TAP	66	32	1
TAP	66	64	1
TAP	66	96	0
HLD	66	96	2	96
STR	66	192	3
SSR	66	192	3	96	192	7
STR	67	0	7
SF_	67	0	7	96	96	3
TTP	67	288	1	B	0	M1
TTP	67	288	1	E	0	M1
TAP	67	288	6
TAP	67	336	6
TTP	68	0	2	B	0	M1
TTP	68	0	3	E	0	M1
TAP	68	0	6
TAP	68	48	6
TTP	68	96	0	B	0	M1
TTP	68	96	0	E	0	M1
TAP	68	96	6
TAP	68	144	6
TTP	68	192	3	B	0	M1
TTP	68	192	4	E	0	M1
TAP	68	192	6
TAP	68	240	6
TAP	68	288	1
TTP	68	288	5	B	0	M1
TTP	68	288	5	E	0	M1
TAP	68	336	1
TAP	69	0	1
TTP	69	0	6	B	0	M1
TTP	69	0	7	E	0	M1
TAP	69	48	1
TAP	69	96	1
TTP	69	96	4	B	0	M1
TTP	69	96	4	E	0	M1
TAP	69	144	1
TTP	69	192	0	E	0	M1
TAP	69	192	1
TTP	69	192	7	B	0	M1
TAP	69	240	1
TAP	69	288	0
TAP	69	288	1
TAP	69	336	0
TAP	69	336	1
TAP	70	0	1
TAP	70	0	2
TAP	70	48	2
TAP	70	48	3
TAP	70	96	3
TAP	70	96	4
TAP	70	144	4
TAP	70	144	5
TAP	70	192	5
TAP	70	192	6
TAP	70	240	6
TAP	70	240	7
TAP	70	288	0
TAP	70	312	7
TAP	70	336	1
TAP	70	360	6
STR	71	0	3
SF_	71	0	3	96	48	7
TAP	71	24	4
TAP	71	48	2
TAP	71	72	5
TAP	71	192	3
TAP	71	192	4
TAP	71	216	5
TAP	71	240	6
TAP	71	264	7
STR	71	288	0
SCL	71	288	0	96	96	4
TAP	71	288	1
TAP	71	336	1
TAP	72	0	2
TAP	72	48	2
TAP	72	96	1
TAP	72	144	1
TAP	72	192	2
TAP	72	192	4
TAP	72	216	5
TAP	72	240	2
TAP	72	240	6
TAP	72	264	7
STR	72	288	0
SI_	72	288	0	96	48	4
TAP	72	288	1
TAP	72	336	1
TAP	73	0	2
TAP	73	48	2
TAP	73	96	1
TAP	73	96	3
TAP	73	144	1
TAP	73	168	3
TAP	73	192	2
TAP	73	240	2
TAP	73	240	5
TAP	73	288	1
TAP	73	288	7
TAP	73	336	1
TAP	73	360	3
TAP	74	0	2
TAP	74	48	2
TAP	74	48	4
TAP	74	96	1
TAP	74	96	5
TAP	74	144	1
TAP	74	192	2
TAP	74	192	7
TAP	74	240	2
TAP	74	240	7
TAP	74	288	1
STR	74	288	6
SI_	74	288	6	96	48	2
TAP	74	336	7
STR	75	0	0
SI_	75	0	0	96	48	4
TAP	75	0	6
TAP	75	48	1
TAP	75	96	0
STR	75	96	7
SF_	75	96	7	96	48	3
TAP	75	144	6
TAP	75	192	7
TAP	75	288	2
TAP	75	312	4
TAP	75	336	3
TAP	75	360	4
TAP	76	0	2
TAP	76	24	5
TAP	76	48	4
TAP	76	72	5
TAP	76	96	1
TAP	76	120	0
TAP	76	144	2
TAP	76	168	7
TAP	76	192	1
TAP	76	216	3
TAP	76	240	2
TAP	76	264	4
TAP	76	288	0
TAP	76	312	7
TAP	76	336	3
TAP	76	360	5
TAP	77	0	4
TAP	77	24	7
TAP	77	48	3
TAP	77	72	6
TAP	77	96	0
TAP	77	120	3
TAP	77	144	1
TAP	77	168	7
TAP	77	192	4
TAP	77	216	6
TAP	77	240	3
TAP	77	264	5
XTP	77	288	1
TAP	77	304	2
TAP	77	320	3
XTP	77	336	0
TAP	77	352	1
TAP	77	368	2
XTP	78	0	6
TAP	78	16	5
TAP	78	32	4
XTP	78	48	7
TAP	78	64	6
TAP	78	80	5
XTP	78	96	2
TAP	78	112	3
TAP	78	128	4
XTP	78	144	0
TAP	78	160	1
TAP	78	176	2
XTP	78	192	6
TAP	78	208	7
TAP	78	224	0
XTP	78	240	4
TAP	78	256	5
TAP	78	272	6
XTP	78	288	1
TAP	78	304	0
TAP	78	320	1
TAP	78	336	0
TAP	78	352	1
TAP	78	368	0
XTP	79	0	2
TAP	79	16	7
TAP	79	32	2
TAP	79	48	7
TAP	79	64	2
TAP	79	80	7
XTP	79	96	3
TAP	79	112	6
TAP	79	128	3
TAP	79	144	6
TAP	79	160	3
TAP	79	176	6
XTP	79	192	4
TAP	79	208	5
TAP	79	224	4
TAP	79	240	5
TAP	79	256	4
TAP	79	272	5
XTP	79	288	7
TAP	79	304	6
TAP	79	320	7
TAP	79	336	6
TAP	79	352	7
TAP	79	368	6
XTP	80	0	0
TAP	80	16	5
TAP	80	32	0
TAP	80	48	5
TAP	80	64	0
TAP	80	80	5
XTP	80	96	1
TAP	80	112	4
TAP	80	128	1
TAP	80	144	4
TAP	80	160	1
TAP	80	176	4
XTP	80	192	2
TAP	80	208	3
TAP	80	224	2
TAP	80	240	3
TAP	80	256	2
TAP	80	272	3
XTP	80	288	0
TAP	80	304	1
TAP	80	320	2
XTP	80	336	6
TAP	80	352	5
TAP	80	368	4
XTP	81	0	1
TAP	81	16	2
TAP	81	32	3
XTP	81	48	7
TAP	81	64	6
TAP	81	80	5
TTP	81	96	0	B	0	M1
TTP	81	102	1	B	0	M1
TTP	81	108	2	B	0	M1
TTP	81	114	3	B	0	M1
TTP	81	120	4	B	0	M1
TTP	81	126	5	B	0	M1
TTP	81	132	6	B	0	M1
TTP	81	138	7	B	0	M1
TTP	81	144	1	E	0	M1
TTP	81	150	2	E	0	M1
TTP	81	156	3	E	0	M1
TTP	81	162	4	E	0	M1
TTP	81	168	5	E	0	M1
TTP	81	174	6	E	0	M1
TTP	81	180	7	E	0	M1
TTP	81	186	0	E	0	M1
TTP	81	192	0	C	1	M1
BRK	81	288	7
TAP	81	336	0
TAP	81	336	6
TAP	82	0	2
TAP	82	24	3
TAP	82	48	3
TAP	82	72	2
TAP	82	96	4
TAP	82	120	4
TAP	82	144	2
TAP	82	168	5
TAP	82	192	5
TAP	82	216	4
TAP	82	240	3
TAP	82	264	2
TAP	82	288	4
TAP	82	312	1
TAP	82	336	1
TAP	82	360	3
TAP	83	0	2
TAP	83	24	6
TAP	83	48	4
TAP	83	72	5
TAP	83	96	2
TAP	83	120	3
TAP	83	144	4
TAP	83	168	5
TAP	83	192	2
TAP	83	216	4
TAP	83	240	3
TAP	83	264	5
TAP	83	288	2
TAP	83	312	3
TAP	83	336	3
TAP	83	360	2
TAP	84	0	4
TAP	84	24	4
TAP	84	48	2
TAP	84	72	5
TAP	84	96	5
TAP	84	120	4
TAP	84	144	3
TAP	84	168	2
TAP	84	192	2
TAP	84	216	6
TAP	84	240	3
TAP	84	264	3
TAP	84	288	5
TAP	84	300	4
TAP	84	312	5
TAP	84	336	2
TAP	84	360	4
TAP	84	372	3
TAP	85	0	4
TAP	85	24	2
TAP	85	48	3
TAP	85	72	3
TAP	85	96	1
TAP	85	120	4
TAP	85	144	2
TAP	85	144	5
BRK	85	192	1
BRK	85	192	6
TAP	85	240	5
TAP	85	264	4
TAP	85	288	4
TAP	85	312	5
TAP	85	336	3
TAP	85	360	3
TAP	86	0	5
TAP	86	24	2
TAP	86	48	2
TAP	86	72	3
TAP	86	96	4
TAP	86	120	5
TAP	86	144	3
TAP	86	168	6
TAP	86	192	6
TAP	86	216	4
TAP	86	240	5
TAP	86	264	1
TAP	86	288	3
TAP	86	312	2
TAP	86	336	5
TAP	86	360	4
TAP	87	0	3
TAP	87	24	2
TAP	87	48	5
TAP	87	72	3
TAP	87	96	4
TAP	87	120	2
TAP	87	144	5
TAP	87	168	4
TAP	87	192	4
TAP	87	216	5
TAP	87	240	3
TAP	87	264	3
TAP	87	288	5
TAP	87	312	2
TAP	87	336	2
TAP	87	360	6
TAP	88	0	0
TAP	88	24	0
TAP	88	48	7
TAP	88	72	4
TAP	88	96	4
TAP	88	120	7
TAP	88	144	2
TAP	88	168	2
TAP	88	192	3
TAP	88	216	1
TAP	88	240	2
HLD	88	264	1	84
TAP	88	288	0
TAP	88	300	7
TAP	88	312	6
TAP	88	324	5
TAP	88	336	4
TAP	88	348	3
TAP	89	0	0
TAP	89	24	0
TAP	89	48	7
TAP	89	72	1
TAP	89	96	4
TAP	89	120	4
TAP	89	144	3
TAP	89	168	5
TAP	89	192	4
TAP	89	216	6
TAP	89	240	5
HLD	89	264	6	84
TAP	89	288	7
TAP	89	300	0
TAP	89	312	1
TAP	89	324	2
TAP	89	336	3
TAP	89	348	4
XTP	90	0	7
TAP	90	24	1
TAP	90	48	1
TTP	90	72	5	B	0	M1
TTP	90	72	6	B	0	M1
TAP	90	96	0
TTP	90	120	4	B	0	M1
TTP	90	120	4	E	0	M1
TAP	90	144	0
TTP	90	168	6	E	0	M1
TAP	90	192	0
TTP	90	216	5	E	0	M1
TAP	90	240	1
TTP	90	264	0	C	0	M1
TAP	90	288	0
XTP	90	312	0
TAP	90	336	6
XTP	90	360	6
TTP	91	0	1	B	0	M1
TTP	91	0	2	B	0	M1
TAP	91	24	7
TTP	91	48	3	B	0	M1
TTP	91	48	4	E	0	M1
TAP	91	72	7
TTP	91	96	2	E	0	M1
TAP	91	120	7
TTP	91	144	3	E	0	M1
TAP	91	168	6
TTP	91	192	0	C	0	M1
TAP	91	216	7
XTP	91	240	7
TAP	91	264	1
XTP	91	288	1
TTP	91	312	5	B	0	M1
TTP	91	312	6	B	0	M1
TAP	91	336	0
TTP	91	360	4	B	0	M1
TTP	91	360	4	E	0	M1
TAP	92	0	0
TTP	92	24	6	E	0	M1
TAP	92	48	0
TTP	92	72	5	E	0	M1
TAP	92	96	1
TTP	92	120	0	C	0	M1
TAP	92	144	0
STR	92	168	0
SSL	92	168	0	96	48	4
BRK	92	264	0
BRK	92	264	4
BRK	92	360	1
BRK	92	360	5
XTP	93	72	4
XTP	93	76	3
TAP	93	144	5
TAP	93	168	4
TAP	93	216	3
TAP	93	264	2
BRK	93	312	1
BRK	93	312	4
TAP	94	24	2
TAP	94	48	2
TAP	94	72	3
TAP	94	120	5
TAP	94	144	5
TAP	94	168	4
TAP	94	192	6
TAP	94	216	4
TAP	94	264	7
BRK	94	312	0
BRK	94	312	7
TAP	95	24	4
TAP	95	48	4
TAP	95	72	3
BRK	95	120	1
BRK	95	120	6
TAP	95	216	2
TAP	95	216	5
TAP	95	256	3
HLD	95	256	4	64
TAP	95	288	3
TAP	95	320	3
HLD	95	352	2	64
TAP	95	352	3
TAP	96	0	3
TAP	96	32	3
TAP	96	64	3
HLD	96	64	5	64
TAP	96	96	3
TAP	96	128	3
HLD	96	160	1	64
STR	96	160	3
SI_	96	160	3	96	48	7
TAP	96	192	3
TAP	96	224	3
XTP	96	256	3
XHO	96	256	6	136
TAP	97	8	4
TAP	97	40	4
TAP	97	72	3
XHO	97	136	0	32
TTP	97	136	6	B	0	M1
TTP	97	136	6	E	0	M1
TTP	97	200	2	B	0	M1
TTP	97	200	2	E	0	M1
XHO	97	200	7	32
XHO	97	264	3	32
TTP	97	264	5	B	0	M1
TTP	97	264	5	E	0	M1
TTP	97	328	1	B	0	M1
TTP	97	328	1	E	0	M1
XHO	97	328	4	32
XHO	98	8	0	32
TTP	98	8	6	B	0	M1
TTP	98	8	7	E	0	M1
TTP	98	64	3	B	0	M1
TTP	98	64	3	E	0	M1
XTP	98	64	7
XTP	98	160	2
XTP	98	160	5
XHO	98	256	6	136
TAP	99	8	1
TAP	99	40	1
TAP	99	72	7
TAP	99	88	0
TAP	99	104	6
TAP	99	120	4
TAP	99	136	5
TAP	99	152	3
TAP	99	168	4
TAP	99	184	2
TAP	99	200	3
TAP	99	216	1
TAP	99	232	7
TAP	99	248	0
TAP	99	264	6
TAP	99	280	1
TAP	99	296	7
TAP	99	312	0
TAP	99	328	6
TAP	99	344	4
TAP	99	360	5
TAP	99	376	3
TAP	100	8	4
TAP	100	24	2
TAP	100	40	3
TAP	100	56	1
XTP	100	72	0
XTP	100	72	7
TAP	100	136	4
TAP	100	152	3
BRK	100	168	2
BRK	100	168	5
TAP	101	24	0
TAP	101	24	4
TAP	101	36	1
TAP	101	36	5
TAP	101	48	2
TAP	101	48	6
TAP	101	60	3
TAP	101	60	7
STR	101	72	0
SSL	101	72	0	96	192	4
STR	101	72	4
SSL	101	72	4	96	192	0
TAP	102	24	1
TAP	102	40	3
TAP	102	56	4
BRK	102	72	6

T_REC_TAP	849
T_REC_BRK	35
T_REC_XTP	127
T_REC_HLD	55
T_REC_XHO	14
T_REC_STR	35
T_REC_BST	0
T_REC_XST	10
T_REC_TTP	125
T_REC_THO	0
T_REC_SLD	46
T_REC_ALL	1296
T_NUM_TAP	1146
T_NUM_BRK	35
T_NUM_HLD	69
T_NUM_SLD	46
T_NUM_ALL	1296
T_JUDGE_TAP	1181
T_JUDGE_HLD	118
T_JUDGE_SLD	46
T_JUDGE_ALL	1345
TTM_EACHPAIRS	160
TTM_SCR_TAP	573000
TTM_SCR_BRK	91000
TTM_SCR_HLD	69000
TTM_SCR_SLD	69000
TTM_SCR_ALL	802000
TTM_SCR_S	774550
TTM_SCR_SS	798500
TTM_RAT_ACV	10043

