VERSION	0.00.00	1.03.00
FES_MODE	0
BPM_DEF	145.000	145.000	145.000	145.000
MET_DEF	4	4
RESOLUTION	384
CLK_DEF	384
COMPATIBLE_CODE	MA2

BPM	0	0	145.000
MET	0	0	4	4
MET	3	0	8	7
MET	4	288	4	4
MET	9	288	8	7
MET	12	144	4	4
MET	13	144	8	7
MET	16	0	4	4
MET	17	0	8	7
MET	19	240	4	4
MET	20	240	8	7
MET	23	96	4	4
MET	32	96	4	7
MET	39	96	4	4
MET	43	96	4	2
MET	43	288	4	4
MET	81	288	8	7
MET	84	144	4	4
MET	85	144	8	7
MET	88	0	4	4
MET	90	0	16	13
MET	92	168	4	2
MET	92	360	4	4
MET	93	360	8	7
MET	95	264	4	4
MET	100	264	4	2
MET	101	72	4	4

TTP	2	0	0	C	1	M1
TTP	2	0	2	B	0	M1
TTP	2	0	3	B	0	M1
TTP	2	0	4	B	0	M1
TTP	2	0	5	B	0	M1
HLD	2	336	6	384
HLD	3	336	4	192
HLD	4	144	3	144
HLD	4	288	1	192
BRK	5	96	7
HLD	5	288	3	96
HLD	5	288	6	96
TAP	6	48	4
TAP	6	48	5
TAP	6	96	4
TAP	6	96	5
TAP	6	168	3
TAP	6	168	4
TAP	6	240	2
TAP	6	240	3
TAP	6	288	2
TAP	6	288	3
TAP	6	360	3
TAP	6	360	4
TAP	7	48	4
TAP	7	48	5
TAP	7	96	4
TAP	7	96	5
TAP	7	192	3
TAP	7	192	6
HLD	7	288	1	96
HLD	7	288	4	96
TAP	8	48	2
TAP	8	48	3
TAP	8	96	2
TAP	8	96	3
TAP	8	168	3
TAP	8	168	4
TAP	8	240	4
TAP	8	240	5
TAP	8	288	4
TAP	8	288	5
TAP	8	360	3
TAP	8	360	4
TAP	9	48	2
TAP	9	48	3
TAP	9	96	2
TAP	9	96	3
TAP	9	192	1
TAP	9	192	4
TAP	9	288	5
TAP	9	312	4
TAP	9	336	5
HLD	9	360	4	264
TAP	10	240	6
TAP	10	264	4
TAP	10	288	6
HLD	10	312	4	264
TAP	11	192	7
TAP	11	216	4
TAP	11	240	7
HLD	11	264	4	264
TAP	12	144	0
TAP	12	216	1
TAP	12	216	7
TAP	12	264	1
TAP	12	264	7
TAP	12	312	2
TAP	12	312	6
TAP	12	360	2
TAP	12	360	6
TAP	13	24	3
HLD	13	48	4	96
TAP	13	144	3
TAP	13	192	3
TAP	13	240	2
TAP	13	288	4
TAP	13	336	5
TAP	14	0	5
TAP	14	48	4
TAP	14	48	6
TAP	14	96	3
TAP	14	144	2
TAP	14	144	4
TAP	14	192	1
TAP	14	240	0
TAP	14	288	7
TAP	14	336	3
TAP	14	336	6
TAP	15	0	5
TAP	15	48	3
TAP	15	48	4
TAP	15	96	4
TAP	15	144	5
TAP	15	192	3
TAP	15	240	2
TAP	15	288	2
TAP	15	336	1
TAP	15	336	3
TAP	16	0	0
TAP	16	48	0
TAP	16	96	7
TAP	16	144	7
TAP	16	192	1
TAP	16	192	6
TAP	16	240	2
TAP	16	240	5
TAP	16	288	3
TAP	16	288	4
TAP	16	336	3
TAP	16	336	4
TAP	17	0	5
HLD	17	48	5	1344
TAP	17	96	4
TAP	17	144	4
TAP	17	192	3
TAP	17	240	2
TAP	17	288	3
TAP	17	336	1
TAP	18	0	2
TAP	18	48	3
TAP	18	96	4
TAP	18	144	3
TAP	18	192	2
TAP	18	240	3
TAP	18	288	4
TAP	18	336	4
TAP	19	0	3
TAP	19	48	2
TAP	19	96	3
TAP	19	144	2
TAP	19	192	3
TAP	19	240	1
TAP	19	288	0
TAP	19	336	0
TAP	20	0	7
TAP	20	48	7
TAP	20	96	6
TAP	20	144	4
TAP	20	192	3
TAP	20	240	2
HLD	20	288	2	1248
TAP	20	336	3
TAP	21	0	3
TAP	21	48	4
TAP	21	96	5
TAP	21	144	4
TAP	21	192	6
TAP	21	240	5
TAP	21	288	4
TAP	21	336	3
TAP	22	0	4
TAP	22	48	5
TAP	22	96	4
TAP	22	144	3
TAP	22	192	3
TAP	22	240	4
TAP	22	288	5
TAP	22	336	4
TAP	23	0	5
TAP	23	48	4
TAP	23	96	6
TAP	23	144	7
TAP	23	192	7
TAP	23	240	0
TAP	23	288	0
TAP	23	336	1
TAP	24	0	3
TAP	24	48	4
STR	24	96	1
SI_	24	96	1	96	288	5
TAP	24	192	6
TAP	24	240	6
TAP	24	336	7
TAP	25	0	7
STR	25	96	6
SI_	25	96	6	96	288	2
TAP	25	192	1
TAP	25	240	1
TAP	25	336	0
TAP	26	0	0
STR	26	96	1
SI_	26	96	1	96	288	5
TAP	26	192	6
TAP	26	240	6
TAP	26	336	7
TAP	27	0	7
STR	27	96	6
SI_	27	96	6	96	192	3
TAP	27	192	0
TAP	27	240	0
TAP	27	336	1
TAP	28	0	1
STR	28	96	2
SI_	28	96	2	96	288	6
TAP	28	192	4
TAP	28	240	4
TAP	28	336	3
TAP	29	0	3
STR	29	96	5
SI_	29	96	5	96	288	1
TAP	29	192	3
TAP	29	240	3
TAP	29	336	4
TAP	30	0	4
STR	30	96	2
SI_	30	96	2	96	288	6
TAP	30	192	4
TAP	30	240	4
TAP	30	336	3
TAP	31	0	3
STR	31	96	5
SI_	31	96	5	96	192	0
TAP	31	192	1
TAP	31	240	1
TAP	31	336	2
TAP	32	0	2
TAP	32	96	1
TAP	32	96	2
TAP	32	168	0
TAP	32	168	3
TAP	32	240	4
TAP	32	288	5
TAP	32	336	6
TAP	33	0	5
TAP	33	0	6
TAP	33	72	4
TAP	33	72	7
TAP	33	144	4
TAP	33	192	3
TAP	33	240	2
TAP	33	240	4
TAP	33	288	2
TAP	33	288	4
TAP	33	336	1
TAP	34	0	1
TAP	34	0	2
TAP	34	72	0
TAP	34	72	3
TAP	34	144	4
TAP	34	192	5
TAP	34	240	6
TAP	34	288	5
TAP	34	288	6
TAP	34	360	4
TAP	34	360	7
TAP	35	48	4
TAP	35	96	3
TAP	35	144	2
TAP	35	144	4
TAP	35	192	2
TAP	35	192	4
TAP	35	240	1
TAP	35	288	1
TAP	35	288	2
TAP	35	360	0
TAP	35	360	3
TAP	36	48	1
TAP	36	96	0
TAP	36	144	7
TAP	36	192	5
TAP	36	192	6
TAP	36	264	4
TAP	36	264	7
TAP	36	336	6
TAP	37	0	6
TAP	37	48	0
TAP	37	48	7
TAP	37	96	0
TAP	37	96	7
TAP	37	144	1
TAP	37	192	1
TAP	37	192	2
TAP	37	264	0
TAP	37	264	3
TAP	37	336	1
TAP	38	0	0
TAP	38	48	7
TAP	38	96	5
TAP	38	96	6
TAP	38	168	4
TAP	38	168	7
TAP	38	240	6
TAP	38	288	6
TAP	38	336	0
TAP	38	360	7
TAP	39	0	0
TAP	39	24	7
TAP	39	48	0
HLD	39	96	6	72
HLD	39	168	5	72
TAP	39	240	4
HLD	39	288	1	72
HLD	39	360	2	72
TAP	40	48	3
HLD	40	96	6	72
HLD	40	168	5	72
TAP	40	240	4
HLD	40	288	3	72
HLD	40	360	2	72
TAP	41	48	1
HLD	41	96	5	72
HLD	41	168	6	72
TAP	41	240	7
HLD	41	288	0	72
HLD	41	360	1	72
TAP	42	48	2
HLD	42	96	7	72
HLD	42	168	6	72
TAP	42	240	5
BRK	42	288	3
BRK	42	288	4
BRK	42	360	0
BRK	42	360	7
BRK	43	48	1
BRK	43	48	6
TTP	43	288	0	C	1	M1
TTP	43	288	2	B	0	M1
TTP	43	288	3	B	0	M1
TTP	43	288	4	B	0	M1
TTP	43	288	5	B	0	M1
TAP	44	48	0
TAP	44	72	7
TAP	44	96	0
TAP	44	168	1
TAP	44	168	3
TAP	44	240	3
TAP	44	240	5
STR	44	288	6
SI_	44	288	6	96	48	2
TAP	45	0	1
STR	45	48	1
SI_	45	48	1	96	48	5
TAP	45	144	7
STR	45	192	7
SCL	45	192	7	96	96	2
TTP	45	288	0	C	1	M1
TAP	46	48	0
TAP	46	72	7
STR	46	96	0
SI_	46	96	0	96	48	4
TAP	46	192	5
TAP	46	240	5
TAP	46	288	6
HLD	46	336	6	48
TAP	47	0	4
HLD	47	48	4	48
TAP	47	96	3
HLD	47	144	3	48
STR	47	192	1
SCL	47	192	1	96	96	4
TTP	47	288	0	C	1	M1
TAP	48	48	7
TAP	48	72	0
TAP	48	96	7
TAP	48	168	1
TAP	48	168	6
TAP	48	240	0
TAP	48	240	5
TAP	48	288	0
TAP	48	288	5
TAP	48	360	1
TAP	48	360	6
TAP	49	48	2
TAP	49	48	7
TAP	49	96	2
TAP	49	96	7
TAP	49	168	1
TAP	49	168	6
TAP	49	240	0
TAP	49	240	5
TAP	49	288	0
TAP	49	288	5
TAP	50	0	2
TAP	50	48	1
TAP	50	48	3
TAP	50	144	5
TAP	50	192	4
TAP	50	192	6
HLD	50	288	0	48
HLD	50	336	1	48
HLD	51	0	2	48
HLD	51	48	3	48
HLD	51	96	4	48
HLD	51	144	5	48
STR	51	192	6
SCL	51	192	6	96	288	7
TAP	51	240	7
TTP	51	288	0	C	1	M1
HLD	52	288	2	384
TAP	52	336	3
TAP	53	0	3
TAP	53	48	4
TAP	53	96	5
TAP	53	144	4
TAP	53	192	3
TAP	53	240	4
HLD	53	288	5	384
TAP	53	336	4
TAP	54	0	4
TAP	54	48	3
TAP	54	96	2
TAP	54	144	3
TAP	54	192	4
TAP	54	240	3
HLD	54	288	2	288
TAP	54	336	3
TAP	55	0	3
TAP	55	48	4
TAP	55	96	5
TAP	55	144	4
TAP	55	192	4
STR	55	288	5
SCR	55	288	5	96	672	0
TTP	56	96	3	E	0	M1
TTP	57	96	4	E	0	M1
STR	57	288	1
SCR	57	288	1	96	672	4
TTP	58	96	0	C	0	M1
TTP	59	96	0	E	0	M1
STR	59	288	5
SCR	59	288	5	96	672	0
TTP	60	96	1	B	0	M1
TTP	60	96	2	B	0	M1
TTP	61	96	3	B	0	M1
TTP	61	96	4	B	0	M1
STR	61	288	1
SCR	61	288	1	96	672	4
TTP	62	96	0	C	0	M1
TTP	63	96	0	B	0	M1
TTP	63	96	7	B	0	M1
STR	63	288	6
SI_	63	288	6	96	384	3
TAP	64	96	7
STR	64	288	0
SI_	64	288	0	96	384	5
TAP	65	96	1
STR	65	288	2
SI_	65	288	2	96	288	7
TAP	66	96	3
STR	66	288	4
SI_	66	288	4	96	384	1
TAP	67	96	5
TAP	67	288	6
STR	68	0	6
SCL	68	0	6	96	192	3
TAP	68	96	7
TAP	68	192	7
TAP	68	288	0
STR	69	0	0
SCL	69	0	0	96	192	5
TAP	69	96	1
TAP	69	192	1
TAP	69	288	2
STR	70	0	2
SCL	70	0	2	96	192	7
TAP	70	96	4
STR	70	192	4
SF_	70	192	4	96	96	0
BRK	71	96	2
BRK	71	96	6
XTP	71	192	0
XTP	71	240	1
XTP	71	240	7
XTP	71	288	2
XTP	71	288	6
TAP	71	336	3
TAP	72	0	4
TAP	72	48	5
TAP	72	96	2
TAP	72	96	6
TAP	72	144	1
XTP	72	192	7
XTP	72	240	0
XTP	72	240	6
XTP	72	288	1
XTP	72	288	5
TAP	72	336	4
TAP	73	0	3
TAP	73	48	2
TAP	73	96	1
TAP	73	96	6
TAP	73	144	5
TAP	73	192	4
TAP	73	240	3
TAP	73	288	2
TAP	73	288	5
TAP	73	336	3
TAP	74	0	4
TAP	74	48	5
TAP	74	96	1
TAP	74	96	6
TAP	74	144	2
TAP	74	192	3
TAP	74	240	4
HLD	74	288	2	48
HLD	74	288	5	48
HLD	75	0	3	48
HLD	75	0	6	48
HLD	75	96	1	48
HLD	75	96	4	48
HLD	75	192	2	48
HLD	75	192	5	48
TAP	75	288	3
TAP	75	312	4
TAP	75	336	3
TAP	75	360	4
TAP	76	0	3
TAP	76	24	4
TAP	76	48	3
TAP	76	72	4
TAP	76	96	2
TAP	76	120	5
TAP	76	144	2
TAP	76	168	5
TAP	76	192	3
TAP	76	216	4
TAP	76	240	3
TAP	76	264	4
TAP	76	288	1
TAP	76	312	6
TAP	76	336	1
TAP	76	360	6
TAP	77	0	2
TAP	77	24	5
TAP	77	48	2
TAP	77	72	5
TAP	77	96	1
TAP	77	120	6
TAP	77	144	1
TAP	77	168	6
TAP	77	192	0
TAP	77	216	7
TAP	77	240	0
TAP	77	264	7
TAP	77	288	0
TAP	77	304	1
TAP	77	320	2
TAP	77	336	3
TAP	77	352	4
TAP	77	368	5
TAP	78	0	6
TAP	78	16	7
TAP	78	32	0
TAP	78	48	1
TAP	78	64	2
TAP	78	80	3
TAP	78	96	4
TAP	78	112	5
TAP	78	128	6
TAP	78	144	7
TAP	78	160	0
TAP	78	176	1
TAP	78	192	2
TAP	78	208	3
TAP	78	224	4
TAP	78	240	5
TAP	78	256	6
TAP	78	272	7
XTP	78	288	0
XTP	78	336	0
XTP	79	0	0
XTP	79	48	0
TAP	79	96	1
TAP	79	96	7
TAP	79	144	1
TAP	79	144	7
TAP	79	192	1
TAP	79	192	7
TAP	79	240	1
TAP	79	240	7
TAP	79	288	2
TAP	79	288	6
TAP	79	336	2
TAP	79	336	6
TAP	80	0	2
TAP	80	0	6
TAP	80	48	2
TAP	80	48	6
TAP	80	96	3
TAP	80	96	5
TAP	80	144	3
TAP	80	144	5
TAP	80	192	3
TAP	80	192	5
TAP	80	240	3
TAP	80	240	5
XTP	80	288	4
XTP	80	312	4
XTP	80	336	4
XTP	80	360	4
XST	81	0	4
SCR	81	0	4	96	144	3
TAP	81	288	1
TAP	81	336	1
TAP	82	0	2
TAP	82	0	4
TAP	82	48	5
TAP	82	72	4
TAP	82	96	5
TAP	82	144	3
TAP	82	192	3
TAP	82	216	4
TAP	82	240	3
TAP	82	288	2
TAP	82	288	5
TAP	82	336	6
TAP	83	0	0
TAP	83	0	7
TAP	83	48	1
TAP	83	96	2
TAP	83	96	4
TAP	83	144	5
TAP	83	192	6
TAP	83	240	6
TAP	83	288	3
TAP	83	288	5
TAP	83	336	2
TAP	83	360	3
TAP	84	0	2
TAP	84	48	4
TAP	84	96	4
TAP	84	120	3
TAP	84	144	4
TAP	84	192	5
TAP	84	240	4
TAP	84	240	6
TAP	84	288	2
TAP	84	336	1
TAP	84	336	3
TAP	85	0	4
TAP	85	48	3
TAP	85	48	5
TAP	85	96	2
TAP	85	96	6
TAP	85	144	1
TAP	85	192	1
TAP	85	240	1
TAP	85	240	3
TAP	85	288	1
TAP	85	288	3
TAP	85	336	1
TAP	86	0	1
TAP	86	0	4
TAP	86	48	1
TAP	86	48	5
TAP	86	96	6
TAP	86	144	6
TAP	86	192	4
TAP	86	192	6
TAP	86	240	4
TAP	86	240	6
TAP	86	288	6
TAP	86	336	0
TAP	86	336	6
TAP	87	0	1
TAP	87	0	6
TAP	87	48	2
TAP	87	96	2
TAP	87	144	2
TAP	87	144	5
TAP	87	192	2
TAP	87	192	5
TAP	87	240	2
TAP	87	288	2
TAP	87	288	3
TAP	87	336	2
TAP	87	336	4
TAP	88	0	5
TAP	88	48	6
TAP	88	96	7
TAP	88	144	0
TAP	88	192	1
TAP	88	240	2
TAP	88	288	3
TAP	88	288	5
TAP	88	336	2
TAP	88	336	6
HLD	89	0	7	48
HLD	89	48	6	48
HLD	89	96	5	48
HLD	89	144	4	48
HLD	89	192	3	48
HLD	89	240	2	48
HLD	89	288	1	48
HLD	89	336	0	48
TAP	90	0	7
TAP	90	24	7
TAP	90	72	4
TAP	90	72	6
TAP	90	120	3
TAP	90	120	7
TAP	90	168	4
TAP	90	168	6
TAP	90	216	3
TAP	90	216	7
TAP	90	264	4
TAP	90	264	6
TAP	90	312	2
TAP	90	336	2
TAP	91	0	1
TAP	91	0	3
TAP	91	48	0
TAP	91	48	4
TAP	91	96	1
TAP	91	96	3
TAP	91	144	0
TAP	91	144	4
TAP	91	192	1
TAP	91	192	3
TAP	91	240	0
TAP	91	240	4
TAP	91	288	5
TAP	91	336	6
TAP	92	0	2
TAP	92	48	1
TAP	92	96	4
TAP	92	120	3
TAP	92	144	4
STR	92	168	3
SI_	92	168	3	96	48	0
STR	92	264	4
SI_	92	264	4	96	48	7
STR	92	360	0
SCR	92	360	0	96	120	6
TAP	93	264	7
STR	93	312	7
SCL	93	312	7	96	120	1
TAP	94	216	0
TAP	94	264	0
STR	94	312	0
SI_	94	312	0	96	48	3
STR	94	312	7
SI_	94	312	7	96	48	4
TAP	95	120	2
TAP	95	120	5
TAP	95	216	1
TAP	95	216	6
TAP	95	264	1
TAP	95	264	6
TAP	95	360	3
TAP	95	360	5
TAP	96	72	2
TAP	96	72	4
TAP	96	168	1
TAP	96	168	6
HLD	96	264	2	184
TAP	96	264	5
TAP	97	0	3
TAP	97	32	3
TAP	97	64	3
TAP	97	128	2
TAP	97	128	3
TAP	97	192	0
TAP	97	192	1
TAP	97	256	6
TAP	97	256	7
TAP	97	320	4
TAP	97	320	5
TAP	98	0	2
TAP	98	0	3
STR	98	64	0
SI_	98	64	0	96	48	4
TAP	98	64	1
XTP	98	160	0
TAP	98	264	2
HLD	98	264	5	120
TAP	99	0	4
TAP	99	48	2
TAP	99	64	3
TAP	99	112	5
TAP	99	128	4
TAP	99	176	6
TAP	99	192	7
TAP	99	240	1
TAP	99	256	0
TAP	99	304	2
TAP	99	320	3
TAP	99	368	5
TAP	100	0	4
TAP	100	48	0
STR	100	64	7
SI_	100	64	7	96	48	3
XTP	100	160	7
TAP	101	24	0
HLD	101	48	6	408
HLD	101	72	2	312
TTP	102	24	3	E	0	M1
TTP	102	48	4	E	0	M1
TTP	102	72	5	E	0	M1

T_REC_TAP	604
T_REC_BRK	9
T_REC_XTP	20
T_REC_HLD	60
T_REC_XHO	0
T_REC_STR	34
T_REC_BST	0
T_REC_XST	1
T_REC_TTP	27
T_REC_THO	0
T_REC_SLD	35
T_REC_ALL	790
T_NUM_TAP	686
T_NUM_BRK	9
T_NUM_HLD	60
T_NUM_SLD	35
T_NUM_ALL	790
T_JUDGE_TAP	695
T_JUDGE_HLD	199
T_JUDGE_SLD	35
T_JUDGE_ALL	929
TTM_EACHPAIRS	145
TTM_SCR_TAP	343000
TTM_SCR_BRK	23400
TTM_SCR_HLD	60000
TTM_SCR_SLD	52500
TTM_SCR_ALL	478900
TTM_SCR_S	463700
TTM_SCR_SS	478000
TTM_RAT_ACV	10018

