VERSION	0.00.00	1.03.00
FES_MODE	0
BPM_DEF	145.000	145.000	145.000	145.000
MET_DEF	4	4
RESOLUTION	384
CLK_DEF	384
COMPATIBLE_CODE	MA2

BPM	0	0	145.000
MET	0	0	4	4
MET	3	0	8	7
MET	4	288	4	4
MET	9	288	8	7
MET	12	144	4	4
MET	13	144	8	7
MET	16	0	4	4
MET	17	0	8	7
MET	19	240	4	4
MET	20	240	8	7
MET	23	96	4	4
MET	32	96	4	7
MET	39	96	4	4
MET	43	96	4	2
MET	43	288	4	4
MET	81	288	8	7
MET	84	144	4	4
MET	85	144	8	7
MET	88	0	4	4
MET	90	0	16	13
MET	92	168	4	2
MET	92	360	4	4
MET	93	360	8	7
MET	95	264	4	4
MET	100	264	4	2
MET	101	72	4	4

TAP	2	0	2
TAP	2	96	2
HLD	2	192	2	144
HLD	2	192	3	144
TAP	3	96	5
HLD	3	192	4	144
HLD	3	192	5	144
TAP	4	96	2
STR	4	192	3
SI_	4	192	3	96	192	7
STR	4	192	4
SI_	4	192	4	96	192	0
XTP	5	288	1
XTP	5	288	6
TAP	6	96	5
TAP	6	192	5
TAP	6	288	4
TAP	7	0	4
TAP	7	96	3
TAP	7	192	3
XTP	7	288	2
XTP	7	288	4
TAP	8	96	1
TAP	8	192	1
TAP	8	288	0
TAP	9	0	0
TAP	9	96	7
TAP	9	192	7
TAP	9	288	0
STR	9	288	7
SI_	9	288	7	96	144	4
STR	10	240	3
SI_	10	240	3	96	144	0
STR	11	192	7
SI_	11	192	7	96	144	4
TAP	12	144	3
TAP	12	240	3
TAP	12	240	4
TAP	12	336	2
TAP	12	336	5
TAP	13	48	1
TAP	13	48	6
XTP	13	144	0
XTP	13	144	7
TAP	13	240	6
TAP	13	288	6
TAP	13	336	6
TAP	14	48	6
TAP	14	48	7
XTP	14	96	6
XTP	14	96	7
TAP	14	192	1
TAP	14	240	1
TAP	14	288	1
TAP	15	0	0
TAP	15	0	1
XTP	15	48	0
XTP	15	48	1
TAP	15	144	6
TAP	15	192	6
TAP	15	240	6
TAP	15	336	6
TAP	15	336	7
XTP	16	0	6
XTP	16	0	7
TAP	16	96	0
TAP	16	96	5
TAP	16	192	1
TAP	16	192	4
TAP	16	288	2
TAP	16	288	3
BRK	17	0	1
BRK	17	0	4
TAP	17	96	5
TAP	17	144	5
TAP	17	192	5
TAP	17	288	4
TAP	17	288	5
XTP	17	336	4
XTP	17	336	5
TAP	18	48	2
TAP	18	96	2
TAP	18	144	2
TAP	18	240	2
TAP	18	240	3
XTP	18	288	2
XTP	18	288	3
TAP	19	0	5
TAP	19	48	5
TAP	19	96	5
TAP	19	192	4
TAP	19	192	5
XTP	19	240	4
XTP	19	240	5
TAP	19	336	3
TAP	19	336	6
TAP	20	48	2
TAP	20	48	7
TAP	20	144	0
TAP	20	144	1
XTP	20	240	2
XTP	20	240	7
TAP	20	336	6
TAP	21	0	6
TAP	21	48	6
TAP	21	144	4
TAP	21	144	5
XTP	21	192	4
XTP	21	192	5
TAP	21	288	2
TAP	21	336	2
TAP	22	0	2
TAP	22	96	0
TAP	22	96	1
XTP	22	144	0
XTP	22	144	1
TAP	22	240	6
TAP	22	288	6
TAP	22	336	6
TAP	23	48	4
TAP	23	48	5
XTP	23	96	4
XTP	23	96	5
TAP	23	192	6
TAP	23	192	7
TAP	23	288	0
TAP	23	288	1
TAP	24	0	2
TAP	24	0	3
STR	24	96	4
SCR	24	96	4	96	144	7
STR	25	96	0
SCR	25	96	0	96	144	3
STR	26	96	4
SXL	26	96	4	96	432	7
STR	28	96	1
SCR	28	96	1	96	144	4
STR	29	96	5
SCR	29	96	5	96	144	0
STR	30	96	1
SXL	30	96	1	96	432	5
HLD	32	96	6	72
HLD	32	96	7	72
TAP	32	288	0
TAP	32	288	1
HLD	33	0	0	72
HLD	33	0	1	72
TAP	33	192	0
TAP	33	192	1
TAP	33	288	2
TAP	33	288	3
HLD	34	0	2	72
HLD	34	0	3	72
TAP	34	192	4
TAP	34	192	5
HLD	34	288	4	72
HLD	34	288	5	72
TAP	35	96	4
TAP	35	96	5
TAP	35	192	6
TAP	35	192	7
HLD	35	288	0	72
HLD	35	288	5	72
TAP	36	96	0
TAP	36	96	1
HLD	36	192	2	72
HLD	36	192	7	72
TAP	37	0	2
TAP	37	0	3
TAP	37	96	4
TAP	37	96	5
HLD	37	192	3	72
HLD	37	192	6	72
TAP	38	0	2
TAP	38	0	3
HLD	38	96	1	72
HLD	38	96	4	72
TAP	38	288	0
TAP	39	0	0
TAP	39	0	7
TTP	39	96	4	B	0	L1
TTP	39	96	5	B	0	L1
TTP	39	288	6	B	0	L1
TTP	39	288	7	B	0	L1
TTP	40	96	0	B	0	L1
TTP	40	96	1	B	0	L1
TTP	40	288	2	B	0	L1
TTP	40	288	3	B	0	L1
TTP	41	96	4	B	0	L1
TTP	41	96	5	E	0	L1
TTP	41	288	7	B	0	L1
TTP	41	288	7	E	0	L1
TTP	42	96	0	B	0	L1
TTP	42	96	1	E	0	L1
TTP	42	288	0	C	1	L1
TTP	42	288	2	B	0	L1
TTP	42	288	5	B	0	L1
BRK	43	288	6
TAP	44	0	6
TAP	44	0	7
TAP	44	96	6
TAP	44	192	6
TAP	44	192	7
TAP	44	288	1
TAP	45	0	0
TAP	45	0	1
TAP	45	96	1
TAP	45	192	0
TAP	45	192	1
TAP	45	288	2
TAP	46	0	2
TAP	46	96	3
TAP	46	192	3
TAP	46	288	3
TAP	46	288	4
TAP	47	0	2
TAP	47	0	5
TAP	47	96	1
TAP	47	96	6
TAP	47	192	0
TAP	47	192	7
TAP	47	288	1
TAP	48	0	0
TAP	48	0	1
TAP	48	96	2
TAP	48	192	2
TAP	48	192	3
TAP	48	288	5
TAP	49	0	4
TAP	49	0	5
TAP	49	96	6
TAP	49	192	6
TAP	49	192	7
BST	49	288	0
SCR	49	288	0	96	144	3
BST	49	288	7
SCL	49	288	7	96	144	4
TAP	50	288	3
TAP	50	336	3
TAP	51	0	3
TAP	51	96	4
TAP	51	144	4
TAP	51	192	4
BST	51	288	3
SXR	51	288	3	96	480	0
BST	51	288	4
SXL	51	288	4	96	480	7
TAP	53	288	6
TAP	53	336	6
TAP	54	0	6
TAP	54	96	6
TAP	54	96	7
TAP	54	192	0
TAP	54	192	5
TAP	54	288	1
TAP	54	336	1
TAP	55	0	1
TAP	55	96	0
TAP	55	96	1
TAP	55	192	2
TAP	55	192	7
STR	55	288	7
SCL	55	288	7	96	288	2
TAP	57	96	1
STR	57	288	0
SCR	57	288	0	96	288	5
TAP	59	96	6
STR	59	288	7
SI_	59	288	7	96	144	3
STR	60	288	2
SI_	60	288	2	96	144	5
TAP	61	288	6
TAP	62	96	5
STR	62	288	3
SI_	62	288	3	96	144	0
STR	62	288	4
SI_	62	288	4	96	144	7
XHO	63	288	6	192
TAP	64	96	7
HLD	64	288	1	192
TAP	65	96	0
HLD	65	288	6	192
TAP	66	96	7
HLD	66	288	0	96
HLD	66	288	1	96
TAP	67	96	0
TAP	67	96	1
TAP	67	288	6
TAP	68	0	6
TAP	68	96	7
TAP	68	192	7
TAP	68	288	0
TAP	69	0	0
TAP	69	96	1
TAP	69	192	1
TAP	69	288	2
TAP	69	336	2
TAP	70	0	2
TAP	70	96	3
TAP	70	144	3
TAP	70	192	3
TAP	70	288	4
TAP	70	336	4
TAP	71	0	4
BRK	71	96	3
BRK	71	96	4
TTP	71	288	6	E	0	L1
TTP	72	0	5	B	0	L1
TTP	72	96	4	B	0	L1
TTP	72	288	2	E	0	L1
TTP	73	0	2	B	0	L1
TTP	73	96	3	B	0	L1
TTP	73	288	6	E	0	L1
TTP	74	0	5	B	0	L1
TTP	74	96	4	B	0	L1
TTP	74	192	3	B	0	L1
TTP	74	288	2	B	0	L1
TTP	75	0	2	E	0	L1
TTP	75	96	1	E	0	L1
XHO	75	288	6	96
HLD	76	0	7	96
HLD	76	96	0	96
TAP	76	192	1
HLD	76	288	2	96
HLD	77	0	3	96
HLD	77	96	4	96
TAP	77	192	5
TAP	77	288	6
TAP	77	288	7
TAP	78	0	4
TAP	78	0	5
TAP	78	96	2
TAP	78	96	3
TAP	78	192	0
TAP	78	192	1
TAP	78	288	2
TAP	78	336	2
TAP	79	0	2
TAP	79	96	3
TAP	79	144	3
TAP	79	192	3
TAP	79	288	4
TAP	79	336	4
TAP	80	0	4
TAP	80	96	5
TAP	80	144	5
TAP	80	192	5
TAP	80	288	3
TAP	80	288	4
TAP	80	336	3
TAP	80	336	4
TAP	81	0	3
TAP	81	0	4
BRK	81	96	1
BRK	81	96	6
XTP	81	288	0
XTP	81	288	7
TAP	82	0	6
TAP	82	48	6
TAP	82	96	6
TAP	82	192	6
TAP	82	192	7
XTP	82	240	6
XTP	82	240	7
TAP	82	336	1
TAP	83	0	1
TAP	83	48	1
TAP	83	144	0
TAP	83	144	1
XTP	83	192	0
XTP	83	192	1
TAP	83	288	6
TAP	83	336	6
TAP	84	0	6
TAP	84	96	6
TAP	84	96	7
XTP	84	144	6
XTP	84	144	7
TAP	84	240	0
TAP	84	240	5
TAP	84	336	1
TAP	84	336	4
TAP	85	48	2
TAP	85	48	3
BRK	85	144	1
BRK	85	144	4
TAP	85	240	5
TAP	85	288	5
TAP	85	336	5
TAP	86	48	4
TAP	86	48	5
XTP	86	96	4
XTP	86	96	5
TAP	86	192	2
TAP	86	240	2
TAP	86	288	2
TAP	87	0	2
TAP	87	0	3
XTP	87	48	2
XTP	87	48	3
TAP	87	144	5
TAP	87	192	5
TAP	87	240	5
TAP	87	336	4
TAP	87	336	5
XTP	88	0	4
XTP	88	0	5
TAP	88	96	3
TAP	88	96	6
TAP	88	192	2
TAP	88	192	7
TAP	88	288	0
TAP	88	288	1
TAP	89	0	2
TAP	89	0	3
TAP	89	96	1
TAP	89	96	4
TAP	89	192	0
TAP	89	192	5
TAP	89	288	6
TAP	89	288	7
HLD	90	0	5	96
HLD	90	96	4	96
HLD	90	192	3	96
TAP	90	288	2
HLD	91	0	1	96
HLD	91	96	0	96
HLD	91	192	7	96
TAP	91	288	6
TAP	92	0	4
TAP	92	0	5
XTP	92	96	3
XTP	92	96	6
XHO	92	168	3	96
XHO	92	168	6	96
TAP	92	360	2
TAP	93	72	2
HLD	93	168	2	144
HLD	93	168	3	144
TAP	94	72	5
HLD	94	168	4	144
HLD	94	168	5	144
TAP	95	72	2
STR	95	168	3
SI_	95	168	3	96	192	7
STR	95	168	4
SI_	95	168	4	96	192	0
XTP	96	264	1
XTP	96	264	6
TAP	97	72	5
TAP	97	168	5
TAP	97	264	4
TAP	97	360	4
TAP	98	72	3
TAP	98	168	3
XTP	98	264	2
XTP	98	264	4
TAP	99	72	1
TAP	99	168	1
TAP	99	264	0
TAP	99	360	0
TAP	100	72	7
TAP	100	168	0
TAP	100	168	7
THO	101	72	0	384	C	1	L1
TTP	101	72	1	B	0	L1
TTP	101	72	2	B	0	L1
TTP	101	72	5	B	0	L1
TTP	101	72	6	B	0	L1

T_REC_TAP	290
T_REC_BRK	9
T_REC_XTP	46
T_REC_HLD	39
T_REC_XHO	4
T_REC_STR	19
T_REC_BST	4
T_REC_XST	0
T_REC_TTP	34
T_REC_THO	1
T_REC_SLD	23
T_REC_ALL	469
T_NUM_TAP	389
T_NUM_BRK	13
T_NUM_HLD	44
T_NUM_SLD	23
T_NUM_ALL	469
T_JUDGE_TAP	402
T_JUDGE_HLD	108
T_JUDGE_SLD	23
T_JUDGE_ALL	533
TTM_EACHPAIRS	121
TTM_SCR_TAP	194500
TTM_SCR_BRK	33800
TTM_SCR_HLD	44000
TTM_SCR_SLD	34500
TTM_SCR_ALL	306800
TTM_SCR_S	296350
TTM_SCR_SS	305500
TTM_RAT_ACV	10042

