VERSION	0.00.00	1.03.00
FES_MODE	0
BPM_DEF	145.000	145.000	145.000	145.000
MET_DEF	4	4
RESOLUTION	384
CLK_DEF	384
COMPATIBLE_CODE	MA2

BPM	0	0	145.000
MET	0	0	4	4
MET	3	0	8	7
MET	4	288	4	4
MET	9	288	8	7
MET	12	144	4	4
MET	13	144	8	7
MET	16	0	4	4
MET	17	0	8	7
MET	19	240	4	4
MET	20	240	8	7
MET	23	96	4	4
MET	32	96	4	7
MET	39	96	4	4
MET	43	96	4	2
MET	43	288	4	4
MET	81	288	8	7
MET	84	144	4	4
MET	85	144	8	7
MET	88	0	4	4
MET	90	0	16	13
MET	92	168	4	2
MET	92	360	4	4
MET	93	360	8	7
MET	95	264	4	4
MET	100	264	4	2
MET	101	72	4	4

XTP	5	288	0
TAP	6	288	0
TAP	7	288	7
TAP	8	288	7
XHO	9	288	0	672
XHO	9	288	7	672
XTP	12	144	0
XTP	12	144	7
XTP	13	144	0
TAP	13	240	0
TAP	13	336	1
TAP	14	48	1
TAP	14	144	2
TAP	14	240	2
TAP	14	336	3
TAP	15	48	3
TAP	15	144	4
TAP	15	240	4
XHO	15	336	3	240
XHO	15	336	4	240
XTP	17	0	4
TAP	17	96	4
TAP	17	192	5
TAP	17	288	5
TAP	18	0	6
TAP	18	96	6
TAP	18	192	7
TAP	18	288	7
TAP	19	0	0
TAP	19	96	0
HLD	19	192	0	240
HLD	19	192	7	240
TAP	20	240	7
TAP	20	336	7
TAP	21	48	6
TAP	21	144	6
TAP	21	240	5
TAP	21	336	5
TAP	22	48	4
TAP	22	144	4
TAP	22	240	3
TAP	22	336	3
XHO	23	48	3	240
XHO	23	48	4	240
TAP	24	96	3
TAP	24	288	3
TAP	24	288	4
TAP	25	96	2
TAP	25	288	2
TAP	25	288	3
TAP	26	96	1
TAP	26	288	0
TAP	26	288	1
TAP	27	96	0
TAP	27	288	0
TAP	27	288	7
TAP	28	96	0
TAP	28	288	1
TAP	29	96	2
TAP	29	288	3
TAP	30	96	4
TAP	30	288	5
TAP	31	96	6
TAP	31	288	0
TAP	31	288	7
XST	32	96	7
SI_	32	96	7	96	192	4
XST	34	0	0
SI_	34	0	0	96	192	3
XST	35	288	7
SI_	35	288	7	96	192	3
XST	37	192	0
SI_	37	192	0	96	192	4
TAP	39	96	7
TAP	39	192	7
TAP	39	288	0
TAP	39	288	7
TAP	40	96	6
TAP	40	192	6
TAP	40	288	6
TAP	40	288	7
TAP	41	96	1
TAP	41	192	1
TAP	41	288	0
TAP	41	288	1
TAP	42	96	0
TAP	42	192	0
HLD	42	288	0	192
HLD	42	288	7	192
XTP	43	288	0
TAP	44	0	0
TAP	44	96	1
TAP	44	192	1
TAP	44	288	2
TAP	45	0	2
TAP	45	96	2
TAP	45	96	3
TAP	45	288	4
TAP	46	0	4
TAP	46	96	5
TAP	46	192	5
TAP	46	288	6
TAP	47	0	6
TAP	47	96	6
TAP	47	96	7
TAP	47	288	7
TAP	48	0	7
TAP	48	96	6
TAP	48	192	6
TAP	48	288	5
TAP	49	0	5
TAP	49	96	3
TAP	49	96	4
TAP	49	192	3
TAP	49	192	4
TAP	49	288	3
TAP	50	0	3
TAP	50	96	2
TAP	50	192	2
TAP	50	288	1
TAP	51	0	1
TAP	51	96	0
TAP	51	192	0
XTP	51	288	0
XTP	51	288	7
HLD	53	288	0	192
HLD	53	288	1	192
HLD	54	288	6	192
HLD	54	288	7	192
TTP	55	288	6	B	0	L1
TTP	55	288	7	B	0	L1
TTP	56	288	4	B	0	L1
TTP	56	288	5	B	0	L1
TTP	57	288	2	B	0	L1
TTP	57	288	3	B	0	L1
TTP	58	288	0	B	0	L1
TTP	58	288	1	B	0	L1
TTP	59	288	0	E	0	L1
TTP	60	288	1	E	0	L1
TTP	60	288	7	E	0	L1
THO	61	288	0	384	C	0	L1
TTP	63	288	0	B	0	L1
TTP	63	288	0	E	0	L1
TTP	63	288	7	B	0	L1
TTP	64	288	5	B	0	L1
TTP	64	288	6	B	0	L1
TTP	64	288	6	E	0	L1
TTP	65	288	3	B	0	L1
TTP	65	288	4	B	0	L1
TTP	65	288	4	E	0	L1
TTP	66	288	1	B	0	L1
TTP	66	288	2	B	0	L1
TTP	66	288	2	E	0	L1
TTP	67	288	0	E	0	L1
TTP	67	288	6	B	0	L1
TTP	67	288	7	B	0	L1
TTP	67	288	7	E	0	L1
TTP	68	288	1	B	0	L1
TTP	68	288	1	E	0	L1
TTP	68	288	2	B	0	L1
TTP	68	288	2	E	0	L1
TTP	69	288	4	B	0	L1
TTP	69	288	4	E	0	L1
TTP	69	288	5	B	0	L1
TTP	69	288	5	E	0	L1
TTP	70	288	0	C	1	L1
TTP	70	288	1	B	0	L1
TTP	70	288	2	B	0	L1
TTP	70	288	5	B	0	L1
TTP	70	288	6	B	0	L1
TAP	71	288	0
TAP	72	0	0
TAP	72	96	1
TAP	72	144	1
TAP	72	192	1
TAP	72	288	2
TAP	73	0	2
TAP	73	96	2
TAP	73	96	3
TAP	73	288	4
TAP	74	0	4
TAP	74	96	5
TAP	74	144	5
TAP	74	192	5
TAP	74	288	6
TAP	75	0	6
TAP	75	96	6
TAP	75	96	7
TAP	75	288	7
TAP	76	0	7
TAP	76	96	6
TAP	76	144	6
TAP	76	192	6
TAP	76	288	5
TAP	77	0	5
TAP	77	96	4
TAP	77	144	4
TAP	77	192	4
TAP	77	288	3
TAP	78	0	3
TAP	78	96	2
TAP	78	144	2
TAP	78	192	2
TAP	78	288	1
TAP	79	0	1
TAP	79	96	0
TAP	79	96	1
TAP	79	144	0
TAP	79	144	1
TAP	79	192	0
TAP	79	192	1
TAP	79	288	7
TAP	80	0	7
TAP	80	96	6
TAP	80	96	7
TAP	80	144	6
TAP	80	144	7
TAP	80	192	6
TAP	80	192	7
TAP	80	288	0
TAP	81	0	0
BRK	81	96	0
BRK	81	96	7
TAP	81	288	0
TAP	81	288	7
TAP	82	0	0
TAP	82	0	7
TAP	82	96	1
TAP	82	192	1
TAP	82	288	2
TAP	83	0	2
TAP	83	96	3
TAP	83	96	4
TAP	83	192	3
TAP	83	192	4
TAP	83	288	5
TAP	84	0	5
HLD	84	96	6	240
HLD	84	96	7	240
XTP	85	144	0
XTP	85	144	7
TAP	85	240	0
TAP	85	240	7
TAP	85	336	6
TAP	86	48	6
TAP	86	144	5
TAP	86	240	5
TAP	86	336	3
TAP	86	336	4
TAP	87	48	3
TAP	87	48	4
TAP	87	144	2
XST	87	240	1
SI_	87	240	1	96	192	5
XHO	89	0	0	192
XHO	89	0	7	192
STR	90	0	0
SI_	90	0	0	96	528	3
STR	90	0	7
SI_	90	0	7	96	528	4
STR	92	360	3
SI_	92	360	3	96	624	0
STR	92	360	4
SI_	92	360	4	96	624	7
XTP	95	264	0
XTP	95	264	7
TTP	96	264	0	B	0	L1
TTP	96	264	7	B	0	L1
TTP	97	72	1	B	0	L1
TTP	97	72	6	B	0	L1
TTP	97	264	2	B	0	L1
TTP	97	264	5	B	0	L1
TTP	98	72	3	B	0	L1
TTP	98	72	4	B	0	L1
TTP	98	264	2	B	0	L1
TTP	98	264	5	B	0	L1
TTP	99	72	1	B	0	L1
TTP	99	72	6	B	0	L1
TTP	99	264	0	B	0	L1
TTP	99	264	7	B	0	L1
THO	100	72	0	384	C	1	L1

T_REC_TAP	175
T_REC_BRK	2
T_REC_XTP	12
T_REC_HLD	10
T_REC_XHO	8
T_REC_STR	4
T_REC_BST	0
T_REC_XST	5
T_REC_TTP	54
T_REC_THO	2
T_REC_SLD	9
T_REC_ALL	281
T_NUM_TAP	250
T_NUM_BRK	2
T_NUM_HLD	20
T_NUM_SLD	9
T_NUM_ALL	281
T_JUDGE_TAP	252
T_JUDGE_HLD	116
T_JUDGE_SLD	9
T_JUDGE_ALL	377
TTM_EACHPAIRS	43
TTM_SCR_TAP	125000
TTM_SCR_BRK	5200
TTM_SCR_HLD	20000
TTM_SCR_SLD	13500
TTM_SCR_ALL	163700
TTM_SCR_S	158600
TTM_SCR_SS	163500
TTM_RAT_ACV	10012

