VERSION	0.00.00	1.03.00
FES_MODE	0
BPM_DEF	189.000	189.000	189.000	189.000
MET_DEF	4	4
RESOLUTION	384
CLK_DEF	384
COMPATIBLE_CODE	MA2

BPM	0	0	189.000
MET	0	0	4	4

TTP	1	0	0	C	1	M1
TTP	1	0	0	E	0	M1
TTP	1	0	1	B	0	M1
TTP	1	0	3	B	0	M1
TTP	1	0	4	B	0	M1
TTP	1	0	6	B	0	M1
TAP	2	0	3
STR	2	0	4
SI_	2	0	4	96	432	7
TAP	2	96	3
TAP	2	192	3
TAP	2	240	3
TAP	2	336	3
TAP	3	48	3
TAP	3	144	3
TAP	3	288	0
TAP	3	288	1
STR	4	0	3
SI_	4	0	3	96	432	0
TAP	4	0	4
TAP	4	96	4
TAP	4	192	4
TAP	4	240	4
TAP	4	336	4
TAP	5	48	4
TAP	5	144	4
TAP	5	288	6
TAP	5	288	7
TAP	6	0	0
TAP	6	0	5
TAP	6	96	0
TAP	6	96	5
TAP	6	192	1
TAP	6	192	5
TAP	6	240	1
TAP	6	288	5
TAP	6	336	2
TAP	7	0	5
TAP	7	48	3
TAP	7	96	5
TAP	7	144	4
STR	7	192	4
SI_	7	192	4	96	48	0
TAP	7	192	5
XTP	7	288	3
XTP	7	288	4
TAP	8	0	2
TAP	8	0	7
TAP	8	96	2
TAP	8	96	7
TAP	8	192	2
TAP	8	192	6
TAP	8	240	6
TAP	8	288	2
TAP	8	336	5
TAP	9	0	2
TAP	9	48	4
TAP	9	96	2
TAP	9	144	3
TAP	9	192	2
STR	9	192	3
SI_	9	192	3	96	48	7
XTP	9	288	3
XTP	9	288	4
BRK	10	0	0
BRK	10	0	6
STR	10	48	5
SCR	10	48	5	96	144	1
TAP	10	96	4
TAP	10	144	3
TAP	10	144	5
TAP	10	288	2
TAP	10	336	2
HLD	11	0	0	48
TAP	11	48	3
HLD	11	96	7	48
TAP	11	144	3
HLD	11	192	6	48
TAP	11	240	3
HLD	11	288	5	48
TAP	11	336	3
TAP	12	0	1
TAP	12	0	4
STR	12	48	2
SCL	12	48	2	96	144	6
TAP	12	96	3
TAP	12	144	2
TAP	12	144	4
TAP	12	288	5
TAP	12	336	5
HLD	13	0	7	48
TAP	13	48	4
HLD	13	96	0	48
TAP	13	144	4
HLD	13	192	1	48
TAP	13	240	4
HLD	13	288	2	48
TAP	13	336	4
TAP	14	0	3
TAP	14	0	6
STR	14	48	5
SUR	14	48	5	96	120	2
TAP	14	96	4
TAP	14	144	2
TAP	14	144	5
TAP	14	288	0
TAP	14	336	0
HLD	15	0	6	48
TAP	15	48	7
HLD	15	96	1	48
TAP	15	144	0
TAP	15	192	7
TAP	15	216	2
TAP	15	240	7
TAP	15	264	2
STR	15	288	5
SI_	15	288	5	96	48	0
TAP	15	312	0
TAP	15	336	5
TAP	15	360	0
XTP	16	0	1
XTP	16	0	5
STR	16	48	2
SI_	16	48	2	96	48	7
TAP	16	96	3
XTP	16	144	2
XTP	16	144	6
STR	16	192	5
SI_	16	192	5	96	48	0
TAP	16	240	4
XTP	16	288	1
XTP	16	288	5
STR	16	336	2
SI_	16	336	2	96	48	7
TAP	17	0	3
XTP	17	48	2
XTP	17	48	6
STR	17	96	5
SI_	17	96	5	96	48	2
TAP	17	144	4
XTP	17	192	1
XTP	17	192	5
TAP	17	288	0
TAP	17	312	7
TAP	17	336	0
TAP	17	360	7
HLD	18	0	1	96
HLD	18	0	6	96
TTP	18	144	0	B	0	M1
TTP	18	144	1	E	0	M1
TTP	18	144	7	B	0	M1
TTP	18	144	7	E	0	M1
TTP	18	150	1	B	0	M1
TTP	18	150	6	B	0	M1
TTP	18	156	0	C	1	M1
TTP	18	162	2	B	0	M1
TTP	18	162	5	B	0	M1
TTP	18	168	3	E	0	M1
TTP	18	168	5	E	0	M1
HLD	19	0	1	144
TAP	19	96	0
HLD	19	144	0	96
HLD	19	240	1	144
STR	20	0	2
SCL	20	0	2	96	288	5
TAP	20	96	3
HLD	20	144	3	240
TAP	21	96	3
TAP	21	144	4
TAP	21	192	5
TAP	21	240	4
TAP	21	288	3
TAP	21	336	2
HLD	22	0	1	384
STR	22	96	2
SCR	22	96	2	96	96	4
TAP	22	144	2
HLD	23	0	6	384
STR	23	96	5
SCL	23	96	5	96	96	3
TAP	23	144	5
HLD	24	0	0	384
STR	24	96	1
SCR	24	96	1	96	96	4
TAP	24	144	1
HLD	25	0	7	384
STR	25	96	6
SCL	25	96	6	96	96	3
TAP	25	144	6
TAP	26	0	0
STR	26	48	0
SF_	26	48	0	96	36	4
TTP	26	156	0	B	0	M1
TTP	26	162	0	C	1	M1
TTP	26	168	3	B	0	M1
TTP	26	168	4	B	0	M1
TTP	26	168	5	B	0	M1
XTP	26	288	1
XTP	26	288	7
TAP	27	0	5
TAP	27	24	4
TAP	27	48	5
TAP	27	72	4
TAP	27	96	6
TAP	27	120	3
TAP	27	144	6
TAP	27	168	3
HLD	27	192	7	72
HLD	27	264	1	72
TAP	27	336	0
TAP	28	0	2
TAP	28	24	3
TAP	28	48	2
TAP	28	72	3
TAP	28	96	1
TAP	28	120	4
TAP	28	144	1
TAP	28	168	4
HLD	28	192	0	72
HLD	28	264	6	72
TAP	28	336	7
XTP	29	0	4
XHO	29	0	5	144
TAP	29	96	7
TAP	29	112	0
TAP	29	128	1
XHO	29	144	2	144
TAP	29	240	0
TAP	29	256	7
TAP	29	272	6
XTP	29	288	5
TAP	30	0	1
TAP	30	24	0
TAP	30	48	1
TAP	30	72	0
TAP	30	96	2
TAP	30	120	7
TAP	30	144	2
TAP	30	168	7
HLD	30	192	3	72
HLD	30	264	5	72
TAP	30	336	7
TAP	31	0	6
TAP	31	24	7
TAP	31	48	6
TAP	31	72	7
TAP	31	96	5
TAP	31	120	0
TAP	31	144	5
TAP	31	168	0
HLD	31	192	4	72
HLD	31	264	2	72
TAP	31	336	0
TAP	32	0	1
TAP	32	48	0
TAP	32	48	2
TAP	32	96	1
TAP	32	96	7
TAP	32	144	0
TAP	32	144	6
TAP	32	192	5
TAP	32	192	7
TAP	32	240	4
TAP	32	240	5
TAP	32	288	2
TAP	32	288	3
TAP	32	336	0
TAP	32	336	1
XHO	33	0	6	144
XTP	33	0	7
TAP	33	96	4
TAP	33	112	3
TAP	33	128	2
XHO	33	144	1	144
TAP	33	240	3
TAP	33	256	4
TAP	33	272	5
XTP	33	288	6
BRK	34	0	0
BRK	34	0	4
TAP	34	48	2
TAP	34	48	6
TAP	34	96	5
TAP	34	144	1
TAP	34	144	6
TAP	34	192	5
TAP	34	240	0
TAP	34	240	6
TAP	34	288	5
STR	34	336	6
SI_	34	336	6	96	48	1
TAP	34	336	7
XST	35	48	6
SI_	35	48	6	96	48	2
TAP	35	48	7
TAP	35	144	0
XST	35	144	6
SI_	35	144	6	96	48	3
TAP	35	240	1
XST	35	240	6
SI_	35	240	6	96	48	4
TAP	35	336	2
XTP	35	336	6
TAP	36	48	1
TAP	36	48	6
TAP	36	96	2
TAP	36	144	1
TAP	36	144	6
TAP	36	192	2
TAP	36	240	1
TAP	36	240	7
TAP	36	288	2
TAP	36	336	0
STR	36	336	1
SI_	36	336	1	96	48	6
TAP	37	48	0
XST	37	48	1
SI_	37	48	1	96	48	5
XST	37	144	1
SI_	37	144	1	96	48	4
TAP	37	144	7
XST	37	240	1
SI_	37	240	1	96	48	3
TAP	37	240	6
XTP	37	336	1
TAP	37	336	5
TAP	38	48	1
TAP	38	48	6
TAP	38	96	5
TAP	38	144	1
TAP	38	144	6
TAP	38	192	5
TAP	38	240	1
TAP	38	240	6
STR	38	288	7
SI_	38	288	7	96	48	3
TAP	38	312	0
TAP	38	336	7
TAP	38	360	0
BRK	39	0	7
STR	39	48	1
SI_	39	48	1	96	48	6
TAP	39	96	1
BRK	39	144	1
BRK	39	144	5
STR	39	192	4
SI_	39	192	4	96	48	0
TAP	39	240	4
BRK	39	288	3
BRK	39	288	4
TAP	40	0	1
TAP	40	0	7
TAP	40	48	2
TAP	40	48	6
TAP	40	96	3
TAP	40	96	5
TAP	40	144	4
TTP	40	192	2	E	0	M1
TTP	40	216	6	E	0	M1
TTP	40	240	1	E	0	M1
TTP	40	264	7	E	0	M1
TTP	40	288	3	E	0	M1
TTP	40	312	5	E	0	M1
TTP	40	336	0	C	0	M1
XHO	41	0	7	96
TAP	41	48	0
TAP	41	96	0
XHO	41	144	0	96
TAP	41	192	7
TAP	41	240	7
XST	41	288	0
SSL	41	288	0	96	48	4
XST	41	288	7
SSR	41	288	7	96	48	3
BRK	42	0	0
BRK	42	0	7
TAP	42	96	2
TAP	42	96	5
TAP	42	192	4
TAP	42	240	5
STR	42	288	6
SCL	42	288	6	96	96	3
TAP	42	336	7
TAP	43	0	0
TAP	43	0	6
TAP	43	96	1
TAP	43	192	2
TAP	43	192	3
TAP	43	288	3
TAP	43	288	4
STR	44	0	5
SCL	44	0	5	96	144	1
TAP	44	96	1
STR	44	144	1
SCL	44	144	1	96	144	6
TAP	44	240	6
STR	44	288	6
SXL	44	288	6	96	168	6
TAP	45	0	2
TAP	45	96	3
TTP	45	192	3	B	0	M1
TTP	45	192	4	E	0	M1
TTP	45	240	5	B	0	M1
TTP	45	240	6	E	0	M1
TTP	45	288	1	B	0	M1
TTP	45	288	2	E	0	M1
TTP	45	336	0	E	0	M1
TTP	45	336	7	B	0	M1
XTP	46	0	0
TAP	46	96	3
TAP	46	96	4
TAP	46	192	4
TAP	46	240	5
STR	46	288	6
SCR	46	288	6	96	96	1
TAP	46	336	7
TAP	47	0	2
TAP	47	0	6
TAP	47	96	3
TAP	47	192	0
TAP	47	192	2
TAP	47	288	5
TAP	47	288	7
TAP	48	0	2
TAP	48	0	3
TAP	48	48	2
STR	48	48	3
SUR	48	48	3	96	240	4
BRK	48	144	3
BRK	48	144	4
TAP	48	288	5
TAP	49	0	6
TAP	49	96	7
TTP	49	192	2	E	0	M1
TTP	49	208	3	E	0	M1
TTP	49	224	4	E	0	M1
TTP	49	240	0	E	0	M1
TTP	49	256	7	E	0	M1
TTP	49	272	6	E	0	M1
XTP	49	288	1
XTP	49	300	2
XTP	49	312	3
XTP	49	324	4
XTP	49	336	0
XTP	49	348	7
XTP	49	360	6
XTP	49	372	5
XTP	50	0	0
XTP	50	0	4
TAP	50	96	2
TAP	50	96	5
TAP	50	192	3
TAP	50	240	2
STR	50	288	1
SCR	50	288	1	96	96	4
TAP	50	336	0
TAP	51	0	1
TAP	51	0	7
TAP	51	96	6
TAP	51	192	4
TAP	51	192	5
TAP	51	288	3
TAP	51	288	4
STR	52	0	2
SCR	52	0	2	96	144	6
TAP	52	96	6
STR	52	144	6
SCR	52	144	6	96	144	1
TAP	52	240	1
STR	52	288	1
SXR	52	288	1	96	168	1
TAP	53	0	5
TAP	53	96	4
TTP	53	192	5	B	0	M1
TTP	53	192	6	B	0	M1
TTP	53	192	6	E	0	M1
TTP	53	264	1	B	0	M1
TTP	53	264	2	B	0	M1
TTP	53	264	2	E	0	M1
TTP	53	336	0	E	0	M1
THO	53	336	0	144	C	0	M1
TTP	53	336	3	B	0	M1
TTP	53	336	4	E	0	M1
TTP	53	336	7	B	0	M1
TTP	54	96	2	E	0	M1
TTP	54	96	6	E	0	M1
TAP	54	192	0
TAP	54	240	0
TAP	54	288	7
TAP	54	336	7
TAP	55	0	2
TAP	55	24	3
TAP	55	48	2
TAP	55	72	3
TAP	55	96	0
TAP	55	120	7
TAP	55	144	0
TAP	55	168	7
TAP	55	192	4
TAP	55	216	5
TAP	55	240	4
TAP	55	264	5
TAP	55	288	0
TAP	55	312	7
TAP	55	336	0
TAP	55	360	7
TAP	56	0	3
TAP	56	48	3
STR	56	48	4
SI_	56	48	4	96	36	0
STR	56	144	1
SI_	56	144	1	96	36	4
BRK	56	144	4
BRK	56	240	1
STR	56	240	6
SI_	56	240	6	96	36	1
STR	56	336	3
SI_	56	336	3	96	36	6
BRK	56	336	6
STR	57	48	0
SI_	57	48	0	96	36	3
BRK	57	48	3
BRK	57	144	0
TAP	57	144	7
TAP	57	240	2
TAP	57	240	5
TAP	57	288	0
TAP	57	312	7
TAP	57	336	0
TAP	57	360	7
HLD	58	0	1	96
HLD	58	0	6	96
TTP	58	144	0	B	0	M1
TTP	58	144	1	E	0	M1
TTP	58	144	7	B	0	M1
TTP	58	144	7	E	0	M1
TTP	58	150	1	B	0	M1
TTP	58	150	6	B	0	M1
TTP	58	156	0	C	1	M1
TTP	58	162	2	B	0	M1
TTP	58	162	5	B	0	M1
TTP	58	168	3	E	0	M1
TTP	58	168	5	E	0	M1
XTP	58	174	3
XST	58	174	4
SCR	58	174	4	96	402	3
TTP	59	48	5	E	0	M1
TTP	59	96	6	E	0	M1
TTP	59	144	7	E	0	M1
TTP	59	192	1	E	0	M1
TTP	59	240	2	E	0	M1
TTP	59	288	3	E	0	M1
HLD	60	0	4	672
STR	60	96	3
SXR	60	96	3	96	144	1
TAP	61	96	1
TAP	61	192	2
TAP	61	288	3
HLD	61	336	3	528
STR	61	336	4
SUL	61	336	4	96	144	5
TAP	62	288	4
HLD	62	336	4	144
BRK	63	144	1
BRK	63	144	3
BRK	63	240	4
BRK	63	240	6
BRK	63	336	3
BRK	63	336	4
HLD	64	0	3	96
HLD	64	0	4	96
TTP	64	144	0	C	1	M1
TTP	64	144	1	B	0	M1
TTP	64	144	2	B	0	M1
TTP	64	144	5	B	0	M1
TTP	64	144	6	B	0	M1
TAP	65	0	3
TAP	65	96	4
TAP	65	192	3
STR	65	288	3
SUR	65	288	3	96	144	2
TAP	65	288	4
TAP	65	336	3
HLD	65	336	4	528
TAP	66	240	2
TAP	66	288	2
HLD	66	336	3	144
BRK	67	144	4
BRK	67	144	6
BRK	67	240	1
BRK	67	240	3
BRK	67	336	3
BRK	67	336	4
HLD	68	0	2	336
STR	68	48	3
SUR	68	48	3	96	144	4
TAP	68	96	3
HLD	68	336	5	384
TAP	69	48	2
TAP	69	96	3
TAP	69	144	3
TAP	69	192	4
TAP	69	240	4
TAP	69	288	3
TAP	69	336	3
HLD	70	0	2	96
TAP	70	96	0
HLD	70	144	0	96
TAP	70	240	7
TAP	70	288	7
HLD	70	336	7	96
STR	71	48	5
SI_	71	48	5	96	48	2
TAP	71	96	5
STR	71	144	1
SI_	71	144	1	96	48	6
BRK	71	144	5
BRK	71	240	1
STR	71	240	4
SI_	71	240	4	96	48	0
TAP	71	336	3
BRK	71	336	4
TAP	72	0	2
TAP	72	48	1
TAP	72	96	0
TAP	72	96	7
TAP	72	144	6
TAP	72	192	5
TAP	72	240	6
TAP	72	288	0
TAP	72	288	7
HLD	72	336	1	96
HLD	73	48	7	48
HLD	73	96	3	48
HLD	73	144	4	48
HLD	73	192	0	48
HLD	73	240	5	48
HLD	73	288	2	48
HLD	73	336	7	48
TAP	74	0	0
XTP	74	48	7
TAP	74	60	6
TAP	74	72	5
TAP	74	84	4
TAP	74	96	3
XTP	74	144	1
TAP	74	156	2
TAP	74	168	3
TAP	74	180	4
TAP	74	192	5
XTP	74	240	6
TAP	74	252	5
TAP	74	264	4
TAP	74	276	3
TAP	74	288	2
XTP	74	336	0
TAP	74	348	1
TAP	74	360	2
TAP	74	372	3
HLD	75	0	4	192
TAP	75	48	5
TAP	75	96	6
TAP	75	144	7
STR	75	192	0
SV_	75	192	0	96	36	3
SV_	75	192	0	96	36	5
BRK	75	288	0
XTP	76	0	1
TAP	76	24	4
TAP	76	48	3
TAP	76	72	4
TAP	76	96	2
TAP	76	120	5
TAP	76	144	4
TAP	76	168	5
HLD	76	192	3	48
TAP	76	240	4
HLD	76	264	2	48
TAP	76	312	3
TAP	76	336	1
TAP	77	0	6
TAP	77	24	3
TAP	77	48	4
TAP	77	72	3
TAP	77	96	5
TAP	77	120	2
TAP	77	144	3
TAP	77	168	2
HLD	77	192	4	48
TAP	77	240	3
HLD	77	264	5	48
TAP	77	312	4
TAP	77	336	6
TAP	78	0	1
TAP	78	24	4
TAP	78	48	3
TAP	78	72	4
TAP	78	96	2
TAP	78	120	5
TAP	78	144	4
TAP	78	168	5
HLD	78	192	3	48
TAP	78	240	4
HLD	78	264	2	48
TAP	78	312	3
TAP	78	336	1
TAP	79	0	6
TAP	79	24	4
TAP	79	48	5
TAP	79	72	3
TAP	79	96	4
TAP	79	120	2
TAP	79	144	3
TAP	79	168	1
TAP	79	192	4
TAP	79	216	0
TAP	79	240	6
TAP	79	264	2
TAP	79	288	5
TAP	79	312	0
TAP	79	336	7
TAP	79	360	2
XTP	80	0	6
TAP	80	24	3
TAP	80	48	4
TAP	80	72	3
TAP	80	96	5
TAP	80	120	2
TAP	80	144	3
TAP	80	168	2
HLD	80	192	4	48
TAP	80	240	1
HLD	80	264	3	48
TAP	80	312	0
TAP	80	336	2
TAP	81	0	1
TAP	81	24	4
TAP	81	48	3
TAP	81	72	4
TAP	81	96	2
TAP	81	120	5
TAP	81	144	4
TAP	81	168	5
HLD	81	192	3	48
TAP	81	240	6
HLD	81	264	4	48
TAP	81	312	7
TAP	81	336	5
TAP	82	0	2
TAP	82	24	0
TAP	82	48	1
TAP	82	72	7
TAP	82	96	0
TAP	82	120	6
TAP	82	144	7
TAP	82	168	5
TAP	82	192	4
TAP	82	216	6
TAP	82	240	3
TAP	82	264	5
TAP	82	288	2
TAP	82	312	4
TAP	82	336	1
TAP	82	360	3
HLD	83	0	0	48
HLD	83	48	7	48
HLD	83	96	6	48
HLD	83	144	5	48
HLD	83	192	4	48
HLD	83	240	3	48
HLD	83	288	2	48
HLD	83	336	1	48
TAP	84	0	0
STR	84	48	0
SF_	84	48	0	96	36	4
TTP	84	156	0	B	0	M1
TTP	84	162	0	C	1	M1
TTP	84	168	3	B	0	M1
TTP	84	168	4	B	0	M1
TTP	84	168	5	B	0	M1
XTP	84	288	2
XTP	84	288	6
TAP	85	0	1
TAP	85	24	4
TAP	85	48	3
TAP	85	72	4
TAP	85	96	0
TAP	85	120	5
TAP	85	144	4
TAP	85	168	5
HLD	85	192	7	48
TAP	85	240	6
HLD	85	264	0	48
TAP	85	312	7
TAP	85	336	1
TAP	86	0	6
TAP	86	24	3
TAP	86	48	4
TAP	86	72	3
TAP	86	96	7
TAP	86	120	2
TAP	86	144	3
TAP	86	168	2
HLD	86	192	0	48
TAP	86	240	1
HLD	86	264	7	48
TAP	86	312	0
TAP	86	336	6
TAP	87	0	1
TAP	87	24	3
TAP	87	48	2
TAP	87	72	4
TAP	87	96	3
TAP	87	120	5
TAP	87	144	4
TAP	87	168	6
TAP	87	192	3
TAP	87	216	7
TAP	87	240	1
TAP	87	264	5
TAP	87	288	2
TAP	87	312	7
TAP	87	336	0
TAP	87	360	5
STR	88	0	0
SI_	88	0	0	96	48	4
TAP	88	48	0
STR	88	96	1
SI_	88	96	1	96	48	5
TAP	88	144	1
STR	88	192	2
SI_	88	192	2	96	48	6
TAP	88	240	2
STR	88	288	3
SI_	88	288	3	96	48	7
TAP	88	336	3
STR	89	0	4
SI_	89	0	4	96	48	0
TAP	89	48	4
STR	89	96	5
SI_	89	96	5	96	48	1
TAP	89	144	5
STR	89	192	6
SI_	89	192	6	96	48	2
TAP	89	240	6
STR	89	288	7
SI_	89	288	7	96	48	3
TAP	89	336	7
XTP	90	0	0
TAP	90	48	0
TAP	90	96	0
TAP	90	120	7
TAP	90	144	0
TAP	90	168	7
TAP	90	192	0
TAP	90	216	7
XST	90	240	0
SI_	90	240	0	96	36	4
XTP	90	252	1
XTP	90	264	2
XTP	90	276	3
XTP	90	288	4
XTP	90	300	5
XTP	90	312	6
XTP	90	324	7
BRK	90	336	0
TAP	91	48	5
TAP	91	96	6
HLD	91	144	7	232
TAP	91	192	3
TAP	91	240	2
TAP	91	288	1
HLD	91	336	0	40
TTP	92	0	0	E	0	M1
TTP	92	8	0	B	0	M1
TTP	92	8	7	B	0	M1
TTP	92	16	0	C	0	M1
TTP	92	24	3	B	0	M1
TTP	92	24	4	B	0	M1
TTP	92	32	4	E	0	M1
BRK	92	96	1
BRK	92	96	6
TAP	92	192	2
TAP	92	240	1
TAP	92	288	6
HLD	92	336	5	96
HLD	93	48	7	48
HLD	93	96	0	48
HLD	93	144	2	48
HLD	93	192	3	48
HLD	93	240	4	48
HLD	93	288	6	48
HLD	93	336	1	48
TAP	94	0	6
TAP	94	24	5
TAP	94	48	4
TAP	94	72	3
TAP	94	96	0
TAP	94	120	1
TAP	94	144	2
TAP	94	168	3
TAP	94	192	0
TAP	94	216	2
TAP	94	240	7
TAP	94	264	1
TAP	94	288	6
TAP	94	312	0
TAP	94	336	5
TAP	94	360	7
TAP	95	0	6
TAP	95	24	4
TAP	95	48	5
TAP	95	72	3
TAP	95	96	4
TAP	95	120	2
BST	95	144	3
SI_	95	144	3	96	48	6
BST	95	240	1
SI_	95	240	1	96	48	4
XTP	95	240	3
XTP	95	336	1
BRK	95	336	7
TAP	96	0	6
TAP	96	48	5
TAP	96	96	2
HLD	96	144	1	96
HLD	96	240	0	48
HLD	96	288	7	48
HLD	96	336	6	48
HLD	97	0	5	48
HLD	97	48	4	48
HLD	97	96	3	48
HLD	97	144	2	48
HLD	97	192	1	48
HLD	97	240	0	48
HLD	97	288	7	48
HLD	97	336	6	48
TAP	98	0	1
TAP	98	24	2
TAP	98	48	3
TAP	98	72	4
TAP	98	96	7
TAP	98	120	6
TAP	98	144	5
TAP	98	168	4
TAP	98	192	7
TAP	98	216	5
TAP	98	240	0
TAP	98	264	6
TAP	98	288	1
TAP	98	312	7
TAP	98	336	2
TAP	98	360	0
TAP	99	0	1
TAP	99	24	3
TAP	99	48	2
TAP	99	72	4
TAP	99	96	3
TAP	99	120	5
TAP	99	144	4
TAP	99	168	6
TAP	99	192	7
TAP	99	216	5
TAP	99	240	0
TAP	99	264	6
TAP	99	288	1
TAP	99	312	7
TAP	99	336	2
TAP	99	360	0
TAP	100	0	3
STR	100	48	3
SF_	100	48	3	96	36	7
TTP	100	156	3	B	0	M1
TTP	100	162	0	C	1	M1
TTP	100	168	0	B	0	M1
TTP	100	168	6	B	0	M1
TTP	100	168	7	B	0	M1
HLD	100	336	5	96
TAP	101	48	6
TAP	101	96	7
TAP	101	144	0
TAP	101	192	1
TAP	101	240	7
STR	101	288	1
SUL	101	288	1	96	96	3
STR	101	336	7
SUR	101	336	7	96	96	5
XTP	102	192	3
XTP	102	192	4
XST	102	240	3
SI_	102	240	3	96	36	7
XTP	102	240	4
BRK	102	336	3
XST	102	336	6
SI_	102	336	6	96	36	3
XST	103	48	1
SI_	103	48	1	96	36	6
BRK	103	48	6
BRK	103	144	1
XST	103	144	4
SI_	103	144	4	96	36	1
BRK	103	240	4
XST	103	240	7
SI_	103	240	7	96	36	4
XTP	103	336	0
BRK	103	336	7
TAP	104	0	2
TAP	104	48	2
TAP	104	48	3
TAP	104	96	5
TAP	104	144	4
TAP	104	144	5
TAP	104	192	1
TAP	104	240	1
TAP	104	240	2
TAP	104	288	6
TAP	104	336	5
TAP	104	336	6
TAP	105	0	0
TAP	105	48	1
TAP	105	48	7
TAP	105	96	0
TAP	105	96	2
TAP	105	144	1
TAP	105	144	3
TAP	105	192	4
TAP	105	192	6
TAP	105	240	5
TAP	105	240	7
TAP	105	288	0
TAP	105	288	6
TAP	105	336	0
TAP	105	336	7
TAP	106	0	6
TAP	106	24	7
XTP	106	48	6
TTP	106	54	6	E	0	M1
TTP	106	60	5	B	0	M1
TTP	106	66	4	B	0	M1
TTP	106	72	4	E	0	M1
TAP	106	96	1
TAP	106	120	0
XTP	106	144	1
TTP	106	150	2	E	0	M1
TTP	106	156	2	B	0	M1
TTP	106	162	3	B	0	M1
TTP	106	168	4	E	0	M1
TAP	106	192	6
TAP	106	216	7
XTP	106	240	6
TTP	106	246	6	E	0	M1
TTP	106	252	5	B	0	M1
TTP	106	258	4	B	0	M1
TTP	106	264	4	E	0	M1
TAP	106	288	1
TAP	106	312	0
XTP	106	336	1
TTP	106	342	2	E	0	M1
TTP	106	348	2	B	0	M1
TTP	106	354	3	B	0	M1
TTP	106	360	4	E	0	M1
BRK	107	0	7
TAP	107	96	0
TAP	107	120	1
TAP	107	144	2
TAP	107	168	3
TAP	107	192	6
TAP	107	216	5
STR	107	240	4
SF_	107	240	4	96	48	0
TAP	107	264	3
TAP	107	288	2
TAP	107	312	3
XTP	107	336	4

T_REC_TAP	603
T_REC_BRK	44
T_REC_XTP	61
T_REC_HLD	96
T_REC_XHO	6
T_REC_STR	59
T_REC_BST	2
T_REC_XST	15
T_REC_TTP	110
T_REC_THO	1
T_REC_SLD	77
T_REC_ALL	1074
T_NUM_TAP	848
T_NUM_BRK	46
T_NUM_HLD	103
T_NUM_SLD	77
T_NUM_ALL	1074
T_JUDGE_TAP	894
T_JUDGE_HLD	230
T_JUDGE_SLD	77
T_JUDGE_ALL	1201
TTM_EACHPAIRS	125
TTM_SCR_TAP	424000
TTM_SCR_BRK	119600
TTM_SCR_HLD	103000
TTM_SCR_SLD	115500
TTM_SCR_ALL	762100
TTM_SCR_S	734800
TTM_SCR_SS	757500
TTM_RAT_ACV	10060

