VERSION	0.00.00	1.03.00
FES_MODE	0
BPM_DEF	189.000	189.000	189.000	189.000
MET_DEF	4	4
RESOLUTION	384
CLK_DEF	384
COMPATIBLE_CODE	MA2

BPM	0	0	189.000
MET	0	0	4	4

TAP	2	0	3
TAP	2	0	4
TAP	2	96	3
TAP	2	96	4
TAP	2	192	2
TAP	2	240	2
TAP	2	336	2
TAP	2	336	3
TAP	3	48	2
TAP	3	48	3
HLD	3	144	2	144
HLD	3	144	3	96
TAP	4	0	3
TAP	4	0	4
TAP	4	96	3
TAP	4	96	4
TAP	4	192	5
TAP	4	240	5
TAP	4	336	4
TAP	4	336	5
TAP	5	48	4
TAP	5	48	5
HLD	5	144	4	96
HLD	5	144	5	144
TAP	6	0	3
TAP	6	96	3
TAP	6	192	2
HLD	6	240	2	288
TAP	6	336	3
TAP	7	48	3
TAP	7	144	3
TAP	7	240	1
TAP	7	240	4
TAP	7	288	1
TAP	7	288	4
TAP	8	0	0
TAP	8	96	7
TAP	8	192	6
TAP	8	240	6
TAP	8	336	4
TAP	8	336	5
TAP	9	48	3
TAP	9	48	4
TAP	9	144	2
TAP	9	144	3
TAP	9	240	1
TAP	9	240	4
BRK	9	288	1
BRK	9	288	4
TAP	10	0	2
TAP	10	48	2
TAP	10	96	3
TAP	10	192	2
TAP	10	192	3
TAP	10	288	1
TAP	10	336	1
TAP	11	0	0
TAP	11	96	0
TAP	11	96	1
TAP	11	192	2
TAP	11	240	3
TAP	11	288	2
TAP	11	288	4
TAP	12	0	5
TAP	12	48	5
TAP	12	96	4
TAP	12	192	4
TAP	12	192	5
TAP	12	288	6
TAP	12	336	6
TAP	13	0	7
TAP	13	96	6
TAP	13	96	7
XTP	13	192	1
XTP	13	192	7
XTP	13	288	0
XTP	13	288	6
TAP	14	0	6
TAP	14	48	6
TAP	14	96	4
TAP	14	192	3
TAP	14	192	5
TAP	14	288	6
TAP	14	336	6
TAP	15	0	7
TAP	15	96	0
TAP	15	96	6
TAP	15	192	1
TAP	15	192	5
TAP	15	240	1
TAP	15	240	5
TAP	15	288	1
TAP	15	288	5
XHO	16	0	3	96
XHO	16	0	4	96
XHO	16	144	4	96
XHO	16	144	6	96
XHO	16	288	1	96
XHO	16	288	3	96
XHO	17	48	3	96
XHO	17	48	4	96
TAP	17	192	4
TAP	17	240	4
TAP	17	288	3
HLD	18	0	2	96
HLD	18	0	5	96
TTP	18	144	0	C	1	M1
TTP	18	144	2	B	0	M1
TTP	18	144	3	B	0	M1
TTP	18	144	4	B	0	M1
TTP	18	144	5	B	0	M1
STR	19	0	0
SI_	19	0	0	96	288	4
STR	20	0	5
SI_	20	0	5	96	288	0
TAP	21	0	1
TAP	21	96	1
TAP	21	192	2
TAP	21	288	2
TAP	22	0	2
STR	22	0	3
SUR	22	0	3	96	288	0
STR	23	0	4
SUL	23	0	4	96	288	7
STR	24	0	6
SUL	24	0	6	96	288	1
STR	25	0	0
SF_	25	0	0	96	192	4
XHO	26	0	1	96
XHO	26	0	6	96
TTP	26	144	0	C	1	M1
TTP	26	144	1	B	0	M1
TTP	26	144	2	B	0	M1
TTP	26	144	5	B	0	M1
TTP	26	144	6	B	0	M1
XTP	26	288	0
XTP	26	288	7
TAP	27	0	1
TAP	27	48	1
TAP	27	96	0
TAP	27	144	2
HLD	27	192	2	72
TAP	27	264	3
TAP	27	336	1
TAP	27	336	4
TAP	28	0	5
TAP	28	48	5
TAP	28	96	4
TAP	28	144	6
HLD	28	192	6	72
TAP	28	264	7
TAP	28	336	0
TAP	28	336	5
XHO	29	0	1	96
XHO	29	0	4	96
XHO	29	144	2	96
XHO	29	144	5	96
BRK	29	288	3
BRK	29	288	6
TAP	30	0	1
TAP	30	48	1
TAP	30	96	3
TAP	30	144	2
HLD	30	192	2	72
TAP	30	264	3
TAP	30	336	3
TAP	30	336	4
TAP	31	0	5
TAP	31	48	5
TAP	31	96	4
TAP	31	144	6
HLD	31	192	6	72
TAP	31	264	7
TAP	31	336	0
TAP	31	336	7
TAP	32	0	1
TAP	32	48	1
TAP	32	96	3
TAP	32	144	2
TAP	32	192	4
TAP	32	240	4
TAP	32	288	3
TAP	32	336	5
XTP	33	0	4
XTP	33	0	6
TAP	33	96	3
TAP	33	96	4
TAP	33	144	3
TAP	33	144	4
TAP	33	240	0
TAP	33	240	1
BRK	33	288	2
BRK	33	288	7
THO	34	0	0	576	C	0	M1
TAP	36	0	0
HLD	36	48	0	384
TAP	36	144	7
TAP	36	240	7
TAP	36	336	1
TAP	37	48	2
TAP	37	144	1
TAP	37	144	3
TAP	37	240	2
TAP	37	240	4
TAP	37	336	3
TAP	38	0	4
HLD	38	48	4	192
TAP	38	144	3
TAP	38	240	3
TAP	38	288	3
TAP	38	288	4
TAP	39	0	2
TAP	39	0	5
TAP	39	96	6
XTP	39	144	4
XTP	39	144	6
TAP	39	240	1
XTP	39	288	1
XTP	39	288	3
TTP	40	0	1	E	0	M1
TTP	40	48	2	E	0	M1
TTP	40	96	3	E	0	M1
TTP	40	96	4	B	0	M1
TTP	40	192	7	E	0	M1
TTP	40	240	6	E	0	M1
TTP	40	288	3	B	0	M1
TTP	40	288	5	E	0	M1
THO	41	0	0	144	C	0	M1
BRK	41	288	0
BRK	41	288	7
STR	42	0	0
SI_	42	0	0	96	96	3
STR	42	192	4
SI_	42	192	4	96	96	7
TTP	43	0	0	E	0	M1
TTP	43	96	0	C	0	M1
TTP	43	192	4	E	0	M1
TTP	43	288	5	B	0	M1
TTP	43	288	5	E	0	M1
STR	44	0	6
SI_	44	0	6	96	96	1
STR	44	192	2
SI_	44	192	2	96	96	5
STR	45	0	6
SCR	45	0	6	96	96	1
TAP	45	192	2
TAP	45	288	3
STR	46	0	4
SI_	46	0	4	96	96	7
STR	46	192	0
SI_	46	192	0	96	96	3
TTP	47	0	4	E	0	M1
TTP	47	96	0	C	0	M1
TTP	47	192	0	E	0	M1
TTP	47	288	1	B	0	M1
TTP	47	288	1	E	0	M1
STR	48	0	7
SI_	48	0	7	96	96	2
STR	48	192	1
SI_	48	192	1	96	96	4
STR	49	0	5
SI_	49	0	5	96	96	0
XTP	49	192	1
XTP	49	288	1
STR	50	0	2
SI_	50	0	2	96	96	5
HLD	50	192	6	96
TAP	50	288	4
STR	51	0	5
SI_	51	0	5	96	96	2
HLD	51	192	1	96
TAP	51	288	3
STR	52	0	2
SCR	52	0	2	96	96	5
HLD	52	192	6	96
TAP	52	288	4
TAP	53	0	3
TAP	53	0	5
TAP	53	96	2
TAP	53	96	4
XHO	53	192	5	72
XHO	53	264	4	72
XTP	53	336	3
XTP	54	0	3
TAP	54	96	2
TAP	54	96	5
TAP	54	144	2
TAP	54	192	4
TAP	54	240	4
TAP	54	288	3
TAP	54	336	3
TAP	55	0	4
TAP	55	24	3
TAP	55	48	4
TAP	55	72	3
TAP	55	96	4
TAP	55	120	3
TAP	55	144	4
TAP	55	168	3
TAP	55	192	5
TAP	55	216	2
TAP	55	240	5
TAP	55	264	2
XTP	55	288	5
XTP	56	0	4
XTP	56	0	6
XTP	56	48	4
XTP	56	48	6
XTP	56	144	0
XTP	56	144	7
XTP	56	240	1
XTP	56	240	3
XTP	56	336	4
XTP	56	336	5
XTP	57	48	6
XTP	57	48	7
XTP	57	144	0
XTP	57	144	5
XTP	57	192	0
XTP	57	192	5
XST	57	288	1
SI_	57	288	1	96	48	4
XST	57	288	6
SI_	57	288	6	96	48	3
TTP	58	144	0	B	0	M1
TTP	58	144	0	C	1	M1
TTP	58	144	7	B	0	M1
BRK	59	192	0
HLD	60	0	5	576
HLD	61	0	4	576
HLD	62	0	3	480
HLD	63	0	2	96
XTP	63	144	2
XTP	63	144	3
XTP	63	240	4
XTP	63	240	5
XTP	63	336	3
XTP	63	336	6
XTP	64	0	3
XTP	64	0	6
XHO	64	144	1	432
XTP	64	144	4
TAP	65	0	3
TAP	65	96	3
TAP	65	192	3
STR	65	288	2
SLR	65	288	2	96	288	7
STR	65	288	4
SLL	65	288	4	96	288	7
HLD	67	0	0	96
XTP	67	144	0
XTP	67	144	7
XTP	67	240	1
XTP	67	240	3
XTP	67	336	3
XTP	67	336	4
HLD	68	0	3	96
HLD	68	0	4	96
HLD	68	144	4	96
HLD	68	144	5	96
TAP	68	288	4
TAP	68	288	5
HLD	69	0	3	96
HLD	69	0	4	96
HLD	69	144	2	96
HLD	69	144	3	96
TAP	69	288	2
TAP	69	288	3
HLD	70	0	3	96
HLD	70	0	4	96
HLD	70	144	4	96
HLD	70	144	5	96
TAP	70	288	4
TAP	70	288	5
TAP	71	0	6
TAP	71	48	6
XTP	71	144	3
XTP	71	144	5
XTP	71	240	2
XTP	71	240	4
XTP	71	336	3
XTP	71	336	4
TAP	72	0	3
TAP	72	0	4
TAP	72	96	4
TAP	72	96	5
TAP	72	192	6
TAP	72	240	6
TAP	72	288	4
TAP	73	0	1
TAP	73	48	1
TAP	73	96	3
TAP	73	192	6
TAP	73	240	6
TAP	73	288	7
TAP	74	0	0
TAP	74	48	0
TAP	74	96	7
TAP	74	144	7
TAP	74	192	0
TAP	74	216	7
TAP	74	240	0
TAP	74	264	7
TAP	74	288	0
TAP	74	312	7
TAP	74	336	0
TAP	74	360	7
STR	75	0	0
SF_	75	0	0	96	96	4
BRK	75	288	2
BRK	75	288	6
TAP	76	0	4
TAP	76	0	5
TAP	76	48	5
TAP	76	96	0
TAP	76	144	1
TAP	76	192	2
TAP	76	192	3
TAP	76	264	4
TAP	76	264	5
TAP	76	336	6
TAP	76	336	7
TAP	77	0	0
TAP	77	0	5
TAP	77	48	0
TAP	77	96	7
TAP	77	144	6
TAP	77	192	4
TAP	77	192	5
TAP	77	264	2
TAP	77	264	3
TAP	77	336	0
TAP	77	336	1
TAP	78	0	2
TAP	78	0	7
TAP	78	48	7
TAP	78	96	0
TAP	78	144	1
TAP	78	192	2
TAP	78	192	3
TAP	78	264	4
TAP	78	264	5
TAP	78	336	3
TAP	78	336	6
TAP	79	0	3
STR	79	0	6
SI_	79	0	6	96	48	3
TAP	79	96	7
STR	79	192	1
SI_	79	192	1	96	48	4
TAP	79	192	4
TAP	79	288	0
TAP	80	0	6
TAP	80	0	7
TAP	80	48	6
TAP	80	96	3
TAP	80	144	2
TAP	80	192	0
TAP	80	192	1
TAP	80	264	6
TAP	80	264	7
TAP	80	336	4
TAP	80	336	5
TAP	81	0	3
TAP	81	0	6
TAP	81	48	6
TAP	81	96	7
TAP	81	144	0
TAP	81	192	1
TAP	81	192	3
TAP	81	264	3
TAP	81	264	4
TAP	81	336	4
TAP	81	336	6
TAP	82	0	4
STR	82	0	6
SI_	82	0	6	96	48	3
STR	82	96	2
SI_	82	96	2	96	48	7
STR	82	192	4
SI_	82	192	4	96	48	7
TAP	82	288	1
TAP	83	0	1
TAP	83	48	2
TAP	83	96	6
TAP	83	144	5
TAP	83	192	3
TAP	83	240	2
XTP	83	288	1
XTP	83	288	7
XHO	84	0	0	96
XHO	84	0	6	96
TTP	84	144	0	C	1	M1
TTP	84	144	2	B	0	M1
TTP	84	144	4	B	0	M1
XTP	84	288	0
XTP	84	288	7
TAP	85	0	6
TAP	85	0	7
TAP	85	48	6
TAP	85	96	0
TAP	85	144	1
TAP	85	192	2
TAP	85	192	3
TAP	85	264	4
TAP	85	264	6
TAP	85	336	0
TAP	85	336	7
TAP	86	0	1
TAP	86	0	6
TAP	86	48	1
TAP	86	96	7
TAP	86	144	6
TAP	86	192	4
TAP	86	192	5
TAP	86	264	2
TAP	86	264	3
TAP	86	336	1
TAP	86	336	7
STR	87	0	1
SI_	87	0	1	96	48	4
TAP	87	0	7
STR	87	96	5
SI_	87	96	5	96	48	0
TAP	87	192	3
TAP	87	240	2
XTP	87	288	1
XTP	87	288	7
TAP	88	0	2
TAP	88	0	3
TAP	88	48	2
TAP	88	48	3
TAP	88	96	1
TAP	88	96	4
TAP	88	144	1
TAP	88	144	4
TAP	88	192	0
TAP	88	192	5
TAP	88	240	0
TAP	88	240	5
TAP	88	288	6
TAP	88	288	7
TAP	89	0	4
TAP	89	0	5
TAP	89	48	4
TAP	89	48	5
TAP	89	96	3
TAP	89	96	6
TAP	89	144	3
TAP	89	144	6
TAP	89	192	2
TAP	89	192	7
TAP	89	240	2
TAP	89	240	7
TAP	89	288	0
TAP	89	288	1
TAP	90	0	7
TAP	90	48	7
TAP	90	96	0
TAP	90	144	0
TAP	90	192	7
TAP	90	216	0
TAP	90	240	7
TAP	90	264	0
TAP	90	288	7
TAP	90	312	0
XST	90	336	7
SUL	90	336	7	96	192	4
BRK	91	288	0
TAP	92	0	5
TAP	92	48	4
TAP	92	96	3
HLD	92	96	6	96
TAP	92	192	7
TAP	92	288	1
TAP	92	336	0
HLD	93	0	2	96
TAP	93	0	7
TAP	93	96	3
TAP	93	192	4
TAP	93	192	5
TAP	93	240	3
TAP	93	240	6
TAP	93	288	2
TAP	93	288	7
TAP	94	0	1
TAP	94	48	1
TAP	94	96	3
TAP	94	144	3
TAP	94	192	4
TAP	94	240	4
TAP	94	288	6
TAP	94	336	6
TAP	95	0	6
TAP	95	0	7
TAP	95	48	6
TAP	95	48	7
XST	95	144	0
SI_	95	144	0	96	48	4
XTP	95	144	1
XST	95	240	3
SI_	95	240	3	96	48	7
XTP	95	336	6
HLD	96	0	6	96
TAP	96	96	7
TAP	96	144	0
TAP	96	144	5
TAP	96	240	6
TAP	96	288	6
TAP	96	336	7
STR	97	0	5
SI_	97	0	5	96	48	3
STR	97	96	1
SI_	97	96	1	96	48	5
STR	97	192	7
SI_	97	192	7	96	48	3
STR	97	288	0
SCR	97	288	0	96	192	5
BRK	98	0	4
TAP	98	192	7
TAP	98	240	7
TAP	98	336	1
TAP	98	336	5
TAP	99	48	2
TAP	99	96	3
XST	99	144	1
SI_	99	144	1	96	48	4
XTP	99	144	4
XST	99	240	5
SCR	99	240	5	96	48	0
XTP	99	336	2
HLD	100	0	2	144
BRK	100	144	7
TAP	100	288	0
TAP	100	288	7
HLD	101	0	6	96
HLD	101	96	5	96
HLD	101	192	4	96
HLD	101	288	3	96
HLD	102	0	2	96
TAP	102	96	0
XHO	102	192	1	96
XHO	102	192	7	96
BRK	102	336	2
BST	102	336	6
SI_	102	336	6	96	48	3
BST	103	48	0
SI_	103	48	0	96	48	5
BST	103	144	7
SI_	103	144	7	96	48	2
BST	103	240	1
SI_	103	240	1	96	48	4
BRK	103	336	5
TAP	104	0	6
TAP	104	48	6
TAP	104	96	4
TAP	104	144	4
TAP	104	192	3
TAP	104	240	3
TAP	104	288	1
TAP	104	336	1
TAP	105	0	0
TAP	105	0	1
TAP	105	48	2
TAP	105	96	3
TAP	105	144	4
TAP	105	192	5
TAP	105	240	6
TAP	105	288	1
TAP	105	288	7
TAP	105	336	1
TAP	105	336	7
STR	106	0	0
SI_	106	0	0	96	48	4
TAP	106	48	0
STR	106	96	5
SCR	106	96	5	96	48	0
TAP	106	144	5
STR	106	192	1
SI_	106	192	1	96	48	5
TAP	106	240	1
STR	106	288	6
SCR	106	288	6	96	48	1
TAP	106	336	6
BST	107	0	4
SUL	107	0	4	96	240	7
SUR	107	0	4	96	240	1

T_REC_TAP	409
T_REC_BRK	16
T_REC_XTP	64
T_REC_HLD	42
T_REC_XHO	21
T_REC_STR	37
T_REC_BST	5
T_REC_XST	7
T_REC_TTP	34
T_REC_THO	2
T_REC_SLD	50
T_REC_ALL	687
T_NUM_TAP	551
T_NUM_BRK	21
T_NUM_HLD	65
T_NUM_SLD	50
T_NUM_ALL	687
T_JUDGE_TAP	572
T_JUDGE_HLD	191
T_JUDGE_SLD	50
T_JUDGE_ALL	813
TTM_EACHPAIRS	159
TTM_SCR_TAP	275500
TTM_SCR_BRK	54600
TTM_SCR_HLD	65000
TTM_SCR_SLD	75000
TTM_SCR_ALL	470100
TTM_SCR_S	454000
TTM_SCR_SS	468000
TTM_RAT_ACV	10044

