VERSION	0.00.00	1.03.00
FES_MODE	0
BPM_DEF	189.000	189.000	189.000	189.000
MET_DEF	4	4
RESOLUTION	384
CLK_DEF	384
COMPATIBLE_CODE	MA2

BPM	0	0	189.000
MET	0	0	4	4

TTP	1	0	0	C	1	L1
TTP	1	0	2	B	0	L1
TTP	1	0	5	B	0	L1
XST	2	0	6
SI_	2	0	6	96	192	3
XTP	2	0	7
TAP	3	0	2
TAP	3	192	2
TAP	3	192	3
TAP	4	0	0
STR	4	0	1
SI_	4	0	1	96	192	4
TAP	5	0	5
TAP	5	192	4
TAP	5	192	5
TAP	6	0	6
TAP	6	96	6
TAP	6	192	6
TAP	6	192	7
TAP	7	0	1
TAP	7	96	1
TAP	7	192	0
TAP	7	192	1
TAP	8	0	2
TAP	8	96	2
TAP	8	192	2
TAP	8	192	3
TAP	9	0	3
TAP	9	0	4
TAP	9	96	3
TAP	9	96	4
TAP	9	192	2
TAP	9	192	5
TAP	10	0	6
TAP	10	96	6
TAP	10	192	7
TAP	10	288	7
TAP	11	0	0
TAP	11	96	0
TAP	11	192	1
TAP	11	192	7
TAP	12	0	2
TAP	12	96	2
TAP	12	192	3
TAP	12	288	3
TAP	13	0	4
TAP	13	96	4
TAP	13	192	3
TAP	13	192	5
TAP	14	0	6
TAP	14	96	7
TAP	14	192	0
TAP	14	288	1
TAP	15	0	2
TAP	15	96	3
TAP	15	192	4
TAP	15	288	5
HLD	16	0	3	144
HLD	16	0	4	144
HLD	16	288	2	144
HLD	16	288	5	144
BRK	17	192	1
BRK	17	192	6
STR	18	0	6
SI_	18	0	6	96	192	2
STR	19	0	1
SI_	19	0	1	96	192	4
STR	20	0	5
SI_	20	0	5	96	192	0
TAP	21	0	1
TAP	21	192	0
TAP	21	192	1
STR	22	0	7
SI_	22	0	7	96	192	4
STR	23	0	3
SI_	23	0	3	96	192	0
STR	24	0	7
SI_	24	0	7	96	192	3
STR	25	0	2
SCR	25	0	2	96	192	5
TAP	26	0	6
TAP	26	96	6
TAP	26	192	7
TAP	26	288	7
TAP	27	0	6
TAP	27	0	7
TAP	27	96	6
TAP	27	96	7
TAP	27	192	0
TAP	27	192	5
TAP	28	0	1
TAP	28	96	1
TAP	28	192	0
TAP	28	288	0
TAP	29	0	0
TAP	29	0	1
TAP	29	96	0
TAP	29	96	1
TAP	29	192	2
TAP	29	192	7
TAP	30	0	6
TAP	30	96	7
TAP	30	192	0
TAP	30	288	1
TAP	31	0	2
TAP	31	96	3
TAP	31	192	4
TAP	31	288	5
TAP	32	0	6
TAP	32	48	6
TAP	32	96	6
TAP	32	192	7
TAP	32	240	7
TAP	32	288	7
TAP	33	0	0
TAP	33	48	0
TAP	33	96	0
BRK	33	192	1
BRK	33	192	6
TTP	34	0	3	E	0	L1
TTP	34	96	2	B	0	L1
TTP	34	192	1	B	0	L1
TTP	35	0	5	E	0	L1
TTP	35	96	5	B	0	L1
TTP	35	192	6	B	0	L1
TTP	36	0	2	E	0	L1
TTP	36	96	2	B	0	L1
TTP	36	192	3	B	0	L1
TTP	37	0	6	E	0	L1
TTP	37	96	5	B	0	L1
TTP	37	192	4	B	0	L1
TTP	38	0	1	E	0	L1
TTP	38	96	2	E	0	L1
TTP	38	192	3	E	0	L1
TTP	39	0	7	E	0	L1
TTP	39	96	6	E	0	L1
TTP	39	192	5	E	0	L1
TAP	40	0	3
TAP	40	96	3
TAP	40	192	2
TAP	40	192	5
TAP	40	288	2
TAP	40	288	5
TAP	41	0	1
TAP	41	0	6
TAP	41	96	1
TAP	41	96	6
BRK	41	192	0
BRK	41	192	7
TAP	42	0	0
STR	42	0	1
SXL	42	0	1	96	480	4
TAP	44	0	5
TAP	44	96	5
TAP	44	192	4
TAP	44	192	5
TAP	45	0	6
TAP	45	96	6
TAP	45	192	6
TAP	45	192	7
STR	46	0	6
SXR	46	0	6	96	480	3
TAP	46	0	7
TAP	48	0	2
TAP	48	96	2
TAP	48	192	2
TAP	48	192	3
TAP	49	0	1
TAP	49	96	1
TAP	49	192	0
TAP	49	192	1
STR	50	0	2
SXR	50	0	2	96	480	7
TAP	52	0	6
TAP	52	96	6
TAP	52	192	6
TAP	52	192	7
TAP	53	0	5
TAP	53	96	5
TAP	53	192	4
TAP	53	192	5
TAP	54	0	2
TAP	54	96	3
TAP	54	192	4
TAP	54	288	5
TAP	55	0	6
TAP	55	96	7
TAP	55	192	0
TAP	55	288	1
XTP	56	0	0
XTP	56	0	7
XHO	56	144	0	96
XTP	56	240	7
XST	56	336	0
SI_	56	336	0	96	192	3
XST	56	336	7
SI_	56	336	7	96	192	4
TTP	58	0	0	C	1	L1
HLD	60	0	2	384
HLD	61	0	3	384
HLD	62	0	4	384
TAP	63	0	5
XTP	63	192	4
XTP	63	192	5
HLD	64	0	6	384
HLD	65	0	7	384
HLD	66	0	0	384
TAP	67	0	1
TAP	67	192	2
TAP	67	192	3
STR	68	0	4
SI_	68	0	4	96	192	0
STR	69	0	1
SI_	69	0	1	96	192	4
STR	70	0	5
SCL	70	0	5	96	192	2
STR	71	0	1
SUR	71	0	1	96	192	5
TAP	72	0	6
TAP	72	96	6
TAP	72	192	7
TAP	72	288	7
TAP	73	0	0
TAP	73	96	0
TAP	73	192	1
TAP	73	288	1
TAP	74	0	2
TAP	74	48	2
TAP	74	96	2
TAP	74	192	3
TAP	74	240	3
TAP	74	288	3
TAP	75	0	4
TAP	75	48	4
TAP	75	96	4
BRK	75	192	2
BRK	75	192	5
TAP	76	0	6
TAP	76	96	6
TAP	76	96	7
TAP	76	192	6
TAP	76	288	6
TAP	76	288	7
TAP	77	0	5
TAP	77	96	4
TAP	77	96	5
TAP	77	192	5
TAP	77	288	4
TAP	77	288	5
TAP	78	0	2
TAP	78	96	2
TAP	78	96	3
TAP	78	192	2
TAP	78	288	2
TAP	78	288	3
TAP	79	0	1
TAP	79	96	0
TAP	79	96	7
TAP	79	192	1
TAP	79	192	6
TAP	80	0	5
TAP	80	96	4
TAP	80	96	5
TAP	80	192	5
TAP	80	288	4
TAP	80	288	5
TAP	81	0	2
TAP	81	96	2
TAP	81	96	3
TAP	81	192	2
TAP	81	288	2
TAP	81	288	3
TAP	82	0	1
TAP	82	96	0
TAP	82	96	1
TAP	82	192	6
TAP	82	288	6
TAP	82	288	7
TAP	83	0	0
TAP	83	96	0
TAP	83	96	7
BRK	83	192	1
BRK	83	192	6
TAP	84	0	2
TAP	84	48	2
TAP	84	96	2
TAP	84	192	2
TAP	84	192	3
TAP	84	288	1
TAP	84	288	4
TAP	85	0	5
TAP	85	48	5
TAP	85	96	5
TAP	85	192	4
TAP	85	192	5
TAP	85	288	3
TAP	85	288	6
TAP	86	0	2
TAP	86	48	2
TAP	86	96	2
TAP	86	192	2
TAP	86	192	3
TAP	86	288	1
TAP	86	288	4
TAP	87	0	5
TAP	87	96	3
TAP	87	96	4
TAP	87	192	2
TAP	87	192	5
TAP	88	0	6
TAP	88	48	6
TAP	88	96	6
TAP	88	192	6
TAP	88	192	7
TAP	88	288	0
TAP	88	288	5
TAP	89	0	1
TAP	89	48	1
TAP	89	96	1
TAP	89	192	0
TAP	89	192	1
TAP	89	288	2
TAP	89	288	7
TAP	90	0	6
TAP	90	48	6
TAP	90	96	6
TAP	90	192	5
TAP	90	240	5
TAP	90	288	5
TAP	91	0	3
TAP	91	0	4
TAP	91	96	2
TAP	91	96	5
BRK	91	192	1
BRK	91	192	6
STR	92	0	7
SCL	92	0	7	96	192	4
STR	93	0	3
SCL	93	0	3	96	192	0
TTP	94	0	6	B	0	L1
TTP	94	96	5	B	0	L1
TTP	94	192	4	B	0	L1
TTP	94	288	3	B	0	L1
TTP	95	0	2	B	0	L1
TTP	95	96	1	B	0	L1
TTP	95	192	0	B	0	L1
XST	96	0	4
SCR	96	0	4	96	192	7
STR	97	0	0
SCR	97	0	0	96	192	3
TTP	98	0	5	B	0	L1
TTP	98	96	6	B	0	L1
TTP	98	192	7	B	0	L1
TTP	98	288	0	B	0	L1
TTP	99	0	1	B	0	L1
TTP	99	96	2	B	0	L1
TTP	99	192	3	B	0	L1
XST	100	0	6
SCL	100	0	6	96	192	3
STR	101	0	1
SUR	101	0	1	96	192	5
STR	102	0	6
SUL	102	0	6	96	192	2
STR	103	0	1
SCR	103	0	1	96	192	4
TAP	104	0	5
TAP	104	96	4
TAP	104	96	5
TAP	104	192	6
TAP	104	288	6
TAP	104	288	7
TAP	105	0	1
TAP	105	96	0
TAP	105	96	1
TAP	105	192	2
TAP	105	288	2
TAP	105	288	3
TAP	106	0	4
TAP	106	48	4
TAP	106	96	4
TAP	106	192	3
TAP	106	240	3
TAP	106	288	3
TAP	107	0	5
TAP	107	48	5
TAP	107	96	5
TAP	107	192	2
TAP	107	240	2
TAP	107	288	2
BRK	108	0	1
BRK	108	0	6

T_REC_TAP	272
T_REC_BRK	14
T_REC_XTP	6
T_REC_HLD	10
T_REC_XHO	1
T_REC_STR	21
T_REC_BST	0
T_REC_XST	5
T_REC_TTP	36
T_REC_THO	0
T_REC_SLD	26
T_REC_ALL	391
T_NUM_TAP	340
T_NUM_BRK	14
T_NUM_HLD	11
T_NUM_SLD	26
T_NUM_ALL	391
T_JUDGE_TAP	354
T_JUDGE_HLD	62
T_JUDGE_SLD	26
T_JUDGE_ALL	442
TTM_EACHPAIRS	77
TTM_SCR_TAP	170000
TTM_SCR_BRK	36400
TTM_SCR_HLD	11000
TTM_SCR_SLD	39000
TTM_SCR_ALL	256400
TTM_SCR_S	247350
TTM_SCR_SS	255000
TTM_RAT_ACV	10054

