VERSION	0.00.00	1.03.00
FES_MODE	0
BPM_DEF	189.000	189.000	189.000	189.000
MET_DEF	4	4
RESOLUTION	384
CLK_DEF	384
COMPATIBLE_CODE	MA2

BPM	0	0	189.000
MET	0	0	4	4

TAP	2	0	0
TAP	4	0	0
TAP	6	0	7
TAP	8	0	7
BRK	10	0	0
TAP	11	0	0
TAP	12	0	1
TAP	13	0	1
TAP	14	0	2
TAP	15	0	2
TAP	16	0	3
TAP	16	0	4
XTP	17	0	3
XTP	17	0	4
HLD	18	0	4	384
HLD	20	0	5	384
HLD	22	0	6	384
HLD	24	0	0	384
HLD	24	0	7	384
TAP	26	0	7
TAP	26	192	7
TAP	27	0	6
TAP	27	192	6
TAP	28	0	5
TAP	28	192	5
TAP	29	0	4
TAP	29	0	5
TAP	30	0	3
TAP	30	192	3
TAP	31	0	2
TAP	31	192	2
TAP	32	0	1
TAP	32	192	1
BRK	33	0	0
BRK	33	0	7
STR	34	0	0
SI_	34	0	0	96	288	3
STR	36	0	7
SI_	36	0	7	96	288	4
STR	38	0	0
SI_	38	0	0	96	288	4
TAP	40	0	7
BRK	41	0	7
HLD	42	0	0	384
HLD	42	0	1	384
HLD	44	0	2	384
HLD	44	0	3	384
HLD	46	0	4	384
HLD	46	0	5	384
HLD	48	0	6	384
HLD	48	0	7	384
TAP	50	0	7
TAP	50	192	7
TAP	51	0	6
TAP	51	0	7
TAP	52	0	5
TAP	52	192	5
TAP	53	0	4
TAP	53	0	5
TAP	54	0	3
TAP	54	192	3
TAP	55	0	2
TAP	55	0	3
HLD	56	0	3	384
HLD	56	0	4	384
TTP	58	0	0	C	1	L1
TTP	60	0	3	B	0	L1
TTP	61	0	2	B	0	L1
TTP	62	0	1	B	0	L1
TTP	63	0	0	B	0	L1
TTP	64	0	7	B	0	L1
TTP	65	0	6	B	0	L1
TTP	66	0	5	B	0	L1
TTP	67	0	4	B	0	L1
TTP	68	0	2	B	0	L1
TTP	68	0	3	B	0	L1
TTP	69	0	4	B	0	L1
TTP	69	0	5	B	0	L1
TTP	70	0	6	B	0	L1
TTP	70	0	7	B	0	L1
TTP	71	0	0	B	0	L1
TTP	71	0	1	B	0	L1
TTP	72	0	2	B	0	L1
TTP	72	0	3	B	0	L1
TTP	72	0	3	E	0	L1
TTP	73	0	4	B	0	L1
TTP	73	0	5	B	0	L1
TTP	73	0	5	E	0	L1
THO	74	0	0	384	C	1	L1
TAP	76	0	7
TAP	76	96	7
TAP	76	192	7
TAP	77	0	6
TAP	77	192	6
TAP	78	0	5
TAP	78	96	5
TAP	78	192	5
TAP	79	0	3
TAP	79	0	4
TAP	79	192	3
TAP	79	192	4
TAP	80	0	3
TAP	80	96	3
TAP	80	192	3
TAP	81	0	2
TAP	81	192	2
TAP	82	0	1
TAP	82	96	1
TAP	82	192	1
TAP	83	0	0
TAP	83	0	7
TAP	83	192	0
TAP	83	192	7
TAP	84	0	0
TAP	84	96	0
TAP	84	192	0
TAP	85	0	1
TAP	85	192	1
TAP	86	0	2
TAP	86	96	2
TAP	86	192	2
TAP	87	0	3
TAP	87	0	4
TAP	87	192	3
TAP	87	192	4
TAP	88	0	4
TAP	88	96	4
TAP	88	192	4
TAP	89	0	5
TAP	89	96	5
TAP	89	192	5
TAP	90	0	6
TAP	90	96	6
TAP	90	192	6
BRK	91	0	0
BRK	91	0	7
HLD	92	0	7	192
TAP	93	0	7
TAP	93	192	6
TAP	93	192	7
HLD	94	0	5	192
TAP	95	0	5
TAP	95	192	4
TAP	95	192	5
HLD	96	0	3	192
TAP	97	0	3
TAP	97	192	2
TAP	97	192	3
HLD	98	0	1	192
TAP	99	0	0
TAP	99	192	0
TAP	99	192	7
STR	100	0	0
SI_	100	0	0	96	288	4
STR	102	0	7
SI_	102	0	7	96	288	3
TAP	104	0	0
TAP	104	96	0
TAP	104	192	1
TAP	104	288	1
TAP	105	0	2
TAP	105	96	2
TAP	105	192	3
TAP	105	288	3
TAP	106	0	4
TAP	106	96	4
TAP	106	192	5
TAP	106	288	5
TAP	107	0	6
TAP	107	96	6
TAP	107	192	0
TAP	107	192	7
TAP	107	288	0
TAP	107	288	7

T_REC_TAP	113
T_REC_BRK	6
T_REC_XTP	2
T_REC_HLD	19
T_REC_XHO	0
T_REC_STR	5
T_REC_BST	0
T_REC_XST	0
T_REC_TTP	23
T_REC_THO	1
T_REC_SLD	5
T_REC_ALL	174
T_NUM_TAP	143
T_NUM_BRK	6
T_NUM_HLD	20
T_NUM_SLD	5
T_NUM_ALL	174
T_JUDGE_TAP	149
T_JUDGE_HLD	144
T_JUDGE_SLD	5
T_JUDGE_ALL	298
TTM_EACHPAIRS	26
TTM_SCR_TAP	71500
TTM_SCR_BRK	15600
TTM_SCR_HLD	20000
TTM_SCR_SLD	7500
TTM_SCR_ALL	114600
TTM_SCR_S	110600
TTM_SCR_SS	114000
TTM_RAT_ACV	10052

