VERSION	0.00.00	1.03.00
FES_MODE	0
BPM_DEF	150.000	150.000	150.000	150.000
MET_DEF	4	4
RESOLUTION	384
CLK_DEF	384
COMPATIBLE_CODE	MA2

BPM	0	0	150.000
MET	0	0	4	4

XTP	1	0	2
XTP	1	0	4
XTP	1	96	3
XTP	1	96	5
XTP	1	192	2
XTP	1	192	4
XTP	1	288	3
XTP	1	288	5
XHO	2	0	2	2592
XHO	2	0	4	2592
XTP	9	0	3
XTP	9	0	5
XTP	9	96	2
XTP	9	96	4
XTP	9	192	1
XTP	9	192	5
XTP	9	288	2
XTP	9	288	6
STR	10	0	3
SUL	10	0	3	96	192	6
STR	10	0	7
SUL	10	0	7	96	192	2
STR	11	0	2
SCR	11	0	2	96	192	5
STR	11	0	6
SCR	11	0	6	96	192	1
STR	12	0	1
SUR	12	0	1	96	192	5
STR	12	0	5
SUR	12	0	5	96	192	1
STR	13	0	1
SUL	13	0	1	96	192	4
STR	13	0	5
SUL	13	0	5	96	192	0
STR	14	0	0
SSR	14	0	0	96	192	4
STR	14	0	4
SLR	14	0	4	96	192	0
STR	15	0	0
SXR	15	0	0	96	192	5
STR	15	0	4
SCL	15	0	4	96	192	1
STR	16	0	1
SLR	16	0	1	96	192	5
STR	16	0	5
SCR	16	0	5	96	192	1
STR	17	0	1
SLL	17	0	1	96	192	5
STR	17	0	5
SSR	17	0	5	96	192	1
STR	18	0	0
SUR	18	0	0	96	48	4
STR	18	0	4
SUR	18	0	4	96	48	0
STR	18	192	0
SI_	18	192	0	96	48	5
STR	18	192	4
SI_	18	192	4	96	48	1
STR	19	0	1
SCL	19	0	1	96	48	6
STR	19	0	5
SCL	19	0	5	96	48	2
STR	19	192	2
SUR	19	192	2	96	48	6
STR	19	192	6
SUR	19	192	6	96	48	2
STR	20	0	2
SI_	20	0	2	96	48	5
STR	20	0	6
SI_	20	0	6	96	48	1
STR	20	192	1
SCL	20	192	1	96	48	6
STR	20	192	5
SCL	20	192	5	96	48	2
STR	21	0	2
SUL	21	0	2	96	48	6
STR	21	0	6
SUL	21	0	6	96	48	2
STR	21	192	2
SI_	21	192	2	96	48	5
STR	21	192	6
SI_	21	192	6	96	48	1
STR	22	0	0
SI_	22	0	0	96	48	3
STR	22	0	4
SI_	22	0	4	96	48	7
TAP	22	48	0
TAP	22	48	4
STR	22	192	3
SI_	22	192	3	96	48	0
STR	22	192	7
SI_	22	192	7	96	48	4
TAP	22	240	3
TAP	22	240	7
STR	23	0	1
SI_	23	0	1	96	48	5
TAP	23	48	1
STR	23	96	0
SI_	23	96	0	96	48	4
TAP	23	144	0
STR	23	192	7
SI_	23	192	7	96	48	3
TAP	23	240	7
STR	23	288	6
SI_	23	288	6	96	48	2
TAP	23	336	6
BRK	24	0	0
BRK	24	96	1
STR	24	96	5
SI_	24	96	5	96	48	1
BST	24	192	2
SI_	24	192	2	96	48	7
TAP	24	192	5
TAP	24	288	2
STR	24	288	6
SI_	24	288	6	96	48	2
STR	25	0	3
SI_	25	0	3	96	48	0
TAP	25	0	6
TAP	25	96	3
STR	25	96	4
SI_	25	96	4	96	48	7
TAP	25	192	2
BRK	25	192	4
XTP	25	240	0
XTP	25	288	0
TAP	26	0	2
STR	26	0	7
SI_	26	0	7	96	48	5
TAP	26	48	2
TAP	26	96	2
STR	26	96	7
SI_	26	96	7	96	48	1
TAP	26	192	3
STR	26	192	7
SI_	26	192	7	96	48	5
HLD	26	240	3	96
STR	26	288	7
SI_	26	288	7	96	48	1
STR	27	0	7
SI_	27	0	7	96	48	5
TAP	27	48	4
TAP	27	96	4
STR	27	96	7
SI_	27	96	7	96	48	1
TAP	27	192	3
STR	27	192	7
SI_	27	192	7	96	48	5
TAP	27	240	3
TAP	27	288	3
STR	27	288	7
SI_	27	288	7	96	48	1
TAP	28	0	2
STR	28	0	7
SI_	28	0	7	96	48	5
TAP	28	48	2
TAP	28	96	2
STR	28	96	7
SI_	28	96	7	96	48	1
TAP	28	192	3
STR	28	192	7
SI_	28	192	7	96	48	5
HLD	28	240	3	96
STR	28	288	7
SI_	28	288	7	96	48	1
STR	29	0	7
SI_	29	0	7	96	48	5
TAP	29	48	4
TAP	29	96	4
STR	29	96	7
SI_	29	96	7	96	48	1
HLD	29	192	3	96
TAP	29	192	7
BRK	29	288	7
STR	30	0	0
SI_	30	0	0	96	48	2
TAP	30	0	5
TAP	30	48	5
STR	30	96	0
SI_	30	96	0	96	48	6
TAP	30	96	5
STR	30	192	0
SI_	30	192	0	96	48	2
TAP	30	192	4
HLD	30	240	4	96
STR	30	288	0
SI_	30	288	0	96	48	6
STR	31	0	0
SI_	31	0	0	96	48	2
TAP	31	48	3
STR	31	96	0
SI_	31	96	0	96	48	6
TAP	31	96	3
STR	31	192	0
SI_	31	192	0	96	48	2
TAP	31	192	4
TAP	31	240	4
STR	31	288	0
SI_	31	288	0	96	48	6
TAP	31	288	4
STR	32	0	0
SI_	32	0	0	96	48	2
TAP	32	0	5
TAP	32	48	5
STR	32	96	0
SI_	32	96	0	96	48	6
TAP	32	96	5
STR	32	192	0
SI_	32	192	0	96	48	2
TAP	32	192	4
TAP	32	240	4
TAP	32	288	0
TAP	32	288	4
STR	33	0	6
SCL	33	0	6	96	48	3
STR	33	96	0
SCR	33	96	0	96	48	3
STR	33	192	7
SCL	33	192	7	96	48	4
HLD	33	288	3	96
THO	34	0	0	480	C	0	M1
XTP	34	288	0
XTP	34	336	0
XTP	35	0	0
XTP	35	48	0
XTP	35	96	0
XTP	35	144	0
XTP	35	192	0
XHO	35	240	0	96
XTP	35	336	5
XTP	35	360	5
XST	36	0	5
SI_	36	0	5	96	48	3
TAP	36	48	1
TAP	36	96	1
STR	36	96	5
SI_	36	96	5	96	48	7
TAP	36	192	2
STR	36	192	5
SI_	36	192	5	96	48	3
HLD	36	240	2	96
TAP	36	288	5
TAP	37	0	3
TAP	37	0	4
TAP	37	48	4
TAP	37	48	6
TAP	37	96	0
TAP	37	96	7
TAP	37	144	1
TAP	37	144	3
STR	37	192	3
SI_	37	192	3	96	48	0
STR	37	192	4
SI_	37	192	4	96	48	7
STR	38	0	2
SI_	38	0	2	96	48	4
TAP	38	0	6
TAP	38	48	6
STR	38	96	2
SI_	38	96	2	96	48	0
TAP	38	96	6
STR	38	192	2
SI_	38	192	2	96	48	4
TAP	38	192	5
HLD	38	240	5	96
STR	38	288	2
SI_	38	288	2	96	48	0
STR	39	0	2
SI_	39	0	2	96	48	4
TAP	39	48	7
TAP	39	96	2
TAP	39	96	7
TAP	39	192	2
TAP	39	192	6
TAP	39	240	7
TAP	39	264	7
TAP	39	288	0
TAP	39	336	1
TAP	39	336	6
TAP	40	48	0
TAP	40	48	7
TAP	40	96	2
TAP	40	96	5
STR	40	144	3
SCL	40	144	3	96	48	0
STR	40	144	4
SCR	40	144	4	96	48	7
TAP	40	192	1
TAP	40	192	6
TAP	40	240	3
TAP	40	240	4
BRK	40	336	1
BRK	40	336	6
TTP	41	0	2	B	0	M1
TTP	41	0	3	E	0	M1
TTP	41	48	4	E	0	M1
TTP	41	96	5	B	0	M1
TTP	41	96	5	E	0	M1
TTP	41	144	2	E	0	M1
TTP	41	192	0	B	0	M1
TTP	41	192	1	E	0	M1
TTP	41	240	6	E	0	M1
TTP	41	288	7	B	0	M1
TTP	41	288	7	E	0	M1
HLD	42	0	1	384
HLD	43	0	3	384
HLD	44	0	4	384
HLD	45	0	6	384
TAP	46	0	3
TAP	46	96	3
TAP	46	192	3
TAP	46	288	3
TAP	47	0	4
TAP	47	96	4
TAP	47	192	4
TAP	47	288	4
TTP	48	0	0	E	0	M1
TTP	48	96	1	E	0	M1
TTP	48	192	2	E	0	M1
TTP	48	288	3	E	0	M1
TTP	48	288	4	E	0	M1
TTP	49	0	5	E	0	M1
TTP	49	0	6	E	0	M1
TTP	49	96	0	E	0	M1
TTP	49	96	7	E	0	M1
TTP	49	192	0	C	1	M1
TTP	49	192	1	E	0	M1
TTP	49	192	2	E	0	M1
TTP	49	288	3	E	0	M1
TTP	49	288	4	E	0	M1
HLD	50	0	5	384
TTP	50	96	4	B	0	M1
TTP	50	192	3	E	0	M1
TTP	50	288	1	E	0	M1
HLD	51	0	2	384
TTP	51	96	3	B	0	M1
TTP	51	192	5	E	0	M1
TTP	51	288	7	E	0	M1
HLD	52	0	5	384
TTP	52	96	4	B	0	M1
TTP	52	192	3	E	0	M1
TTP	52	288	1	E	0	M1
HLD	53	0	2	384
TTP	53	96	3	B	0	M1
TTP	53	192	5	E	0	M1
TTP	53	288	7	E	0	M1
TAP	54	0	4
TAP	54	48	4
TAP	54	96	4
TAP	54	144	4
TAP	54	192	1
TAP	54	240	1
TAP	54	288	6
TAP	54	336	6
TAP	55	0	3
TAP	55	48	3
TAP	55	96	7
TAP	55	144	7
TAP	55	192	2
TAP	55	240	2
TAP	55	288	5
TAP	55	336	5
TAP	56	0	0
TAP	56	24	7
TAP	56	48	2
TAP	56	72	5
TAP	56	96	1
TAP	56	120	6
TAP	56	144	3
TAP	56	168	4
TAP	56	192	0
TAP	56	216	7
TAP	56	240	2
TAP	56	264	5
TAP	56	288	1
TAP	56	312	6
TAP	56	336	0
TTP	57	0	7	B	0	M1
TTP	57	0	7	E	0	M1
TTP	57	96	0	B	0	M1
TTP	57	96	1	E	0	M1
TAP	57	192	1
TTP	57	192	5	B	0	M1
TTP	57	192	5	E	0	M1
TTP	57	288	2	B	0	M1
TTP	57	288	3	E	0	M1
STR	57	288	7
SI_	57	288	7	96	48	5
STR	58	0	3
SI_	58	0	3	96	48	1
TAP	58	0	7
TAP	58	48	4
TAP	58	96	3
STR	58	96	7
SI_	58	96	7	96	48	5
STR	58	192	3
SI_	58	192	3	96	48	1
TAP	58	192	7
TAP	58	240	4
TAP	58	288	3
STR	58	288	7
SI_	58	288	7	96	48	5
TAP	58	336	0
TAP	59	0	3
TAP	59	0	7
TAP	59	48	4
STR	59	96	2
SCR	59	96	2	96	48	5
STR	59	96	6
SCR	59	96	6	96	48	1
TAP	59	144	0
TAP	59	144	4
TAP	59	192	2
TAP	59	192	6
STR	59	288	0
SI_	59	288	0	96	48	2
TAP	59	288	4
TAP	60	0	0
STR	60	0	4
SI_	60	0	4	96	48	6
TAP	60	48	3
STR	60	96	0
SI_	60	96	0	96	48	2
TAP	60	96	4
TAP	60	192	0
STR	60	192	4
SI_	60	192	4	96	48	6
TAP	60	240	3
STR	60	288	0
SI_	60	288	0	96	48	2
TAP	60	288	4
TAP	60	336	7
TAP	61	0	0
TAP	61	0	4
TAP	61	48	3
STR	61	96	1
SI_	61	96	1	96	48	6
STR	61	96	5
SI_	61	96	5	96	48	2
TAP	61	144	2
TAP	61	144	6
TAP	61	192	1
TAP	61	192	5
STR	61	288	0
SI_	61	288	0	96	48	2
TAP	61	288	4
TAP	62	0	0
STR	62	0	4
SI_	62	0	4	96	48	6
TAP	62	48	3
STR	62	96	0
SI_	62	96	0	96	48	2
TAP	62	96	4
TAP	62	192	0
STR	62	192	4
SI_	62	192	4	96	48	6
TAP	62	240	3
STR	62	288	0
SI_	62	288	0	96	48	2
TAP	62	288	4
TAP	62	336	7
TAP	63	0	0
TAP	63	0	4
TAP	63	48	3
STR	63	96	1
SCL	63	96	1	96	48	6
STR	63	96	5
SCL	63	96	5	96	48	2
TAP	63	144	3
TAP	63	144	7
TAP	63	192	1
TAP	63	192	5
TAP	63	288	3
STR	63	288	7
SI_	63	288	7	96	48	5
STR	64	0	3
SI_	64	0	3	96	48	1
TAP	64	0	7
TAP	64	48	4
TAP	64	96	3
STR	64	96	7
SI_	64	96	7	96	48	5
STR	64	192	3
SI_	64	192	3	96	48	1
TAP	64	192	7
TAP	64	240	4
TAP	64	288	3
STR	64	288	7
SI_	64	288	7	96	48	5
TAP	64	336	0
TAP	65	0	3
TAP	65	0	7
TAP	65	48	4
TAP	65	96	2
TAP	65	96	6
TAP	65	144	7
TTP	65	192	2	B	0	M1
TTP	65	192	3	E	0	M1
TAP	65	192	7
STR	65	288	0
SI_	65	288	0	96	48	2
TTP	65	288	5	B	0	M1
TTP	65	288	5	E	0	M1
TAP	66	0	0
STR	66	0	3
SI_	66	0	3	96	48	7
TAP	66	48	4
TAP	66	96	3
STR	66	96	6
SI_	66	96	6	96	48	4
STR	66	192	3
SI_	66	192	3	96	48	7
TAP	66	192	6
TAP	66	240	2
STR	66	288	0
SI_	66	288	0	96	48	2
TAP	66	288	3
TAP	66	336	1
TAP	67	0	0
TAP	67	0	7
TAP	67	48	6
STR	67	96	1
SCL	67	96	1	96	48	6
STR	67	96	5
SCL	67	96	5	96	48	2
TAP	67	144	3
TAP	67	144	7
TAP	67	192	1
TAP	67	192	5
TAP	67	288	3
STR	67	288	7
SI_	67	288	7	96	48	5
STR	68	0	4
SI_	68	0	4	96	48	0
TAP	68	0	7
TAP	68	48	3
STR	68	96	1
SI_	68	96	1	96	48	3
TAP	68	96	4
TAP	68	192	1
STR	68	192	4
SI_	68	192	4	96	48	0
TAP	68	240	5
TAP	68	288	4
TAP	68	288	7
TAP	68	336	6
BRK	69	0	0
BRK	69	0	4
BRK	69	48	2
BRK	69	48	6
BST	69	96	1
SI_	69	96	1	96	48	4
BST	69	96	5
SI_	69	96	5	96	48	0
BRK	69	144	3
BRK	69	144	7
BRK	69	192	1
BRK	69	192	5
TAP	69	288	3
STR	69	288	7
SI_	69	288	7	96	48	5
STR	70	0	4
SI_	70	0	4	96	48	0
TAP	70	0	7
TAP	70	48	3
STR	70	96	1
SI_	70	96	1	96	48	3
TAP	70	96	4
TAP	70	192	1
STR	70	192	4
SI_	70	192	4	96	48	0
TAP	70	240	5
TAP	70	288	4
STR	70	288	7
SI_	70	288	7	96	48	5
TAP	70	336	6
TAP	71	0	0
TAP	71	0	7
TAP	71	48	1
STR	71	96	2
SCR	71	96	2	96	48	5
STR	71	96	6
SCR	71	96	6	96	48	1
TAP	71	144	0
TAP	71	144	4
TAP	71	192	2
TAP	71	192	6
TAP	71	288	0
TAP	71	288	4
STR	72	0	1
SI_	72	0	1	96	48	7
TAP	72	0	4
STR	72	48	6
SI_	72	48	6	96	48	2
STR	72	96	1
SLR	72	96	1	96	48	5
TAP	72	144	6
TAP	72	192	1
STR	72	288	6
SCL	72	288	6	96	48	3
TAP	72	336	5
STR	73	0	1
SCL	73	0	1	96	48	6
TAP	73	0	6
TAP	73	96	1
STR	73	96	4
SCL	73	96	4	96	48	1
TAP	73	192	4
STR	73	192	7
SCL	73	192	7	96	48	4
STR	73	288	2
SI_	73	288	2	96	48	6
TAP	73	288	7
TTP	74	0	0	C	1	M1
TAP	74	0	2

T_REC_TAP	227
T_REC_BRK	14
T_REC_XTP	27
T_REC_HLD	15
T_REC_XHO	3
T_REC_STR	135
T_REC_BST	3
T_REC_XST	1
T_REC_TTP	50
T_REC_THO	1
T_REC_SLD	139
T_REC_ALL	615
T_NUM_TAP	440
T_NUM_BRK	17
T_NUM_HLD	19
T_NUM_SLD	139
T_NUM_ALL	615
T_JUDGE_TAP	457
T_JUDGE_HLD	198
T_JUDGE_SLD	139
T_JUDGE_ALL	794
TTM_EACHPAIRS	141
TTM_SCR_TAP	220000
TTM_SCR_BRK	44200
TTM_SCR_HLD	19000
TTM_SCR_SLD	208500
TTM_SCR_ALL	491700
TTM_SCR_S	475300
TTM_SCR_SS	490000
TTM_RAT_ACV	10034

