VERSION	0.00.00	1.03.00
FES_MODE	0
BPM_DEF	150.000	150.000	150.000	150.000
MET_DEF	4	4
RESOLUTION	384
CLK_DEF	384
COMPATIBLE_CODE	MA2

BPM	0	0	150.000
MET	0	0	4	4

XTP	1	0	4
XTP	1	0	5
XTP	1	96	6
XTP	1	96	7
XTP	1	192	0
XTP	1	192	1
XTP	1	288	2
XTP	1	288	3
BST	2	0	4
SCR	2	0	4	96	2376	3
BRK	2	0	5
TTP	3	72	5	B	0	M1
TTP	3	336	6	B	0	M1
TTP	4	276	7	B	0	M1
TTP	5	228	0	B	0	M1
TTP	6	180	1	B	0	M1
TTP	7	192	2	B	0	M1
TTP	8	168	0	C	0	M1
XTP	9	0	3
XTP	9	0	4
XTP	9	96	5
XTP	9	96	6
XTP	9	192	0
XTP	9	192	7
XTP	9	288	1
XTP	9	288	2
BST	10	0	3
SLR	10	0	3	96	192	7
HLD	10	0	4	288
STR	11	0	0
SCL	11	0	0	96	192	4
SCR	11	0	0	96	192	4
HLD	12	0	3	288
STR	12	0	4
SSL	12	0	4	96	192	0
STR	13	0	7
SI_	13	0	7	96	192	4
TTP	13	96	0	B	0	M1
TTP	13	192	0	C	0	M1
TTP	13	288	3	B	0	M1
XTP	14	0	2
TAP	14	96	2
TAP	14	192	3
TAP	14	240	3
TAP	14	336	1
TAP	14	336	4
TAP	15	48	5
TAP	15	96	5
TAP	15	192	3
TAP	15	192	6
TAP	15	288	1
TAP	15	288	4
TAP	16	0	5
TAP	16	96	5
TAP	16	192	4
TAP	16	240	4
TAP	16	336	3
TAP	16	336	6
TAP	17	48	2
TAP	17	96	2
TAP	17	192	1
TAP	17	192	7
TAP	17	288	0
TAP	17	288	6
HLD	18	0	7	96
HLD	18	96	6	96
HLD	18	192	5	96
HLD	18	288	4	96
HLD	19	0	3	96
HLD	19	96	2	96
HLD	19	192	1	96
HLD	19	288	0	96
HLD	20	0	7	96
HLD	20	96	5	96
HLD	20	192	3	96
HLD	20	288	1	96
HLD	21	0	6	96
HLD	21	96	4	96
HLD	21	192	2	96
HLD	21	288	0	96
TAP	22	0	7
TAP	22	48	7
TAP	22	96	0
TAP	22	96	6
TAP	22	144	0
TAP	22	144	6
TAP	22	192	1
TAP	22	192	5
TAP	22	240	1
TAP	22	240	5
TAP	22	288	2
TAP	22	288	4
TAP	22	336	2
TAP	22	336	4
TAP	23	0	3
TAP	23	24	4
TAP	23	48	3
TAP	23	72	4
TAP	23	96	3
TAP	23	120	4
TAP	23	144	3
TAP	23	168	4
TAP	23	192	3
TAP	23	216	4
TAP	23	240	3
TAP	23	264	4
TAP	23	288	3
TTP	24	0	0	E	0	M1
TTP	24	96	1	E	0	M1
TTP	24	96	7	E	0	M1
TTP	24	192	0	C	0	M1
TTP	24	192	2	E	0	M1
TTP	24	192	6	E	0	M1
TTP	24	288	3	B	0	M1
TTP	24	288	4	B	0	M1
TTP	24	288	4	E	0	M1
TTP	25	0	1	B	0	M1
TTP	25	0	2	B	0	M1
TTP	25	0	2	E	0	M1
TTP	25	96	5	B	0	M1
TTP	25	96	6	B	0	M1
TTP	25	96	6	E	0	M1
TTP	25	192	0	B	0	M1
TTP	25	192	0	C	1	M1
TTP	25	192	7	B	0	M1
TAP	26	0	2
TAP	26	0	3
TAP	26	96	0
TAP	26	96	1
TAP	26	192	2
TAP	26	192	3
TAP	26	288	4
TAP	26	288	5
TAP	27	0	5
TAP	27	48	5
HLD	27	96	3	96
TAP	27	192	1
TAP	27	240	1
HLD	27	288	3	96
TAP	28	0	5
TAP	28	96	6
TAP	28	96	7
TAP	28	192	4
TAP	28	192	5
TAP	28	288	2
TAP	28	288	3
TAP	29	0	2
TAP	29	48	2
HLD	29	96	4	96
TAP	29	192	6
TAP	29	240	6
HLD	29	288	4	96
TAP	30	0	2
TAP	30	96	0
TAP	30	96	6
TAP	30	192	5
TAP	30	192	6
TAP	30	288	3
TAP	30	288	5
TAP	31	0	5
TAP	31	48	5
HLD	31	96	3	96
TAP	31	192	1
TAP	31	240	1
HLD	31	288	3	96
TAP	32	0	5
TAP	32	96	1
TAP	32	96	7
TAP	32	192	1
TAP	32	192	2
TAP	32	288	2
TAP	32	288	4
STR	33	0	3
SI_	33	0	3	96	48	7
STR	33	96	4
SI_	33	96	4	96	48	0
STR	33	192	2
SCL	33	192	2	96	96	5
THO	34	0	0	192	C	0	M1
BRK	34	288	0
BRK	34	336	1
BRK	35	0	2
BRK	35	48	3
BRK	35	96	4
BRK	35	144	5
BRK	35	192	1
BRK	35	192	6
BST	35	240	1
SI_	35	240	1	96	48	4
BST	35	240	6
SI_	35	240	6	96	48	3
TAP	36	96	2
TAP	36	96	5
TAP	36	192	0
TAP	36	192	1
TAP	36	288	6
TAP	36	288	7
TAP	37	0	3
TAP	37	0	4
TAP	37	48	3
TAP	37	48	4
TAP	37	96	3
TAP	37	96	4
HLD	37	144	3	144
STR	37	144	4
SI_	37	144	4	96	48	0
TAP	38	0	2
TAP	38	48	2
TAP	38	96	1
TAP	38	192	0
TAP	38	192	3
TAP	38	240	0
HLD	38	240	3	96
TAP	38	336	4
TAP	39	48	6
TAP	39	96	6
TAP	39	192	4
TAP	39	192	7
HLD	39	240	4	96
TAP	39	240	7
TAP	39	336	3
TAP	40	48	3
TAP	40	48	7
TAP	40	96	2
TAP	40	96	6
TAP	40	144	1
TAP	40	144	5
TAP	40	192	0
TAP	40	192	4
TAP	40	240	0
TAP	40	240	4
STR	40	336	0
SXL	40	336	0	96	192	3
STR	40	336	4
SXL	40	336	4	96	192	7
BRK	42	0	1
BST	42	0	5
SCR	42	0	5	96	288	2
STR	43	0	3
SSR	43	0	3	96	288	7
STR	44	0	4
SSL	44	0	4	96	288	0
STR	45	0	2
SCL	45	0	2	96	288	5
TAP	46	0	4
TAP	46	96	4
TAP	46	192	3
TAP	46	288	3
TAP	47	0	5
TAP	47	96	5
TAP	47	192	2
TAP	47	288	2
TTP	48	0	0	E	0	M1
TTP	48	96	1	E	0	M1
TTP	48	96	7	E	0	M1
TTP	48	192	0	C	0	M1
TTP	48	192	2	E	0	M1
TTP	48	192	6	E	0	M1
TTP	48	288	3	B	0	M1
TTP	48	288	4	B	0	M1
TTP	48	288	4	E	0	M1
TTP	49	0	5	B	0	M1
TTP	49	0	6	B	0	M1
TTP	49	0	6	E	0	M1
TTP	49	96	1	B	0	M1
TTP	49	96	2	B	0	M1
TTP	49	96	2	E	0	M1
TTP	49	192	0	B	0	M1
TTP	49	192	0	C	1	M1
TTP	49	192	7	B	0	M1
TAP	50	0	4
HLD	50	0	5	384
TTP	50	96	6	B	0	M1
TTP	50	192	0	B	0	M1
TTP	50	288	2	E	0	M1
HLD	51	0	2	384
TTP	51	96	1	B	0	M1
TTP	51	192	7	B	0	M1
TTP	51	288	6	E	0	M1
HLD	52	0	4	384
TTP	52	96	5	B	0	M1
TTP	52	192	7	B	0	M1
TTP	52	288	1	B	0	M1
HLD	53	0	3	384
TTP	53	96	2	B	0	M1
TTP	53	192	0	B	0	M1
TTP	53	288	6	B	0	M1
TAP	54	0	4
TAP	54	48	4
TAP	54	96	3
TAP	54	96	5
TAP	54	144	3
TAP	54	144	5
TAP	54	192	2
TAP	54	192	6
TAP	54	240	2
TAP	54	240	6
TAP	54	288	1
TAP	54	288	7
TAP	55	0	3
TAP	55	48	3
TAP	55	96	2
TAP	55	96	4
TAP	55	144	2
TAP	55	144	4
TAP	55	192	1
TAP	55	192	5
TAP	55	240	1
TAP	55	240	5
TAP	55	288	0
TAP	55	288	6
HLD	56	0	6	48
HLD	56	48	7	48
HLD	56	96	5	48
HLD	56	144	0	48
HLD	56	192	4	48
HLD	56	240	1	48
HLD	56	288	3	48
HLD	56	336	2	48
TAP	57	0	3
TTP	57	96	2	E	0	M1
TTP	57	96	4	B	0	M1
TTP	57	192	3	B	0	M1
TTP	57	192	6	E	0	M1
BRK	57	288	0
BRK	57	288	7
XTP	58	0	6
TAP	58	48	5
TAP	58	96	3
TAP	58	96	4
TAP	58	192	0
TAP	58	192	5
TAP	58	240	3
TAP	58	288	0
TAP	58	288	5
TAP	58	336	3
TAP	59	0	0
TAP	59	0	5
TAP	59	48	3
STR	59	96	0
SCR	59	96	0	96	72	3
STR	59	96	5
SCR	59	96	5	96	72	0
XTP	60	0	1
TAP	60	48	2
TAP	60	96	3
TAP	60	96	4
TAP	60	192	1
TAP	60	192	7
TAP	60	240	4
TAP	60	288	1
TAP	60	288	7
TAP	60	336	4
TAP	61	0	1
TAP	61	0	7
TAP	61	48	3
TAP	61	48	4
TAP	61	96	0
TAP	61	96	6
TAP	61	144	3
TAP	61	144	4
BST	61	192	1
SCR	61	192	1	96	36	3
BST	61	192	6
SCL	61	192	6	96	36	4
XTP	62	0	1
TAP	62	48	2
TAP	62	96	3
TAP	62	96	4
TAP	62	192	2
TAP	62	192	7
TAP	62	240	4
TAP	62	288	2
TAP	62	288	7
TAP	62	336	4
TAP	63	0	2
TAP	63	0	7
TAP	63	48	4
STR	63	96	2
SCL	63	96	2	96	72	7
STR	63	96	7
SCL	63	96	7	96	72	4
XTP	64	0	6
TAP	64	48	5
TAP	64	96	3
TAP	64	96	4
TAP	64	192	0
TAP	64	192	6
TAP	64	240	3
TAP	64	288	0
TAP	64	288	6
TAP	64	336	3
TAP	65	0	0
TAP	65	0	6
TAP	65	48	3
TAP	65	48	4
TAP	65	96	1
TAP	65	96	7
STR	65	144	3
SCL	65	144	3	96	48	0
STR	65	144	4
SCR	65	144	4	96	48	7
XTP	66	0	1
XTP	66	0	6
TAP	66	48	2
TAP	66	48	5
TAP	66	96	3
TAP	66	96	4
BRK	66	192	0
BRK	66	192	2
TAP	66	240	3
TAP	66	240	4
BRK	66	288	0
BRK	66	288	2
TAP	66	336	3
TAP	66	336	4
BRK	67	0	0
BRK	67	0	2
TAP	67	48	3
TAP	67	48	4
BST	67	96	0
SV_	67	96	0	96	72	5
BST	67	96	2
SV_	67	96	2	96	72	7
XTP	68	0	1
XTP	68	0	6
TAP	68	48	2
TAP	68	48	5
TAP	68	96	3
TAP	68	96	4
BRK	68	192	5
BRK	68	192	7
TAP	68	240	3
TAP	68	240	4
BRK	68	288	5
BRK	68	288	7
TAP	68	336	3
TAP	68	336	4
BRK	69	0	5
BRK	69	0	7
BRK	69	48	3
BRK	69	48	4
BRK	69	96	0
BRK	69	96	2
BRK	69	144	3
BRK	69	144	4
BST	69	192	1
SCR	69	192	1	96	36	3
BST	69	192	6
SCL	69	192	6	96	36	4
XTP	70	0	1
XTP	70	0	6
TAP	70	48	2
TAP	70	48	5
TAP	70	96	3
TAP	70	96	4
BRK	70	192	5
BRK	70	192	7
TAP	70	240	3
TAP	70	240	4
BRK	70	288	5
BRK	70	288	7
TAP	70	336	3
TAP	70	336	4
BRK	71	0	5
BRK	71	0	7
TAP	71	48	3
TAP	71	48	4
BST	71	96	5
SV_	71	96	5	96	72	0
BST	71	96	7
SV_	71	96	7	96	72	2
TAP	72	0	0
BRK	72	0	3
TAP	72	48	2
BRK	72	48	7
BRK	72	96	1
TAP	72	96	6
TAP	72	144	0
BRK	72	144	5
TAP	72	192	4
BRK	72	192	7
TAP	72	288	1
TAP	72	288	6
TAP	72	336	1
TAP	72	336	6
HLD	73	0	1	96
TAP	73	0	6
HLD	73	96	6	96
HLD	73	192	5	96
TAP	73	288	2
TTP	74	0	0	C	1	M1
TTP	74	0	1	B	0	M1
TTP	74	0	6	B	0	M1

T_REC_TAP	255
T_REC_BRK	41
T_REC_XTP	27
T_REC_HLD	42
T_REC_XHO	0
T_REC_STR	18
T_REC_BST	13
T_REC_XST	0
T_REC_TTP	65
T_REC_THO	1
T_REC_SLD	32
T_REC_ALL	494
T_NUM_TAP	365
T_NUM_BRK	54
T_NUM_HLD	43
T_NUM_SLD	32
T_NUM_ALL	494
T_JUDGE_TAP	419
T_JUDGE_HLD	113
T_JUDGE_SLD	32
T_JUDGE_ALL	564
TTM_EACHPAIRS	133
TTM_SCR_TAP	182500
TTM_SCR_BRK	140400
TTM_SCR_HLD	43000
TTM_SCR_SLD	48000
TTM_SCR_ALL	413900
TTM_SCR_S	396250
TTM_SCR_SS	408500
TTM_RAT_ACV	10132

