VERSION	0.00.00	1.03.00
FES_MODE	0
BPM_DEF	150.000	150.000	150.000	150.000
MET_DEF	4	4
RESOLUTION	384
CLK_DEF	384
COMPATIBLE_CODE	MA2

BPM	0	0	150.000
MET	0	0	4	4

XST	1	0	0
SI_	1	0	0	96	144	2
XST	1	0	7
SI_	1	0	7	96	144	5
THO	2	0	0	2688	C	1	L1
XHO	10	0	6	192
HLD	10	192	7	192
HLD	11	0	0	192
TAP	11	192	1
HLD	12	0	2	192
HLD	12	192	3	192
HLD	13	0	4	192
TAP	13	192	5
HLD	14	0	6	96
HLD	14	0	7	96
TAP	14	192	6
TAP	14	192	7
HLD	15	0	0	96
HLD	15	0	1	96
TAP	15	192	0
TAP	15	192	1
HLD	16	0	6	96
HLD	16	0	7	96
TAP	16	192	6
TAP	16	192	7
HLD	17	0	0	96
HLD	17	0	7	96
XTP	17	192	1
XTP	17	192	6
TTP	18	0	2	B	0	L1
TTP	18	0	3	B	0	L1
TTP	18	192	0	B	0	L1
TTP	18	192	1	B	0	L1
TTP	19	0	6	B	0	L1
TTP	19	0	7	B	0	L1
TTP	19	192	4	B	0	L1
TTP	19	192	5	B	0	L1
TTP	20	0	2	B	0	L1
TTP	20	0	3	B	0	L1
TTP	20	192	0	B	0	L1
TTP	20	192	1	B	0	L1
TTP	21	0	6	B	0	L1
TTP	21	0	7	B	0	L1
TTP	21	192	4	B	0	L1
TTP	21	192	5	B	0	L1
XTP	22	0	2
XTP	22	0	3
TAP	22	96	4
TAP	22	96	5
TAP	22	192	6
TAP	22	192	7
TAP	22	288	0
TAP	22	288	1
TAP	23	0	7
TAP	23	48	7
TAP	23	96	7
TAP	23	192	0
TAP	23	240	0
TAP	23	288	0
XTP	24	0	0
XTP	24	0	7
XTP	24	96	1
XTP	24	96	6
XTP	24	192	2
XTP	24	192	5
TAP	24	288	3
TAP	24	288	4
HLD	25	0	2	96
HLD	25	0	5	96
TTP	25	192	0	C	1	L1
XTP	26	0	0
TAP	26	96	1
TAP	26	192	0
TAP	26	192	1
TAP	26	288	0
TAP	26	288	1
TTP	27	0	2	E	0	L1
TTP	27	96	0	C	0	L1
TTP	27	192	6	E	0	L1
XTP	28	0	7
TAP	28	96	6
TAP	28	192	6
TAP	28	192	7
TAP	28	288	6
TAP	28	288	7
TTP	29	0	6	E	0	L1
TTP	29	96	0	C	0	L1
TTP	29	192	2	E	0	L1
XTP	30	0	0
TAP	30	96	1
TAP	30	192	0
TAP	30	192	1
TAP	30	288	0
TAP	30	288	1
TTP	31	0	2	E	0	L1
TTP	31	96	0	C	0	L1
TTP	31	192	6	E	0	L1
XTP	32	0	7
TAP	32	96	6
TAP	32	192	6
TAP	32	192	7
TAP	32	288	6
TAP	32	288	7
THO	33	0	0	192	C	1	L1
XHO	34	0	0	192
XHO	34	0	1	192
TAP	35	0	6
TAP	35	96	6
TAP	35	96	7
HLD	35	192	0	96
HLD	35	192	5	96
TAP	36	0	4
TAP	36	96	4
TAP	36	96	5
HLD	36	192	3	96
HLD	36	192	6	96
TAP	37	0	2
TAP	37	96	2
TAP	37	96	3
HLD	37	192	1	96
HLD	37	192	4	96
TAP	38	0	5
TAP	38	96	4
TAP	38	96	5
TAP	38	192	2
TAP	38	288	2
TAP	38	288	3
TAP	39	0	1
TAP	39	96	0
TAP	39	96	1
TAP	39	192	0
TAP	39	192	7
HLD	39	288	1	192
HLD	39	288	6	192
TAP	40	192	0
TAP	40	192	7
TAP	40	288	0
STR	40	288	7
SSR	40	288	7	96	288	3
XHO	42	0	2	192
HLD	42	192	3	192
HLD	43	0	4	192
TAP	43	192	5
HLD	44	0	6	192
HLD	44	192	7	192
HLD	45	0	0	192
TAP	45	192	1
STR	46	0	2
SV_	46	0	2	96	192	0
STR	47	0	6
SV_	47	0	6	96	192	7
XTP	48	0	0
XTP	48	96	1
XTP	48	96	6
XTP	48	192	2
XTP	48	192	5
TAP	48	288	3
TAP	48	288	4
HLD	49	0	2	96
HLD	49	0	5	96
TTP	49	192	0	C	1	L1
XST	50	0	1
SI_	50	0	1	96	192	4
STR	51	0	5
SI_	51	0	5	96	192	0
STR	52	0	1
SI_	52	0	1	96	192	4
TAP	53	0	5
TAP	53	96	5
TAP	53	192	4
TAP	53	192	5
TAP	54	0	6
TAP	54	96	7
TAP	54	192	0
TAP	54	288	1
TAP	55	0	2
TAP	55	96	3
TAP	55	192	4
TAP	55	288	5
TAP	56	0	6
TAP	56	48	6
TAP	56	96	6
TAP	56	192	0
TAP	56	240	0
TAP	56	288	0
TTP	57	0	0	C	1	L1
TTP	57	0	1	B	0	L1
TTP	57	0	6	B	0	L1
BRK	58	0	6
TAP	58	96	6
TAP	58	96	7
TAP	58	192	1
TAP	58	288	0
TAP	58	288	1
TAP	59	0	2
TAP	59	96	2
TAP	59	96	3
HLD	59	192	1	96
HLD	59	192	4	96
BRK	60	0	5
TAP	60	96	4
TAP	60	96	5
TAP	60	192	2
TAP	60	288	2
TAP	60	288	3
TAP	61	0	1
TAP	61	96	0
TAP	61	96	7
HLD	61	192	1	96
HLD	61	192	6	96
BRK	62	0	2
TAP	62	96	2
TAP	62	96	3
TAP	62	192	5
TAP	62	288	4
TAP	62	288	5
TAP	63	0	6
TAP	63	96	6
TAP	63	96	7
HLD	63	192	0	96
HLD	63	192	5	96
BRK	64	0	1
TAP	64	96	0
TAP	64	96	1
TAP	64	192	6
TAP	64	288	6
TAP	64	288	7
XST	65	0	0
SV_	65	0	0	96	192	3
XST	65	0	7
SV_	65	0	7	96	192	4
BRK	66	0	2
TAP	66	96	2
TAP	66	96	3
TAP	66	192	1
TAP	66	288	0
TAP	66	288	1
TAP	67	0	6
TAP	67	48	6
TAP	67	96	7
HLD	67	192	0	96
HLD	67	192	5	96
BRK	68	0	1
TAP	68	96	0
TAP	68	96	1
TAP	68	192	2
TAP	68	288	2
TAP	68	288	3
TAP	69	0	4
TAP	69	48	4
TAP	69	96	3
HLD	69	192	2	96
HLD	69	192	5	96
BRK	70	0	6
TAP	70	96	6
TAP	70	96	7
TAP	70	192	5
TAP	70	288	4
TAP	70	288	5
TAP	71	0	2
TAP	71	48	2
TAP	71	96	3
HLD	71	192	1	96
HLD	71	192	4	96
TAP	72	0	0
TAP	72	48	0
TAP	72	96	0
TAP	72	192	7
TAP	72	240	7
STR	72	288	7
SSR	72	288	7	96	288	3
TTP	74	0	0	C	1	L1
TTP	74	0	1	B	0	L1
TTP	74	0	6	B	0	L1

T_REC_TAP	145
T_REC_BRK	7
T_REC_XTP	19
T_REC_HLD	42
T_REC_XHO	4
T_REC_STR	6
T_REC_BST	0
T_REC_XST	5
T_REC_TTP	33
T_REC_THO	2
T_REC_SLD	11
T_REC_ALL	274
T_NUM_TAP	208
T_NUM_BRK	7
T_NUM_HLD	48
T_NUM_SLD	11
T_NUM_ALL	274
T_JUDGE_TAP	215
T_JUDGE_HLD	184
T_JUDGE_SLD	11
T_JUDGE_ALL	410
TTM_EACHPAIRS	69
TTM_SCR_TAP	104000
TTM_SCR_BRK	18200
TTM_SCR_HLD	48000
TTM_SCR_SLD	16500
TTM_SCR_ALL	186700
TTM_SCR_S	180450
TTM_SCR_SS	186000
TTM_RAT_ACV	10037

