VERSION	0.00.00	1.03.00
FES_MODE	0
BPM_DEF	200.000	200.000	200.000	200.000
MET_DEF	4	4
RESOLUTION	384
CLK_DEF	384
COMPATIBLE_CODE	MA2

BPM	0	0	200.000
MET	0	0	4	4

BRK	3	0	0
XTP	3	0	7
XTP	3	96	3
BRK	3	96	4
TTP	3	192	0	B	0	M1
TTP	3	208	7	B	0	M1
TTP	3	224	6	B	0	M1
TTP	3	240	5	B	0	M1
TTP	3	256	4	B	0	M1
TTP	3	272	3	B	0	M1
TTP	3	288	2	B	0	M1
BST	4	0	1
SCR	4	0	1	96	768	0
TTP	4	192	0	B	0	M1
TTP	5	192	1	B	0	M1
STR	6	0	0
SCR	6	0	0	96	768	7
TTP	6	192	2	B	0	M1
TTP	7	192	3	B	0	M1
STR	8	0	7
SCR	8	0	7	96	768	6
TTP	8	192	4	B	0	M1
TTP	9	192	5	B	0	M1
STR	10	0	6
SCR	10	0	6	96	480	2
TTP	10	192	6	B	0	M1
TTP	11	192	7	B	0	M1
TAP	12	0	1
TAP	12	0	5
TAP	12	96	3
STR	12	96	7
SI_	12	96	7	96	48	3
TAP	12	144	3
TAP	12	144	7
STR	12	192	3
SCL	12	192	3	96	48	0
SCR	12	192	3	96	48	6
TAP	12	192	7
TAP	13	96	7
TAP	13	192	0
TAP	13	288	1
TAP	14	0	2
TAP	14	0	6
STR	14	96	0
SI_	14	96	0	96	48	4
TAP	14	96	4
TAP	14	144	0
TAP	14	144	4
TAP	14	192	0
STR	14	192	4
SCL	14	192	4	96	48	1
SCR	14	192	4	96	48	7
TAP	15	96	0
TAP	15	192	7
TAP	15	288	6
TAP	16	0	0
TAP	16	0	5
TAP	16	96	2
STR	16	96	6
SI_	16	96	6	96	48	2
TAP	16	144	2
TAP	16	144	6
STR	16	192	2
SCL	16	192	2	96	48	7
SCR	16	192	2	96	48	5
TAP	16	192	6
TAP	17	96	6
TAP	17	192	0
TAP	17	192	7
TAP	17	288	1
TAP	18	0	2
TAP	18	0	7
STR	18	96	1
SI_	18	96	1	96	48	5
TAP	18	96	5
TAP	18	144	1
TAP	18	144	5
TAP	18	192	1
STR	18	192	5
SCL	18	192	5	96	48	2
SCR	18	192	5	96	48	0
TTP	19	0	0	B	0	M1
TTP	19	0	0	C	1	M1
TTP	19	0	1	B	0	M1
TTP	19	0	1	E	0	M1
TTP	19	0	2	B	0	M1
TTP	19	0	7	B	0	M1
TAP	20	0	3
TAP	20	0	4
TAP	20	48	5
TAP	20	96	6
HLD	20	96	7	96
TAP	20	192	0
TAP	20	288	1
TAP	20	336	1
TAP	21	0	0
TAP	21	96	0
TTP	21	96	2	B	0	M1
TTP	21	96	3	E	0	M1
TTP	21	192	0	C	0	M1
TTP	21	192	3	B	0	M1
TAP	21	192	7
TTP	21	288	4	B	0	M1
TTP	21	288	5	B	0	M1
TAP	21	288	6
TAP	22	0	6
TAP	22	48	7
TAP	22	96	0
HLD	22	96	1	96
TAP	22	192	2
TAP	22	288	3
TAP	22	336	3
TAP	23	0	2
TTP	23	96	2	B	0	M1
TTP	23	96	3	B	0	M1
TAP	23	96	6
TAP	23	192	1
TTP	23	192	4	B	0	M1
TTP	23	192	5	B	0	M1
TTP	23	288	1	E	0	M1
TTP	23	312	7	E	0	M1
TTP	23	336	3	E	0	M1
TTP	23	360	5	E	0	M1
TTP	24	0	0	C	0	M1
HLD	24	96	0	96
TAP	24	96	1
TAP	24	192	7
TAP	24	288	6
TAP	24	336	6
TAP	25	0	7
TTP	25	96	5	B	0	M1
TTP	25	96	5	E	0	M1
TAP	25	96	7
TAP	25	192	0
TTP	25	192	0	C	0	M1
TTP	25	192	4	B	0	M1
TAP	25	288	1
TTP	25	288	2	B	0	M1
TTP	25	288	3	B	0	M1
TAP	26	0	1
TAP	26	48	0
HLD	26	96	6	96
TAP	26	96	7
TAP	26	192	5
TAP	26	288	4
TAP	26	336	4
TAP	27	0	5
TAP	27	96	1
TTP	27	96	4	B	0	M1
TTP	27	96	5	B	0	M1
TTP	27	192	2	B	0	M1
TTP	27	192	3	B	0	M1
TAP	27	192	6
BRK	27	288	7
BRK	27	312	0
BRK	27	336	7
BRK	27	360	0
BRK	28	0	7
TAP	28	96	2
TAP	28	144	0
TAP	28	144	1
TAP	28	192	7
TAP	28	240	0
TAP	28	240	1
TAP	28	288	2
TAP	28	336	3
TAP	28	336	4
TAP	29	0	5
TAP	29	48	6
TAP	29	48	7
TAP	29	96	0
TAP	29	144	6
TAP	29	144	7
HLD	29	192	5	96
BRK	29	288	7
TAP	30	0	3
TAP	30	0	4
TAP	30	96	5
TAP	30	144	6
TAP	30	144	7
TAP	30	192	0
TAP	30	240	6
TAP	30	240	7
TAP	30	288	5
TAP	30	336	3
TAP	30	336	4
TAP	31	0	2
TAP	31	48	0
TAP	31	48	1
TAP	31	96	7
TAP	31	144	0
TAP	31	144	1
HLD	31	192	2	96
BRK	31	288	0
TAP	32	0	0
TAP	32	0	1
TAP	32	48	0
TAP	32	48	1
TAP	32	96	2
TAP	32	96	3
TAP	32	144	2
TAP	32	144	3
TAP	32	192	4
TAP	32	192	5
TAP	32	240	4
TAP	32	240	5
TAP	32	288	6
TAP	32	288	7
TAP	32	336	6
TAP	32	336	7
TAP	33	0	0
TAP	33	24	4
TAP	33	48	2
TAP	33	72	5
TAP	33	96	3
TAP	33	120	7
TAP	33	144	1
TAP	33	168	6
TAP	33	192	0
TAP	33	216	5
TAP	33	240	2
TAP	33	264	7
TAP	33	288	1
TAP	33	312	6
TAP	33	336	3
TAP	33	360	4
TTP	34	0	0	C	0	M1
STR	35	0	3
SSR	35	0	3	96	96	7
HLD	35	0	4	192
BRK	35	288	1
BRK	35	288	5
STR	36	0	7
SI_	36	0	7	96	48	4
STR	36	96	3
SI_	36	96	3	96	48	0
STR	36	192	6
SI_	36	192	6	96	48	1
STR	36	288	2
SI_	36	288	2	96	48	5
STR	37	0	7
SI_	37	0	7	96	48	3
STR	37	96	1
SI_	37	96	1	96	48	5
STR	37	192	6
SI_	37	192	6	96	48	2
TAP	37	288	0
TAP	37	336	0
STR	38	0	0
SI_	38	0	0	96	48	3
STR	38	96	4
SI_	38	96	4	96	48	7
STR	38	192	1
SI_	38	192	1	96	48	6
STR	38	288	5
SI_	38	288	5	96	48	2
TAP	39	0	0
TAP	39	96	1
TAP	39	96	3
TAP	39	144	1
TAP	39	144	3
TAP	39	240	5
TAP	39	240	7
BRK	39	288	5
BRK	39	288	7
STR	40	0	6
SI_	40	0	6	96	48	4
STR	40	96	7
SI_	40	96	7	96	48	3
STR	40	192	0
SI_	40	192	0	96	48	4
STR	40	288	1
SI_	40	288	1	96	48	3
TAP	41	0	6
TAP	41	96	5
TAP	41	96	7
TAP	41	144	4
TAP	41	144	6
TAP	41	240	1
TAP	41	240	3
STR	41	288	0
SI_	41	288	0	96	36	4
TAP	41	288	2
BRK	42	0	0
BRK	42	0	7
TTP	42	18	0	C	1	M1
HLD	42	144	5	24
HLD	42	240	2	24
TAP	42	336	3
TAP	42	336	4
STR	43	0	3
SSL	43	0	3	96	96	7
STR	43	0	4
SSR	43	0	4	96	96	0
TTP	43	288	0	B	0	M1
TTP	43	288	3	B	0	M1
TTP	43	288	4	B	0	M1
TTP	43	288	5	B	0	M1
TTP	43	288	6	B	0	M1
TTP	43	288	7	B	0	M1
STR	44	0	2
SI_	44	0	2	96	48	5
STR	44	96	1
SI_	44	96	1	96	48	6
STR	44	192	0
SI_	44	192	0	96	48	3
STR	44	288	7
SI_	44	288	7	96	48	4
STR	45	0	6
SI_	45	0	6	96	48	1
STR	45	96	5
SI_	45	96	5	96	48	2
TAP	45	192	0
TAP	45	240	0
TAP	45	288	0
TAP	45	312	7
TAP	45	336	0
TAP	45	360	7
STR	46	0	0
SI_	46	0	0	96	48	4
STR	46	96	2
SI_	46	96	2	96	48	6
STR	46	192	5
SI_	46	192	5	96	48	1
STR	46	288	7
SI_	46	288	7	96	48	3
TAP	47	0	0
TAP	47	96	4
TAP	47	96	6
TAP	47	144	4
TAP	47	144	6
TAP	47	240	0
TAP	47	240	2
BRK	47	288	0
BRK	47	288	2
STR	48	0	1
SI_	48	0	1	96	48	3
STR	48	96	0
SI_	48	96	0	96	48	4
STR	48	192	7
SI_	48	192	7	96	48	3
STR	48	288	6
SI_	48	288	6	96	48	4
TAP	49	0	1
TAP	49	96	0
TAP	49	96	7
TAP	49	144	2
TAP	49	144	5
TAP	49	240	1
TAP	49	240	6
TAP	49	288	4
TAP	49	312	3
TAP	49	336	4
TTP	50	0	2	B	0	M1
TTP	50	0	2	E	0	M1
TTP	50	0	3	B	0	M1
TTP	50	96	4	B	0	M1
TTP	50	96	5	B	0	M1
TTP	50	96	6	E	0	M1
TAP	50	192	0
TAP	50	192	7
TAP	50	240	0
TAP	50	240	7
TAP	50	288	1
TAP	50	288	6
TAP	50	312	2
TAP	50	312	5
TAP	50	336	3
TAP	50	336	4
THO	51	0	0	288	C	1	M1
TTP	51	0	1	B	0	M1
TTP	51	0	2	B	0	M1
TTP	51	0	5	B	0	M1
TTP	51	0	6	B	0	M1
TTP	51	288	0	B	0	M1
TTP	51	288	3	B	0	M1
TTP	51	288	4	B	0	M1
TTP	51	288	5	B	0	M1
TTP	51	288	6	B	0	M1
TTP	51	288	7	B	0	M1
TAP	52	192	1
TAP	52	192	2
TAP	53	0	0
TAP	53	0	7
TAP	53	192	5
TAP	53	192	6
TAP	54	0	3
TAP	54	64	3
TAP	54	96	4
TAP	54	160	4
TAP	54	192	2
TAP	54	224	3
TAP	54	256	1
TAP	54	288	5
TAP	54	320	4
TAP	54	352	6
HLD	55	0	0	192
STR	55	192	1
SI_	55	192	1	96	36	6
TAP	56	0	4
TAP	56	0	5
TAP	56	96	5
TAP	56	192	5
TAP	56	288	5
TAP	56	320	0
TAP	56	352	0
STR	57	0	0
SSL	57	0	0	96	96	4
TAP	57	0	5
TAP	57	96	5
TAP	57	192	5
XTP	57	288	5
XTP	57	320	4
XTP	57	352	3
XTP	58	0	2
TAP	58	96	2
TAP	58	192	2
TAP	58	288	2
TAP	58	320	1
TAP	58	352	1
HLD	59	0	1	64
HLD	59	0	2	64
HLD	59	96	3	64
HLD	59	96	4	64
HLD	59	192	5	64
HLD	59	192	6	64
TTP	59	288	0	C	1	M1
TAP	60	0	2
TAP	60	0	3
TAP	60	96	2
TAP	60	192	2
TAP	60	288	2
TAP	60	320	7
TAP	60	352	7
TAP	61	0	2
STR	61	0	7
SSR	61	0	7	96	96	3
TAP	61	96	2
TAP	61	192	2
XTP	61	240	2
XTP	61	256	3
XTP	61	272	4
XTP	61	288	5
XTP	61	320	3
XTP	61	352	4
XHO	62	0	3	96
TAP	62	48	7
XHO	62	96	5	96
TAP	62	144	0
XHO	62	192	2	96
TAP	62	240	7
XHO	62	288	4	96
TAP	62	336	0
TTP	63	0	0	C	0	M1
TAP	63	288	4
TAP	63	312	3
TAP	63	336	4
TAP	63	360	3
TTP	64	0	0	C	1	M1
TTP	64	0	2	B	0	M1
TAP	64	96	6
TAP	64	120	7
TAP	64	144	6
TAP	64	168	7
TTP	64	192	0	C	1	M1
TTP	64	192	3	B	0	M1
TAP	64	288	7
TAP	64	312	0
TAP	64	336	7
TAP	64	360	0
TTP	65	0	0	C	1	M1
TTP	65	0	4	B	0	M1
TAP	65	96	0
TAP	65	120	1
TAP	65	144	0
TAP	65	168	1
XTP	65	192	7
TAP	65	240	2
TAP	65	264	3
TAP	65	312	1
TAP	65	336	0
TTP	66	0	0	C	1	M1
TTP	66	0	5	B	0	M1
TAP	66	96	1
TAP	66	120	0
TAP	66	144	1
TAP	66	168	0
TTP	66	192	0	C	1	M1
TTP	66	192	4	B	0	M1
TAP	66	288	0
TAP	66	312	7
TAP	66	336	0
TAP	66	360	7
TTP	67	0	0	C	1	M1
TTP	67	0	3	B	0	M1
TAP	67	96	7
TAP	67	120	6
TAP	67	144	7
TAP	67	168	6
XTP	67	192	0
TAP	67	240	5
TAP	67	264	4
TAP	67	312	6
TAP	67	336	7
TTP	68	0	0	C	1	M1
TTP	68	0	2	B	0	M1
TAP	68	96	6
TAP	68	120	7
TAP	68	144	6
TAP	68	168	7
TTP	68	192	0	C	1	M1
TTP	68	192	3	B	0	M1
TAP	68	288	7
TAP	68	312	0
TAP	68	336	7
TAP	68	360	0
TTP	69	0	0	C	1	M1
TTP	69	0	4	B	0	M1
TAP	69	96	0
TAP	69	120	1
TAP	69	144	0
TAP	69	168	1
XTP	69	192	7
TAP	69	240	2
TAP	69	264	3
TAP	69	312	1
TAP	69	336	0
STR	70	0	3
SCL	70	0	3	96	144	4
TAP	70	48	4
TAP	70	96	4
TAP	70	144	4
TAP	70	192	3
TAP	70	240	3
XTP	70	288	3
TAP	70	300	2
TAP	70	312	1
TAP	70	324	0
TAP	70	336	7
TAP	70	348	6
TAP	70	360	5
TAP	70	372	4
TAP	71	0	3
STR	71	288	2
SCR	71	288	2	96	576	1
HLD	72	0	3	960
THO	74	0	0	576	C	0	M1
HLD	75	0	7	1344
STR	76	0	6
SCR	76	0	6	96	480	5
THO	78	0	0	576	C	0	M1
HLD	79	0	5	384
BRK	80	0	1
XST	80	96	2
SI_	80	96	2	96	48	5
XST	80	96	6
SI_	80	96	6	96	48	3
XTP	80	144	2
XTP	80	144	6
XST	80	192	2
SCL	80	192	2	96	144	5
XST	80	192	6
SCR	80	192	6	96	144	3
TAP	81	192	3
TAP	81	192	5
TAP	81	288	4
BRK	82	0	2
BRK	82	0	6
XST	82	96	1
SI_	82	96	1	96	48	4
XST	82	96	5
SI_	82	96	5	96	48	2
XTP	82	144	1
XTP	82	144	5
XST	82	192	1
SCL	82	192	1	96	144	4
XST	82	192	5
SCR	82	192	5	96	144	2
TAP	83	192	2
TAP	83	192	4
TAP	83	288	3
BRK	84	0	1
BRK	84	0	5
XST	84	96	2
SI_	84	96	2	96	48	7
XST	84	96	6
SI_	84	96	6	96	48	1
XTP	84	144	2
XTP	84	144	6
XST	84	192	2
SCR	84	192	2	96	144	7
XST	84	192	6
SCL	84	192	6	96	144	1
TAP	85	192	1
TAP	85	192	7
TAP	85	288	0
BRK	86	0	2
BRK	86	0	6
XST	86	96	1
SI_	86	96	1	96	48	6
XST	86	96	5
SI_	86	96	5	96	48	0
XTP	86	144	1
XTP	86	144	5
XST	86	192	1
SCR	86	192	1	96	144	6
XST	86	192	5
SCL	86	192	5	96	144	0
TAP	87	192	7
TAP	87	240	7
TAP	87	288	3
TAP	87	312	4
TAP	87	336	3
TAP	87	360	4
XTP	88	0	2
XTP	88	0	5
STR	88	96	0
SCL	88	96	0	96	96	3
TAP	88	96	1
TAP	88	144	2
BST	88	192	3
SCR	88	192	3	96	96	0
BRK	88	288	0
TAP	89	0	1
TAP	89	48	1
TAP	89	144	2
TAP	89	144	3
TAP	89	240	3
TAP	89	288	4
TAP	89	336	5
TAP	90	0	6
TAP	90	0	7
STR	90	96	0
SCL	90	96	0	96	96	3
TAP	90	96	1
TAP	90	144	2
BST	90	192	3
SCR	90	192	3	96	96	0
BRK	90	288	0
TAP	91	0	1
TAP	91	48	1
TAP	91	144	2
TAP	91	144	3
TAP	91	240	3
TAP	91	288	4
TAP	91	336	5
TAP	92	0	6
TAP	92	0	7
TAP	92	48	6
TAP	92	48	7
TAP	92	96	4
TAP	92	96	5
TAP	92	144	4
TAP	92	144	5
TAP	92	192	2
TAP	92	192	3
TAP	92	240	2
TAP	92	240	3
TAP	92	288	0
TAP	92	288	1
TAP	92	336	0
TAP	92	336	1
TAP	93	0	7
TAP	93	24	3
TAP	93	48	5
TAP	93	72	2
TAP	93	96	4
TAP	93	120	0
TAP	93	144	6
TAP	93	168	1
TAP	93	192	7
TAP	93	216	2
TAP	93	240	5
TAP	93	264	0
TAP	93	288	6
TAP	93	312	1
TAP	93	336	4
TAP	93	360	3
TTP	94	0	0	C	0	M1
HLD	95	0	3	192
STR	95	0	4
SSL	95	0	4	96	96	0
BRK	95	288	2
BST	95	288	6
SI_	95	288	6	96	36	4
XTP	96	0	6
XST	96	0	7
SI_	96	0	7	96	36	3
XTP	96	96	0
XTP	96	96	7
TAP	96	192	0
TAP	96	192	1
TAP	96	240	2
TAP	96	264	3
TAP	96	288	2
TAP	96	336	1
TAP	96	336	4
TAP	97	0	5
TAP	97	48	6
STR	97	48	7
SCL	97	48	7	96	48	4
XTP	97	144	0
XTP	97	144	7
TAP	97	240	1
STR	97	288	1
SI_	97	288	1	96	36	3
XST	98	0	0
SI_	98	0	0	96	36	4
XTP	98	0	1
XTP	98	96	0
XTP	98	96	7
TAP	98	192	6
TAP	98	192	7
TAP	98	240	5
TAP	98	264	4
TAP	98	288	5
TAP	98	336	3
TAP	98	336	6
TAP	99	0	2
TAP	99	48	0
STR	99	48	1
SI_	99	48	1	96	36	5
XTP	99	144	1
XTP	99	144	6
TAP	99	240	7
TAP	99	264	7
BRK	99	288	0
BST	99	288	6
SI_	99	288	6	96	36	4
XTP	100	0	6
XST	100	0	7
SI_	100	0	7	96	36	3
XTP	100	96	0
XTP	100	96	7
TAP	100	192	0
TAP	100	192	1
TAP	100	240	2
TAP	100	264	3
TAP	100	288	2
TAP	100	336	1
TAP	100	336	4
TAP	101	0	5
TAP	101	48	6
STR	101	48	7
SCL	101	48	7	96	48	4
XTP	101	144	0
XTP	101	144	7
TAP	101	240	1
TAP	101	288	2
TAP	101	312	3
TAP	101	336	2
TAP	101	360	3
STR	102	0	2
SI_	102	0	2	96	36	5
HLD	102	192	6	48
HLD	102	240	7	48
HLD	102	288	0	48
HLD	102	336	1	48
STR	103	0	2
SXL	103	0	2	96	96	5
BST	103	288	0
SI_	103	288	0	96	36	6
BRK	103	288	7
XTP	104	0	0
XST	104	0	1
SI_	104	0	1	96	36	5
XTP	104	96	1
XTP	104	96	2
TAP	104	192	2
TAP	104	192	3
TAP	104	240	1
TAP	104	264	3
TAP	104	288	2
TAP	104	336	6
TAP	104	360	4
TAP	105	0	5
XTP	105	48	3
XST	105	48	4
SCL	105	48	4	96	48	1
XTP	105	144	4
XTP	105	144	6
TAP	105	240	7
STR	105	288	7
SI_	105	288	7	96	36	1
XST	106	0	6
SI_	106	0	6	96	36	2
XTP	106	0	7
XTP	106	96	5
XTP	106	96	6
TAP	106	192	4
TAP	106	192	5
TAP	106	240	6
TAP	106	264	4
TAP	106	288	5
TAP	106	336	1
TAP	106	360	3
TAP	107	0	2
XST	107	48	3
SI_	107	48	3	96	36	7
XTP	107	48	4
XTP	107	144	2
XTP	107	144	3
TAP	107	240	1
TAP	107	264	1
BST	107	288	0
SI_	107	288	0	96	36	6
BRK	107	288	2
XTP	108	0	0
XST	108	0	1
SI_	108	0	1	96	36	5
XTP	108	96	1
XTP	108	96	2
TAP	108	192	2
TAP	108	192	3
TAP	108	240	1
TAP	108	264	3
TAP	108	288	2
TAP	108	336	6
TAP	108	360	4
HLD	109	0	5	48
HLD	109	48	6	48
HLD	109	96	4	48
HLD	109	144	7	48
HLD	109	192	3	48
HLD	109	240	0	48
HLD	109	288	2	48
HLD	109	336	1	48
TAP	110	0	3
TAP	110	48	0
TAP	110	48	4
TAP	110	96	1
TAP	110	96	5
TAP	110	144	2
TAP	110	144	6
TAP	110	192	7
TAP	110	216	3
TAP	110	240	7
TAP	110	264	3
STR	110	288	5
SCR	110	288	5	96	192	4
TAP	110	312	1
TAP	110	336	5
TAP	110	360	1
BRK	111	0	5
STR	111	192	7
SF_	111	192	7	96	36	3
STR	112	0	1
SI_	112	0	1	96	48	4
XTP	112	96	1
STR	112	96	5
SI_	112	96	5	96	48	0
STR	112	192	2
SI_	112	192	2	96	48	7
XTP	112	192	5
XTP	112	288	2
STR	112	288	6
SI_	112	288	6	96	48	3
STR	113	0	0
SI_	113	0	0	96	48	4
XTP	113	0	6
XTP	113	96	0
STR	113	96	6
SI_	113	96	6	96	48	2
STR	113	192	1
SI_	113	192	1	96	48	5
XTP	113	192	6
XTP	113	288	1
BRK	113	288	7
BRK	113	336	7
BST	114	0	7
SI_	114	0	7	96	48	4
STR	114	96	3
SI_	114	96	3	96	48	0
XTP	114	96	7
XTP	114	192	3
STR	114	192	6
SI_	114	192	6	96	48	1
STR	114	288	2
SI_	114	288	2	96	48	5
XTP	114	288	6
XTP	115	0	2
XTP	115	0	7
TAP	115	96	4
TAP	115	96	6
TAP	115	144	1
TAP	115	144	3
TAP	115	240	5
TAP	115	240	7
BRK	115	288	0
BRK	115	288	2
STR	116	0	1
SI_	116	0	1	96	48	3
STR	116	96	0
SI_	116	96	0	96	48	4
XTP	116	96	1
XTP	116	192	0
STR	116	192	7
SI_	116	192	7	96	48	3
STR	116	288	6
SI_	116	288	6	96	48	4
XTP	116	288	7
XTP	117	0	1
XTP	117	0	6
XTP	117	96	0
XTP	117	96	7
XTP	117	144	2
XTP	117	144	5
XTP	117	240	1
XTP	117	240	6
XTP	117	288	3
XTP	117	312	4
XTP	117	336	3
BRK	118	0	4
BRK	118	0	5
BRK	118	48	6
BRK	118	96	0
BRK	118	96	7
BRK	118	144	1
BRK	118	192	2
BRK	118	192	3
BRK	118	240	4
BRK	118	240	5
TAP	118	288	6
TAP	118	312	7
TAP	118	336	6
TTP	119	0	0	E	0	M1
TTP	119	0	6	E	0	M1
TTP	119	12	0	B	0	M1
TTP	119	12	5	B	0	M1
TTP	119	24	1	B	0	M1
TTP	119	24	4	B	0	M1
TTP	119	36	2	E	0	M1
TTP	119	36	4	E	0	M1
STR	119	192	3
SF_	119	192	3	96	36	7
TTP	119	306	0	C	1	M1
TTP	119	306	1	B	0	M1
TTP	119	306	5	B	0	M1

T_REC_TAP	448
T_REC_BRK	45
T_REC_XTP	82
T_REC_HLD	32
T_REC_XHO	4
T_REC_STR	77
T_REC_BST	8
T_REC_XST	24
T_REC_TTP	102
T_REC_THO	3
T_REC_SLD	113
T_REC_ALL	938
T_NUM_TAP	733
T_NUM_BRK	53
T_NUM_HLD	39
T_NUM_SLD	113
T_NUM_ALL	938
T_JUDGE_TAP	786
T_JUDGE_HLD	144
T_JUDGE_SLD	113
T_JUDGE_ALL	1043
TTM_EACHPAIRS	175
TTM_SCR_TAP	366500
TTM_SCR_BRK	137800
TTM_SCR_HLD	39000
TTM_SCR_SLD	169500
TTM_SCR_ALL	712800
TTM_SCR_S	686300
TTM_SCR_SS	707500
TTM_RAT_ACV	10074

