VERSION	0.00.00	1.03.00
FES_MODE	0
BPM_DEF	200.000	200.000	200.000	200.000
MET_DEF	4	4
RESOLUTION	384
CLK_DEF	384
COMPATIBLE_CODE	MA2

BPM	0	0	200.000
MET	0	0	4	4

BRK	3	0	0
TAP	4	0	4
HLD	4	96	4	576
TAP	5	0	2
HLD	5	192	3	384
TAP	6	0	5
HLD	6	96	5	576
TAP	7	0	1
HLD	7	192	2	384
TAP	8	0	6
HLD	8	96	6	576
TAP	9	0	0
HLD	9	192	1	384
TAP	10	0	7
HLD	10	96	7	672
TAP	11	0	0
STR	11	96	0
SI_	11	96	0	96	96	3
TAP	12	0	3
HLD	12	96	3	576
TAP	13	0	5
HLD	13	192	4	384
TAP	14	0	2
HLD	14	96	2	576
TAP	15	0	6
HLD	15	192	5	384
TAP	16	0	1
HLD	16	96	1	576
TAP	17	0	7
HLD	17	192	6	384
TAP	18	0	0
HLD	18	96	0	288
TTP	19	0	0	C	1	M1
TTP	20	0	4	E	0	M1
TTP	20	96	3	E	0	M1
TTP	20	192	2	E	0	M1
TTP	20	288	1	E	0	M1
TTP	21	0	0	E	0	M1
TTP	21	96	7	E	0	M1
TTP	21	192	6	E	0	M1
TTP	21	288	5	E	0	M1
TTP	22	0	4	E	0	M1
TTP	22	96	3	E	0	M1
TTP	22	192	2	E	0	M1
TTP	22	288	1	E	0	M1
TTP	23	0	0	E	0	M1
TTP	23	96	7	E	0	M1
TTP	23	192	6	E	0	M1
TTP	23	288	5	E	0	M1
TTP	24	0	0	C	0	M1
TTP	24	0	4	E	0	M1
TTP	24	96	3	E	0	M1
TTP	24	192	2	E	0	M1
TTP	24	288	1	E	0	M1
TTP	25	0	0	C	0	M1
TTP	25	0	0	E	0	M1
TTP	25	96	7	E	0	M1
TTP	25	192	6	E	0	M1
TTP	25	288	5	E	0	M1
TTP	26	0	0	C	0	M1
TTP	26	0	4	E	0	M1
TTP	26	96	3	E	0	M1
TTP	26	192	2	E	0	M1
TTP	26	288	1	E	0	M1
TTP	27	0	0	C	0	M1
TTP	27	0	0	E	0	M1
TTP	27	96	7	E	0	M1
TTP	27	192	6	E	0	M1
TAP	27	288	3
TAP	27	312	4
TAP	27	336	3
TAP	27	360	4
TAP	28	0	3
TAP	28	96	3
TAP	28	96	4
TAP	28	192	3
TAP	28	192	4
TAP	28	288	3
TAP	28	288	4
TAP	29	0	3
TAP	29	0	5
TAP	29	96	3
TAP	29	96	5
TAP	29	192	3
TAP	29	192	6
TAP	29	288	2
TAP	29	288	7
TAP	29	336	2
TAP	29	336	7
TAP	30	0	2
TAP	30	0	7
TAP	30	96	3
TAP	30	96	4
TAP	30	192	3
TAP	30	192	4
TAP	30	288	3
TAP	30	288	4
TAP	31	0	2
TAP	31	0	4
TAP	31	96	2
TAP	31	96	4
TAP	31	192	1
TAP	31	192	4
TAP	31	288	1
TAP	31	288	4
TAP	32	0	0
TAP	32	0	5
TAP	32	48	0
TAP	32	48	5
TAP	32	96	0
TAP	32	96	5
TAP	32	192	1
TAP	32	192	6
TAP	32	240	1
TAP	32	240	6
TAP	32	288	1
TAP	32	288	6
TAP	33	0	2
TAP	33	0	7
TAP	33	48	2
TAP	33	48	7
TAP	33	96	2
TAP	33	96	7
TAP	33	192	0
TAP	33	192	3
TAP	33	240	0
TAP	33	240	3
TAP	33	288	0
STR	33	288	3
SCL	33	288	3	96	288	4
TTP	35	0	4	E	0	M1
TTP	35	96	2	E	0	M1
TTP	35	96	6	E	0	M1
TTP	35	192	0	E	0	M1
BRK	35	288	1
BRK	35	288	6
TAP	36	0	3
TAP	36	0	5
TAP	36	96	3
TAP	36	96	5
TAP	36	192	3
TAP	36	192	5
TAP	36	288	3
TAP	36	288	5
TAP	37	0	3
TAP	37	0	5
TAP	37	96	3
TAP	37	96	5
TAP	37	192	3
TAP	37	192	5
TAP	37	288	3
TAP	37	288	5
TAP	37	336	2
TAP	38	0	2
TAP	38	0	4
TAP	38	96	2
TAP	38	96	4
TAP	38	192	2
TAP	38	192	4
TAP	38	288	2
TAP	38	288	4
TAP	39	0	2
TAP	39	0	4
TAP	39	96	2
TAP	39	96	4
TAP	39	144	3
HLD	39	144	5	96
TAP	39	240	3
BRK	39	288	2
BRK	39	288	6
TAP	40	0	2
TAP	40	0	4
TAP	40	96	2
TAP	40	96	4
TAP	40	192	2
TAP	40	192	4
TAP	40	288	2
TAP	40	288	4
TAP	41	0	2
TAP	41	0	4
TAP	41	96	1
TAP	41	96	5
TAP	41	144	1
TAP	41	144	5
TAP	41	240	2
TAP	41	240	6
TAP	41	288	2
HLD	41	288	6	96
THO	42	0	0	384	C	0	M1
XTP	43	192	0
XTP	43	192	7
BRK	43	288	0
BRK	43	288	7
TAP	44	0	4
TAP	44	0	5
TAP	44	96	4
TAP	44	96	5
TAP	44	192	4
TAP	44	192	6
TAP	44	288	3
TAP	44	288	5
TAP	45	0	2
TAP	45	0	6
TAP	45	96	3
TAP	45	96	4
TAP	45	192	4
TAP	45	192	6
TAP	45	240	4
TAP	45	240	6
TAP	45	288	3
TAP	45	288	5
TAP	45	336	3
TAP	45	336	5
TAP	46	0	2
TAP	46	0	4
TAP	46	96	1
TAP	46	96	5
TAP	46	192	3
TAP	46	192	5
TAP	46	288	4
TAP	46	288	6
TAP	47	0	4
TAP	47	0	5
TAP	47	96	3
TAP	47	96	6
TAP	47	144	3
TAP	47	144	6
TAP	47	240	2
TAP	47	240	4
BRK	47	288	1
BRK	47	288	5
TAP	48	0	2
TAP	48	0	3
TAP	48	96	2
TAP	48	96	3
TAP	48	192	1
TAP	48	192	3
TAP	48	288	2
TAP	48	288	4
TAP	49	0	1
TAP	49	0	5
TAP	49	96	3
TAP	49	96	4
TAP	49	144	3
TAP	49	144	4
TAP	49	240	1
TAP	49	240	3
TAP	49	288	1
TAP	49	288	3
TAP	49	336	2
TAP	49	336	4
TAP	50	0	2
TAP	50	0	4
TAP	50	96	1
TAP	50	96	5
TAP	50	192	0
TAP	50	192	6
TAP	50	240	0
TAP	50	240	6
TAP	50	288	0
TAP	50	288	6
HLD	51	0	7	384
BRK	52	0	0
TTP	52	192	3	E	0	M1
TTP	52	192	5	E	0	M1
TTP	53	0	2	E	0	M1
TTP	53	0	6	E	0	M1
TTP	53	192	1	E	0	M1
TTP	53	192	7	E	0	M1
TTP	54	0	0	E	0	M1
TTP	54	96	0	C	0	M1
TTP	54	192	4	E	0	M1
TTP	54	288	2	B	0	M1
TTP	54	288	5	B	0	M1
TTP	55	0	1	E	0	M1
TTP	55	0	7	E	0	M1
BRK	55	288	1
BRK	55	288	6
TAP	56	0	3
TAP	56	0	4
TAP	56	96	3
TAP	56	96	4
STR	56	192	3
SXR	56	192	3	96	384	7
TAP	56	192	4
TAP	56	288	4
TAP	57	0	4
TAP	57	96	4
TAP	57	192	4
TAP	57	288	4
TAP	58	0	0
TAP	58	0	4
TAP	58	96	0
TAP	58	96	4
TAP	58	192	0
TAP	58	192	4
TAP	58	288	3
TAP	58	288	4
TAP	59	0	0
TAP	59	0	4
TAP	59	96	3
TAP	59	96	4
TAP	59	192	3
TAP	59	192	4
BRK	59	288	0
TAP	59	288	4
TAP	60	0	3
TAP	60	0	4
TAP	60	96	3
TAP	60	96	4
TAP	60	192	3
STR	60	192	4
SXL	60	192	4	96	384	0
TAP	60	288	3
TAP	61	0	3
TAP	61	96	3
TAP	61	192	3
TAP	61	288	3
TAP	62	0	3
TAP	62	0	7
TAP	62	96	3
TAP	62	96	7
TAP	62	192	3
TAP	62	192	4
TAP	62	288	3
TAP	62	288	4
TAP	63	0	3
TAP	63	0	7
TAP	63	96	3
TAP	63	96	7
TAP	63	192	1
TAP	63	192	5
TAP	63	288	1
TAP	63	288	5
HLD	64	0	0	96
TAP	64	0	3
TAP	64	96	7
TAP	64	192	4
HLD	64	192	7	96
TAP	64	288	0
HLD	65	0	0	96
TAP	65	0	3
TAP	65	96	7
TAP	65	192	2
TAP	65	192	5
TAP	65	240	2
TAP	65	240	5
TAP	65	288	3
TAP	65	288	6
TAP	65	336	3
TAP	65	336	6
TAP	66	0	4
HLD	66	0	7	96
TAP	66	96	0
HLD	66	192	0	96
TAP	66	192	3
TAP	66	288	7
TAP	67	0	4
HLD	67	0	7	96
TAP	67	96	0
XTP	67	192	1
XTP	67	192	6
XTP	67	264	3
XTP	67	264	4
XTP	67	336	2
XTP	67	336	5
TAP	68	0	1
TAP	68	0	6
TAP	68	48	1
TAP	68	48	6
TAP	68	96	1
TAP	68	96	6
HLD	68	192	2	96
TAP	68	192	3
TAP	68	288	7
TAP	69	0	4
HLD	69	0	5	96
TAP	69	96	0
XTP	69	192	1
XTP	69	192	4
XTP	69	264	2
XTP	69	264	3
XTP	69	336	0
XTP	69	336	5
TAP	70	0	6
TAP	70	48	6
TAP	70	96	3
TAP	70	144	3
TAP	70	192	4
TAP	70	240	4
STR	70	288	1
SCL	70	288	1	96	288	2
TAP	70	336	1
TTP	71	0	0	C	1	M1
HLD	72	0	7	2688
THO	76	0	0	1152	C	0	M1
TTP	80	0	5	E	0	M1
TTP	80	96	4	E	0	M1
TTP	80	96	6	E	0	M1
TTP	80	192	3	E	0	M1
TTP	80	192	7	E	0	M1
TAP	81	0	1
TAP	81	192	2
TAP	81	192	4
TTP	82	0	3	E	0	M1
TTP	82	96	2	E	0	M1
TTP	82	96	4	E	0	M1
TTP	82	192	1	E	0	M1
TTP	82	192	5	E	0	M1
TAP	83	0	6
TAP	83	192	3
TAP	83	192	5
TTP	84	0	5	E	0	M1
TTP	84	96	4	E	0	M1
TTP	84	96	6	E	0	M1
TTP	84	192	3	E	0	M1
TTP	84	192	7	E	0	M1
TAP	85	0	1
TAP	85	192	2
TAP	85	192	4
TTP	86	0	3	E	0	M1
TTP	86	96	2	E	0	M1
TTP	86	96	4	E	0	M1
TTP	86	192	1	E	0	M1
TTP	86	192	5	E	0	M1
HLD	87	0	7	192
TAP	87	192	0
XTP	87	288	1
XTP	87	288	6
TAP	88	0	4
TAP	88	0	5
TAP	88	96	3
TAP	88	96	6
TAP	88	192	2
TAP	88	192	7
TAP	88	288	2
TAP	88	288	7
TAP	89	0	2
TAP	89	0	7
TAP	89	96	2
TAP	89	96	6
TAP	89	192	2
TAP	89	192	5
TAP	89	288	2
TAP	89	288	4
TAP	90	0	2
TAP	90	0	3
TAP	90	96	1
TAP	90	96	4
TAP	90	192	0
TAP	90	192	5
TAP	90	288	0
TAP	90	288	5
TAP	91	0	0
TAP	91	0	5
TAP	91	96	1
TAP	91	96	5
TAP	91	192	2
TAP	91	192	5
TAP	91	288	3
TAP	91	288	5
TAP	92	0	4
TAP	92	0	5
TAP	92	48	4
TAP	92	48	5
TAP	92	96	4
TAP	92	96	5
TAP	92	192	3
TAP	92	192	4
TAP	92	240	3
TAP	92	240	4
TAP	92	288	3
TAP	92	288	4
TAP	93	0	2
TAP	93	0	3
TAP	93	48	2
TAP	93	48	3
TAP	93	96	2
TAP	93	96	3
TAP	93	192	1
TAP	93	192	2
TAP	93	240	1
TAP	93	240	2
STR	93	288	1
SCL	93	288	1	96	192	6
STR	93	288	2
SCR	93	288	2	96	192	5
TAP	95	0	0
TAP	95	0	7
TAP	95	96	3
TAP	95	96	4
TAP	95	192	2
TAP	95	192	5
BRK	95	288	0
TAP	96	0	4
HLD	96	0	6	96
TAP	96	96	4
HLD	96	192	1	96
TAP	96	192	3
TAP	96	288	3
TAP	97	0	4
TAP	97	0	6
TAP	97	96	0
TAP	97	96	6
TAP	97	192	0
TAP	97	192	2
TAP	97	288	2
TAP	97	288	4
TAP	97	336	5
TAP	98	0	4
HLD	98	0	6	96
TAP	98	96	4
HLD	98	192	1	96
TAP	98	192	3
TAP	98	288	3
TAP	99	0	4
TAP	99	0	6
TAP	99	96	3
TAP	99	96	7
TAP	99	144	3
TAP	99	144	7
TAP	99	240	0
TAP	99	240	6
BRK	99	288	1
BRK	99	288	5
HLD	100	0	1	96
TAP	100	0	3
TAP	100	96	3
TAP	100	192	4
HLD	100	192	6	96
TAP	100	288	4
TAP	101	0	1
TAP	101	0	3
TAP	101	96	1
TAP	101	96	7
TAP	101	192	5
TAP	101	192	7
TAP	101	288	3
TAP	101	288	5
TAP	101	336	2
HLD	102	0	1	96
HLD	102	0	3	96
HLD	102	192	4	96
HLD	102	192	6	96
STR	103	0	1
SCL	103	0	1	96	96	6
STR	103	0	3
SCR	103	0	3	96	96	6
XTP	103	288	4
XTP	103	288	6
TAP	104	0	3
HLD	104	0	7	96
TAP	104	48	3
TAP	104	96	3
TAP	104	192	2
TAP	104	192	4
HLD	104	288	1	96
TAP	104	288	5
TAP	104	336	5
TAP	105	0	5
TAP	105	96	0
TAP	105	96	4
TAP	105	192	2
TAP	105	192	6
TAP	105	240	2
TAP	105	240	6
TAP	105	288	1
TAP	105	288	5
TAP	105	336	1
TAP	105	336	5
TAP	106	0	0
TAP	106	0	4
TAP	106	96	1
TAP	106	96	3
TAP	106	192	3
TAP	106	192	5
HLD	106	288	2	96
TAP	106	288	6
TAP	106	336	6
TAP	107	0	6
TAP	107	96	7
HLD	107	144	7	96
TAP	107	240	3
BRK	107	288	1
BRK	107	288	5
HLD	108	0	0	96
TAP	108	0	4
TAP	108	96	4
TAP	108	192	3
TAP	108	192	5
TAP	108	288	2
TAP	108	288	6
HLD	109	0	7	48
HLD	109	48	0	48
HLD	109	96	5	48
HLD	109	144	2	48
HLD	109	192	6	48
HLD	109	240	1	48
HLD	109	288	4	48
TAP	109	336	3
TAP	110	0	2
TAP	110	0	5
TAP	110	48	2
TAP	110	48	5
TAP	110	96	2
TAP	110	96	5
TAP	110	144	2
TAP	110	144	5
TAP	110	192	3
TAP	110	216	4
TAP	110	240	3
TAP	110	264	4
TAP	110	288	3
TAP	110	312	4
TAP	110	336	3
TAP	110	360	4
HLD	111	0	3	288
BRK	111	288	7
TAP	112	0	4
TAP	112	0	6
TAP	112	96	0
TAP	112	96	6
TAP	112	192	0
TAP	112	192	2
TAP	112	288	2
TAP	112	288	4
TAP	113	0	4
TAP	113	0	6
TAP	113	96	0
TAP	113	96	6
TAP	113	192	0
TAP	113	192	2
TAP	113	288	1
TAP	113	288	3
TAP	113	336	4
TAP	114	0	3
TAP	114	0	5
TAP	114	96	1
TAP	114	96	3
TAP	114	192	4
TAP	114	192	6
TAP	114	288	1
TAP	114	288	3
TAP	115	0	4
TAP	115	0	6
TAP	115	96	3
TAP	115	96	7
TAP	115	144	3
TAP	115	144	7
TAP	115	240	2
TAP	115	240	4
BRK	115	288	0
BRK	115	288	6
TAP	116	0	1
TAP	116	0	3
TAP	116	96	1
TAP	116	96	7
TAP	116	192	5
TAP	116	192	7
TAP	116	288	3
TAP	116	288	5
TAP	117	0	2
TAP	117	0	4
TAP	117	96	4
TAP	117	96	6
TAP	117	144	4
TAP	117	144	6
TAP	117	240	1
TAP	117	240	3
TAP	117	288	1
TAP	117	288	3
TAP	117	336	4
HLD	118	0	5	48
HLD	118	48	0	48
HLD	118	96	7	48
HLD	118	144	3	48
HLD	118	192	4	48
HLD	118	240	2	48
HLD	118	288	6	48
HLD	118	336	1	48
THO	119	0	0	288	C	1	M1
BRK	119	288	0

T_REC_TAP	489
T_REC_BRK	22
T_REC_XTP	18
T_REC_HLD	58
T_REC_XHO	0
T_REC_STR	9
T_REC_BST	0
T_REC_XST	0
T_REC_TTP	74
T_REC_THO	3
T_REC_SLD	9
T_REC_ALL	682
T_NUM_TAP	590
T_NUM_BRK	22
T_NUM_HLD	61
T_NUM_SLD	9
T_NUM_ALL	682
T_JUDGE_TAP	612
T_JUDGE_HLD	317
T_JUDGE_SLD	9
T_JUDGE_ALL	938
TTM_EACHPAIRS	238
TTM_SCR_TAP	295000
TTM_SCR_BRK	57200
TTM_SCR_HLD	61000
TTM_SCR_SLD	13500
TTM_SCR_ALL	426700
TTM_SCR_S	411800
TTM_SCR_SS	424500
TTM_RAT_ACV	10051

