VERSION	0.00.00	1.03.00
FES_MODE	0
BPM_DEF	200.000	200.000	200.000	200.000
MET_DEF	4	4
RESOLUTION	384
CLK_DEF	384
COMPATIBLE_CODE	MA2

BPM	0	0	200.000
MET	0	0	4	4

STR	4	0	0
SCR	4	0	0	96	384	5
TAP	5	192	6
STR	6	0	7
SCL	6	0	7	96	384	2
TAP	7	192	1
STR	8	0	0
SCR	8	0	0	96	384	5
TAP	9	192	6
STR	10	0	7
SCL	10	0	7	96	384	2
XTP	11	192	3
XTP	11	192	4
STR	12	0	2
SI_	12	0	2	96	192	7
STR	13	0	6
SI_	13	0	6	96	192	3
STR	14	0	2
SCR	14	0	2	96	192	5
XTP	15	0	6
XTP	15	192	0
XTP	15	192	7
HLD	16	0	6	192
TAP	16	192	7
HLD	17	0	1	192
TAP	17	192	0
HLD	18	0	6	192
TAP	18	192	7
HLD	19	0	0	192
HLD	19	0	5	192
TTP	20	0	5	B	0	L1
TTP	20	192	4	B	0	L1
TTP	21	0	3	B	0	L1
TTP	21	192	2	B	0	L1
TTP	22	0	1	B	0	L1
TTP	22	192	0	B	0	L1
TTP	23	0	7	B	0	L1
TTP	23	192	6	B	0	L1
TTP	24	0	4	B	0	L1
TTP	24	0	5	B	0	L1
TTP	24	192	2	B	0	L1
TTP	24	192	3	B	0	L1
TTP	25	0	0	B	0	L1
TTP	25	0	1	B	0	L1
TTP	25	192	6	B	0	L1
TTP	25	192	7	B	0	L1
TTP	26	0	3	E	0	L1
TTP	26	0	5	E	0	L1
TTP	26	192	2	B	0	L1
TTP	26	192	5	B	0	L1
TTP	27	0	0	C	1	L1
XTP	28	0	6
TAP	28	96	6
TAP	28	192	7
TAP	28	288	7
TAP	29	0	0
TAP	29	96	0
TAP	29	192	1
TAP	29	192	7
TAP	30	0	2
TAP	30	96	2
TAP	30	192	3
TAP	30	288	3
TAP	31	0	4
TAP	31	96	4
TAP	31	192	3
TAP	31	192	5
TAP	32	0	6
TAP	32	48	6
TAP	32	96	6
TAP	32	192	7
TAP	32	240	7
TAP	32	288	7
TAP	33	0	0
TAP	33	48	0
TAP	33	96	0
TAP	33	192	1
TAP	33	240	1
TAP	33	288	1
BRK	34	0	2
BRK	34	0	4
STR	35	0	3
SI_	35	0	3	96	192	7
TAP	35	0	5
TAP	36	0	6
TAP	36	96	6
TAP	36	192	6
TAP	36	192	7
TAP	36	288	6
TAP	36	288	7
TAP	37	0	5
TAP	37	96	5
TAP	37	192	4
TAP	37	192	5
TAP	37	288	4
TAP	37	288	5
TAP	38	0	2
TAP	38	96	2
TAP	38	192	2
TAP	38	192	3
TAP	38	288	2
TAP	38	288	3
TAP	39	0	1
TAP	39	96	0
TAP	39	96	7
XTP	39	192	1
XTP	39	192	6
TAP	40	0	6
TAP	40	96	6
TAP	40	192	6
TAP	40	192	7
TAP	40	288	6
TAP	40	288	7
TAP	41	0	1
TAP	41	96	1
TAP	41	192	0
TAP	41	192	1
TAP	41	288	0
TAP	41	288	1
XST	42	0	0
SCR	42	0	0	96	192	3
XST	42	0	7
SCL	42	0	7	96	192	4
THO	43	0	0	192	C	0	L1
XTP	44	0	6
XTP	44	96	6
XTP	44	96	7
TAP	44	192	6
TAP	44	288	6
TAP	44	288	7
TAP	45	0	5
TAP	45	96	4
TAP	45	96	5
TAP	45	192	5
TAP	45	288	4
TAP	45	288	5
TAP	46	0	2
TAP	46	96	2
TAP	46	96	3
TAP	46	192	2
TAP	46	288	2
TAP	46	288	3
TAP	47	0	1
TAP	47	96	0
TAP	47	96	7
TAP	47	192	1
TAP	47	192	6
XTP	47	288	2
XTP	47	288	5
TAP	48	0	6
TAP	48	96	6
TAP	48	96	7
TAP	48	192	6
TAP	48	288	6
TAP	48	288	7
TAP	49	0	1
TAP	49	96	0
TAP	49	96	1
TAP	49	192	1
TAP	49	288	0
TAP	49	288	1
TAP	50	0	7
TAP	50	48	7
TAP	50	96	7
TAP	50	192	0
TAP	50	240	0
TAP	50	288	0
BST	51	0	1
SI_	51	0	1	96	192	4
BST	51	0	6
SI_	51	0	6	96	192	3
TAP	52	0	2
TAP	52	96	2
TAP	52	192	3
TAP	52	288	3
TAP	53	0	4
TAP	53	96	4
TAP	53	192	5
TAP	53	288	5
TAP	54	0	3
TAP	54	0	4
TAP	54	96	2
TAP	54	96	5
TAP	54	192	1
TAP	54	192	6
TAP	54	288	0
TAP	54	288	7
BRK	55	0	1
BRK	55	0	6
TAP	56	0	5
TAP	56	96	5
STR	56	192	6
SSR	56	192	6	96	336	2
TAP	58	0	1
TAP	58	96	1
STR	58	192	0
SSL	58	192	0	96	336	4
TAP	60	0	5
TAP	60	96	6
STR	60	192	7
SSR	60	192	7	96	336	3
TAP	62	0	2
TAP	62	96	3
TAP	62	192	4
TAP	62	288	5
STR	63	0	3
SCL	63	0	3	96	192	0
TAP	63	0	4
TTP	64	0	7	B	0	L1
TTP	64	0	7	E	0	L1
TTP	64	192	5	B	0	L1
TTP	64	192	5	E	0	L1
TTP	65	0	3	B	0	L1
TTP	65	0	3	E	0	L1
TTP	65	192	5	B	0	L1
TTP	65	288	6	B	0	L1
TTP	66	0	7	B	0	L1
TTP	66	0	7	E	0	L1
TTP	66	192	2	B	0	L1
TTP	66	192	3	E	0	L1
TTP	67	0	4	B	0	L1
TTP	67	0	5	E	0	L1
TTP	67	192	2	B	0	L1
TTP	67	288	1	B	0	L1
TTP	68	0	0	B	0	L1
TTP	68	0	1	E	0	L1
TTP	68	192	5	B	0	L1
TTP	68	192	5	E	0	L1
TTP	69	0	3	B	0	L1
TTP	69	0	3	E	0	L1
TTP	69	192	5	B	0	L1
TTP	69	288	6	B	0	L1
TTP	70	0	0	C	0	L1
XTP	71	0	0
XTP	71	0	7
TAP	71	96	0
TAP	71	96	7
TAP	71	192	1
TAP	71	192	6
TTP	72	0	0	C	1	L1
STR	76	0	3
SCL	76	0	3	96	864	4
XTP	79	0	3
XTP	79	0	4
HLD	80	0	2	192
HLD	80	192	3	192
HLD	81	0	4	192
TAP	81	192	5
HLD	82	0	6	192
HLD	82	192	7	192
HLD	83	0	0	192
TAP	83	192	1
HLD	84	0	2	192
TAP	84	192	3
HLD	85	0	5	192
TAP	85	192	4
HLD	86	0	2	192
TAP	86	192	3
TAP	87	0	4
TAP	87	0	5
TAP	87	96	4
TAP	87	96	5
TAP	87	192	3
TAP	87	192	6
TAP	88	0	2
TAP	88	96	2
TAP	88	192	3
TAP	88	288	3
TAP	89	0	4
TAP	89	96	4
TAP	89	192	5
TAP	89	288	5
TAP	90	0	6
TAP	90	96	6
TAP	90	192	7
TAP	90	288	7
TAP	91	0	0
TAP	91	96	0
TAP	91	192	1
TAP	91	288	1
TAP	92	0	2
TAP	92	48	2
TAP	92	96	2
TAP	92	192	3
TAP	92	240	3
TAP	92	288	3
TAP	93	0	4
TAP	93	48	4
TAP	93	96	4
TAP	93	192	5
TAP	93	240	5
TAP	93	288	5
BST	94	0	3
SCL	94	0	3	96	192	0
BST	94	0	4
SCR	94	0	4	96	192	7
THO	95	0	0	192	C	0	L1
TAP	96	0	6
TAP	96	96	6
TAP	96	192	6
TAP	96	192	7
TAP	96	288	0
TAP	96	288	5
TAP	97	0	1
TAP	97	96	1
TAP	97	192	0
TAP	97	192	1
TAP	97	288	2
TAP	97	288	7
TAP	98	0	3
TAP	98	96	2
TAP	98	192	2
TAP	98	192	3
TAP	98	288	1
TAP	98	288	4
TAP	99	0	5
TAP	99	96	3
TAP	99	96	4
XTP	99	192	2
XTP	99	192	5
TAP	100	0	1
TAP	100	96	1
TAP	100	192	0
TAP	100	192	1
TAP	100	288	2
TAP	100	288	7
TAP	101	0	6
TAP	101	96	6
TAP	101	192	6
TAP	101	192	7
TAP	101	288	0
TAP	101	288	5
STR	102	0	4
SI_	102	0	4	96	192	1
SI_	102	0	4	96	192	7
TAP	103	0	0
TAP	103	96	0
TAP	103	96	7
BRK	103	192	1
BRK	103	192	6
TAP	104	0	6
TAP	104	48	6
TAP	104	96	6
TAP	104	192	6
TAP	104	192	7
TAP	104	288	4
TAP	104	288	5
TAP	105	0	2
TAP	105	0	3
TAP	105	96	2
TAP	105	96	3
TAP	105	192	1
TAP	105	192	4
TAP	106	0	5
TAP	106	48	5
TAP	106	96	5
TAP	106	192	4
TAP	106	192	5
TAP	106	288	6
TAP	106	288	7
TAP	107	0	0
TAP	107	0	1
TAP	107	96	0
TAP	107	96	7
XTP	107	192	1
XTP	107	192	6
TAP	108	0	2
TAP	108	48	2
TAP	108	96	2
TAP	108	192	2
TAP	108	192	3
TAP	108	288	0
TAP	108	288	1
TAP	109	0	6
TAP	109	0	7
TAP	109	96	4
TAP	109	96	5
TAP	109	192	2
TAP	109	192	3
TAP	109	288	1
TAP	109	288	4
TAP	110	0	0
TAP	110	48	0
TAP	110	96	0
TAP	110	192	7
TAP	110	240	7
TAP	110	288	7
STR	111	0	1
SI_	111	0	1	96	192	4
STR	111	0	6
SI_	111	0	6	96	192	3
TAP	112	0	2
TAP	112	96	2
TAP	112	192	3
TAP	112	288	3
TAP	113	0	4
TAP	113	96	4
TAP	113	192	3
TAP	113	192	5
TAP	114	0	6
TAP	114	96	6
TAP	114	192	7
TAP	114	288	7
TAP	115	0	0
TAP	115	96	0
XTP	115	192	0
XTP	115	192	7
TAP	116	0	6
TAP	116	96	6
TAP	116	192	7
TAP	116	288	7
TAP	117	0	0
TAP	117	96	0
TAP	117	192	1
TAP	117	192	7
TAP	118	0	2
TAP	118	96	2
TAP	118	192	3
TAP	118	288	3
TAP	119	0	3
TAP	119	0	4
TAP	119	96	3
TAP	119	96	4
TAP	119	192	2
TAP	119	192	5
TTP	120	0	0	C	1	L1

T_REC_TAP	288
T_REC_BRK	6
T_REC_XTP	23
T_REC_HLD	14
T_REC_XHO	0
T_REC_STR	16
T_REC_BST	4
T_REC_XST	2
T_REC_TTP	48
T_REC_THO	2
T_REC_SLD	23
T_REC_ALL	426
T_NUM_TAP	377
T_NUM_BRK	10
T_NUM_HLD	16
T_NUM_SLD	23
T_NUM_ALL	426
T_JUDGE_TAP	387
T_JUDGE_HLD	64
T_JUDGE_SLD	23
T_JUDGE_ALL	474
TTM_EACHPAIRS	85
TTM_SCR_TAP	188500
TTM_SCR_BRK	26000
TTM_SCR_HLD	16000
TTM_SCR_SLD	34500
TTM_SCR_ALL	265000
TTM_SCR_S	256100
TTM_SCR_SS	264000
TTM_RAT_ACV	10037

