VERSION	0.00.00	1.03.00
FES_MODE	0
BPM_DEF	200.000	200.000	200.000	200.000
MET_DEF	4	4
RESOLUTION	384
CLK_DEF	384
COMPATIBLE_CODE	MA2

BPM	0	0	200.000
MET	0	0	4	4

TAP	4	0	0
TAP	6	0	0
TAP	8	0	7
TAP	10	0	7
HLD	12	0	0	384
HLD	14	0	0	384
HLD	16	0	7	384
HLD	18	0	7	384
HLD	20	0	0	384
HLD	22	0	1	384
HLD	24	0	2	384
HLD	26	0	3	384
HLD	26	0	4	384
TAP	28	0	4
TAP	29	0	4
TAP	30	0	5
TAP	31	0	5
TAP	32	0	6
TAP	33	0	6
BRK	34	0	0
BRK	34	0	7
TAP	36	0	7
TAP	36	192	7
TAP	37	0	7
TAP	38	0	6
TAP	38	192	6
TAP	39	0	6
TAP	40	0	5
TAP	40	192	5
TAP	41	0	5
TAP	42	0	4
TAP	42	192	4
TAP	43	0	3
TAP	43	0	4
TAP	44	0	3
TAP	44	192	3
TAP	45	0	3
TAP	46	0	2
TAP	46	192	2
TAP	47	0	2
TAP	48	0	1
TAP	48	192	1
TAP	49	0	1
TAP	50	0	0
TAP	50	192	0
XTP	51	0	0
XTP	51	0	7
HLD	52	0	0	384
HLD	52	0	7	384
TAP	54	0	0
TAP	54	0	7
XTP	55	0	0
XTP	55	0	7
TAP	56	0	0
TAP	56	192	0
TAP	57	0	1
TAP	58	0	2
TAP	58	192	2
TAP	59	0	3
TAP	60	0	4
TAP	60	192	4
TAP	61	0	5
TAP	62	0	6
TAP	62	192	6
XTP	63	0	0
XTP	63	0	7
TAP	64	0	6
TAP	64	192	6
TAP	65	0	6
TAP	65	0	7
TAP	66	0	5
TAP	66	192	5
TAP	67	0	4
TAP	67	0	5
TAP	68	0	2
TAP	68	192	2
TAP	69	0	2
TAP	69	0	3
TAP	70	0	1
TAP	70	192	1
TAP	71	0	0
TAP	71	0	1
STR	72	0	7
SI_	72	0	7	96	672	4
STR	76	0	0
SI_	76	0	0	96	672	3
TTP	80	0	4	B	0	L1
TTP	81	0	5	B	0	L1
TTP	82	0	6	B	0	L1
TTP	83	0	7	B	0	L1
TTP	84	0	0	B	0	L1
TTP	85	0	1	B	0	L1
TTP	86	0	2	B	0	L1
TTP	87	0	3	B	0	L1
TTP	88	0	4	B	0	L1
TTP	88	0	5	B	0	L1
TTP	90	0	2	B	0	L1
TTP	90	0	3	B	0	L1
THO	92	0	0	768	C	1	L1
TAP	96	0	7
TAP	96	96	7
TAP	96	192	7
TAP	97	0	6
TAP	97	96	6
TAP	97	192	6
TAP	98	0	5
TAP	98	96	5
TAP	98	192	5
TAP	99	0	3
TAP	99	0	4
TAP	99	192	3
TAP	99	192	4
TAP	100	0	3
TAP	100	96	3
TAP	100	192	3
TAP	101	0	2
TAP	101	96	2
TAP	101	192	2
TAP	102	0	1
TAP	102	96	1
TAP	102	192	1
BRK	103	0	0
BRK	103	0	7
TAP	104	0	0
TAP	104	96	0
TAP	104	192	0
TAP	105	0	0
TAP	105	0	1
TAP	105	96	0
TAP	105	96	1
TAP	105	192	0
TAP	105	192	1
TAP	106	0	2
TAP	106	96	2
TAP	106	192	2
TAP	107	0	2
TAP	107	0	3
TAP	107	96	2
TAP	107	96	3
TAP	107	192	2
TAP	107	192	3
TAP	108	0	4
TAP	108	96	4
TAP	108	192	4
TAP	109	0	4
TAP	109	0	5
TAP	109	96	4
TAP	109	96	5
TAP	109	192	4
TAP	109	192	5
TAP	110	0	6
TAP	110	96	6
TAP	110	192	6
TAP	111	0	0
TAP	111	0	7
TAP	111	96	0
TAP	111	96	7
BRK	111	192	0
BRK	111	192	7
HLD	112	0	6	192
TAP	113	0	6
TAP	113	192	6
TAP	113	192	7
HLD	114	0	5	192
TAP	115	0	5
TAP	115	192	4
TAP	115	192	5
HLD	116	0	3	192
TAP	117	0	3
TAP	117	192	2
TAP	117	192	3
HLD	118	0	3	192
HLD	118	0	4	192
TAP	119	0	3
TAP	119	0	4
TAP	119	96	3
TAP	119	96	4
TAP	119	192	3
TAP	119	192	4
BRK	119	288	2
BRK	119	288	5

T_REC_TAP	134
T_REC_BRK	8
T_REC_XTP	6
T_REC_HLD	16
T_REC_XHO	0
T_REC_STR	2
T_REC_BST	0
T_REC_XST	0
T_REC_TTP	12
T_REC_THO	1
T_REC_SLD	2
T_REC_ALL	181
T_NUM_TAP	154
T_NUM_BRK	8
T_NUM_HLD	17
T_NUM_SLD	2
T_NUM_ALL	181
T_JUDGE_TAP	162
T_JUDGE_HLD	124
T_JUDGE_SLD	2
T_JUDGE_ALL	288
TTM_EACHPAIRS	35
TTM_SCR_TAP	77000
TTM_SCR_BRK	20800
TTM_SCR_HLD	17000
TTM_SCR_SLD	3000
TTM_SCR_ALL	117800
TTM_SCR_S	113500
TTM_SCR_SS	117000
TTM_RAT_ACV	10068

