VERSION	0.00.00	1.03.00
FES_MODE	0
BPM_DEF	190.000	190.000	190.000	190.000
MET_DEF	4	4
RESOLUTION	384
CLK_DEF	384
COMPATIBLE_CODE	MA2

BPM	0	0	190.000
MET	0	0	4	4

HLD	2	0	3	576
STR	2	0	4
SI_	2	0	4	96	480	7
STR	4	0	3
SI_	4	0	3	96	480	0
HLD	4	0	4	576
HLD	6	0	5	384
TAP	6	192	3
TAP	6	288	4
TAP	7	0	4
TAP	7	192	3
TAP	7	192	6
HLD	8	0	2	384
TAP	8	192	4
TAP	8	288	3
TAP	9	0	3
BRK	9	192	0
BRK	9	192	6
HLD	10	0	5	288
HLD	10	144	3	240
HLD	11	0	4	288
HLD	11	144	2	240
HLD	12	0	3	288
HLD	12	144	1	240
TAP	13	0	2
TAP	13	96	3
TAP	13	192	2
TAP	13	192	4
HLD	14	0	5	288
HLD	14	144	3	240
HLD	15	0	4	288
HLD	15	144	2	240
HLD	16	0	3	288
HLD	16	144	1	240
TAP	17	0	2
TAP	17	96	3
TAP	17	192	3
TAP	17	192	4
TAP	18	0	3
TAP	18	0	4
HLD	18	96	5	144
TAP	18	240	4
TAP	18	288	4
TAP	18	288	5
TAP	19	0	3
TAP	19	0	5
HLD	19	96	2	144
TAP	19	240	3
TAP	19	288	2
TAP	19	288	3
TAP	20	0	4
TAP	20	96	3
HLD	20	96	5	144
TAP	20	240	4
TAP	20	288	4
TAP	20	288	5
TAP	21	0	3
HLD	21	96	2	144
TAP	21	96	4
TAP	21	240	3
TAP	21	288	2
TAP	21	288	3
TAP	22	0	4
HLD	22	96	3	96
HLD	22	96	5	96
TAP	22	240	3
TAP	22	240	5
TAP	22	288	3
TAP	22	288	5
TAP	23	0	2
HLD	23	96	1	96
HLD	23	96	4	96
TAP	23	240	1
TAP	23	240	4
TAP	23	288	1
TAP	23	288	4
TAP	24	0	5
HLD	24	96	3	96
HLD	24	96	6	96
TAP	24	240	3
TAP	24	240	6
TAP	24	288	3
TAP	24	288	6
TAP	25	0	5
TAP	25	48	3
TAP	25	96	4
TAP	25	192	4
TAP	25	288	3
TAP	25	288	5
TAP	26	0	2
STR	26	0	6
SUL	26	0	6	96	96	2
TAP	26	192	1
TAP	26	240	1
TAP	26	288	1
TAP	26	288	3
STR	27	0	2
SCR	27	0	2	96	96	5
TAP	27	0	5
TAP	27	192	6
TAP	27	240	6
TAP	27	288	4
TAP	27	288	6
TAP	28	0	3
STR	28	0	6
SCL	28	0	6	96	96	3
TAP	28	192	1
TAP	28	240	1
TAP	28	288	0
TAP	28	288	1
TAP	29	0	6
TAP	29	48	6
TAP	29	96	6
TAP	29	96	7
TAP	29	192	0
TAP	29	192	5
TAP	29	288	1
TAP	29	288	4
STR	30	0	2
SI_	30	0	2	96	96	4
TAP	30	96	1
STR	30	192	0
SI_	30	192	0	96	96	2
TAP	30	288	7
STR	31	0	6
SI_	31	0	6	96	96	0
TAP	31	96	5
STR	31	192	4
SI_	31	192	4	96	96	6
TAP	31	288	3
TAP	32	0	2
TAP	32	48	2
TAP	32	96	7
TAP	32	144	7
TAP	32	192	0
TAP	32	192	6
TAP	32	240	1
TAP	32	240	5
TAP	32	288	2
TAP	32	288	4
TTP	33	0	1	B	0	M1
TTP	33	0	2	B	0	M1
TTP	33	0	3	B	0	M1
TTP	33	0	3	E	0	M1
TTP	33	96	4	B	0	M1
TTP	33	96	5	B	0	M1
TTP	33	96	5	E	0	M1
TTP	33	96	6	B	0	M1
TAP	33	192	0
TAP	33	192	7
BRK	33	288	1
BRK	33	288	6
HLD	34	0	5	192
TTP	34	96	6	B	0	M1
TTP	34	96	7	E	0	M1
TAP	34	192	3
TAP	34	240	2
TAP	34	288	5
TAP	34	336	4
HLD	35	0	1	192
TTP	35	96	1	B	0	M1
TTP	35	96	1	E	0	M1
TAP	35	192	4
TAP	35	240	5
TAP	35	288	2
TAP	35	336	3
HLD	36	0	6	192
TTP	36	96	6	B	0	M1
TTP	36	96	7	B	0	M1
TAP	36	192	3
TAP	36	240	2
TAP	36	288	5
TAP	36	336	4
TTP	37	0	1	E	0	M1
TTP	37	24	1	B	0	M1
TTP	37	48	2	B	0	M1
TTP	37	72	3	E	0	M1
TTP	37	96	6	E	0	M1
TTP	37	120	6	B	0	M1
TTP	37	144	7	B	0	M1
TTP	37	168	0	E	0	M1
TTP	37	192	2	E	0	M1
TTP	37	216	2	B	0	M1
TTP	37	240	3	B	0	M1
TTP	37	264	4	E	0	M1
XTP	37	288	0
HLD	38	0	1	192
TTP	38	96	0	B	0	M1
TTP	38	96	1	E	0	M1
TAP	38	192	3
TAP	38	240	4
XTP	38	288	2
TAP	38	336	3
HLD	39	0	6	192
TTP	39	96	6	B	0	M1
TTP	39	96	7	B	0	M1
TAP	39	192	3
TAP	39	240	2
XTP	39	288	5
TAP	39	336	4
HLD	40	0	1	96
TTP	40	96	0	B	0	M1
TTP	40	96	1	B	0	M1
TAP	40	192	4
TAP	40	216	3
TAP	40	240	4
TAP	40	288	5
TAP	40	336	5
TAP	41	0	2
TAP	41	24	3
TAP	41	48	2
TAP	41	96	1
TAP	41	144	1
TAP	41	192	7
TAP	41	216	0
TAP	41	240	7
BRK	41	288	1
BRK	41	288	6
TAP	42	0	2
TAP	42	0	5
TAP	42	96	3
TAP	42	96	4
TAP	42	192	2
TAP	42	192	3
TAP	42	288	3
TAP	42	288	5
TAP	43	0	1
TAP	43	0	3
TAP	43	96	3
TAP	43	96	6
TAP	43	192	0
TAP	43	192	3
TAP	43	288	3
TAP	43	288	7
TAP	44	0	3
TAP	44	24	7
TAP	44	48	3
TAP	44	72	7
TAP	44	96	2
TAP	44	120	6
TAP	44	144	2
TAP	44	168	6
TAP	44	192	1
TAP	44	216	5
TAP	44	240	1
TAP	44	264	5
TAP	44	288	0
TAP	44	312	4
TAP	44	336	0
TAP	44	360	4
BRK	45	0	7
STR	45	288	0
SI_	45	288	0	96	48	4
STR	45	288	7
SI_	45	288	7	96	48	3
BRK	46	0	0
BRK	46	0	7
XTP	46	96	1
XTP	46	96	6
TAP	46	192	3
TAP	46	192	5
TAP	46	240	2
STR	46	288	1
SI_	46	288	1	96	48	4
TAP	46	288	7
TAP	46	336	0
TAP	47	0	1
STR	47	0	6
SI_	47	0	6	96	48	0
TAP	47	48	5
TAP	47	96	3
TAP	47	96	6
TAP	47	144	2
XTP	47	192	1
XTP	47	192	4
TAP	47	288	2
STR	47	288	5
SCL	47	288	5	96	48	2
TAP	47	336	6
TAP	48	0	2
TAP	48	0	5
STR	48	96	1
SI_	48	96	1	96	48	5
TAP	48	144	0
STR	48	192	1
SCR	48	192	1	96	48	4
TAP	48	240	7
TAP	48	288	1
TAP	48	336	6
STR	49	0	6
SI_	49	0	6	96	48	2
STR	49	48	3
SI_	49	48	3	96	48	0
TAP	49	96	6
TAP	49	144	3
BRK	49	192	7
TAP	49	288	0
TAP	49	288	6
TAP	49	336	1
TAP	49	336	5
STR	50	0	2
SI_	50	0	2	96	48	4
STR	50	0	4
SI_	50	0	4	96	48	6
TAP	50	96	2
STR	50	96	4
SCL	50	96	4	96	96	0
XTP	50	192	7
TAP	50	240	6
TAP	50	288	5
TAP	50	336	4
STR	51	0	0
SI_	51	0	0	96	48	3
STR	51	48	5
SCR	51	48	5	96	48	0
TAP	51	96	0
TAP	51	144	5
BRK	51	192	2
TAP	51	288	0
TAP	51	288	1
TAP	51	336	2
TAP	52	0	3
STR	52	0	7
SI_	52	0	7	96	48	1
STR	52	96	2
SI_	52	96	2	96	48	4
TAP	52	144	2
STR	52	192	6
SI_	52	192	6	96	48	2
TAP	52	240	6
TAP	52	288	2
TAP	52	336	1
TAP	53	0	0
TAP	53	0	4
TAP	53	48	5
TAP	53	96	3
TAP	53	96	6
TAP	53	144	2
BRK	53	192	1
BRK	53	192	4
STR	53	288	2
SCL	53	288	2	96	48	7
STR	53	288	6
SCL	53	288	6	96	48	3
BRK	54	0	2
BRK	54	0	6
XTP	54	96	1
XTP	54	96	5
TAP	54	192	3
TAP	54	192	4
TAP	54	240	5
TAP	54	288	2
STR	54	288	6
SI_	54	288	6	96	48	3
TAP	54	336	7
STR	55	0	1
SI_	55	0	1	96	48	7
TAP	55	0	6
TAP	55	48	2
TAP	55	96	1
TAP	55	96	4
TAP	55	144	5
XTP	55	192	3
XTP	55	192	6
STR	55	288	2
SCR	55	288	2	96	48	5
TAP	55	288	5
TAP	55	336	1
TAP	56	0	2
TAP	56	0	5
STR	56	96	6
SI_	56	96	6	96	48	2
TAP	56	144	7
STR	56	192	6
SCL	56	192	6	96	48	3
TAP	56	240	0
TAP	56	288	6
TAP	56	336	1
STR	57	0	1
SI_	57	0	1	96	48	5
STR	57	48	4
SI_	57	48	4	96	48	7
TAP	57	96	1
TAP	57	144	4
BRK	57	192	0
TAP	57	288	1
TAP	57	288	7
TAP	57	336	2
TAP	57	336	6
STR	58	0	3
SI_	58	0	3	96	48	1
STR	58	0	5
SI_	58	0	5	96	48	3
STR	58	96	3
SCR	58	96	3	96	96	7
TAP	58	96	5
XTP	58	192	0
TAP	58	240	1
TAP	58	288	2
TAP	58	336	3
STR	59	0	7
SI_	59	0	7	96	48	4
STR	59	48	2
SCL	59	48	2	96	48	7
TAP	59	96	7
TAP	59	144	2
TTP	59	192	0	C	1	M1
TAP	59	288	0
TAP	59	288	7
BRK	59	336	1
BRK	59	336	6
TAP	60	48	3
TAP	60	96	2
TAP	60	96	4
TAP	60	144	5
TAP	60	192	4
TAP	60	192	6
TAP	60	240	7
TAP	60	288	3
TAP	60	336	2
STR	61	0	1
SI_	61	0	1	96	48	4
STR	61	0	5
SI_	61	0	5	96	48	0
TAP	61	48	0
TAP	61	48	4
TAP	61	96	1
TAP	61	96	5
BRK	61	192	2
BRK	61	192	6
STR	62	0	4
SI_	62	0	4	96	288	7
STR	63	0	3
SI_	63	0	3	96	288	0
STR	64	0	4
SI_	64	0	4	96	288	7
STR	65	0	3
SI_	65	0	3	96	288	0
STR	66	0	4
SCR	66	0	4	96	288	7
STR	67	0	3
SCL	67	0	3	96	288	0
STR	68	0	4
SCR	68	0	4	96	288	7
THO	69	0	0	192	C	0	M1
XTP	69	192	7
HLD	70	0	2	72
TAP	70	72	3
TAP	70	96	2
TAP	70	144	3
HLD	70	192	1	72
TAP	70	264	3
TAP	70	288	1
TAP	70	336	3
HLD	71	0	0	72
TAP	71	72	3
TAP	71	96	0
TAP	71	144	3
TAP	71	192	1
TAP	71	240	1
TAP	71	288	3
TAP	71	336	2
HLD	72	0	5	72
TAP	72	72	4
TAP	72	96	5
TAP	72	144	4
HLD	72	192	6	72
TAP	72	264	4
TAP	72	288	6
TAP	72	336	4
HLD	73	0	7	72
TAP	73	72	4
TAP	73	96	7
TAP	73	144	4
TAP	73	192	6
TAP	73	240	6
TAP	73	288	4
TAP	73	336	5
TAP	74	0	3
TAP	74	48	3
TAP	74	96	2
TAP	74	96	4
TAP	74	144	2
TAP	74	192	1
TAP	74	240	1
TAP	74	288	0
TAP	74	288	3
TAP	74	336	0
TAP	75	0	7
TAP	75	48	7
TAP	75	96	2
TAP	75	96	6
TAP	75	144	6
TAP	75	192	5
TAP	75	240	5
TAP	75	288	1
TAP	75	288	4
TAP	75	336	4
TAP	76	0	3
TAP	76	24	5
TAP	76	48	3
TAP	76	72	5
TAP	76	96	2
TAP	76	120	4
TAP	76	144	2
TAP	76	168	4
TAP	76	192	1
TAP	76	216	5
TAP	76	240	1
TAP	76	264	5
TAP	76	288	0
TAP	76	312	6
TAP	76	336	0
TAP	76	360	6
XTP	77	0	7
TAP	77	288	3
TAP	77	288	4
TAP	78	0	2
TAP	78	24	5
TAP	78	48	2
TAP	78	72	5
TAP	78	96	3
TAP	78	120	4
TAP	78	144	3
TAP	78	168	4
TAP	78	192	2
TAP	78	216	5
TAP	78	240	1
TAP	78	264	6
BRK	78	288	0
STR	79	0	1
SI_	79	0	1	96	48	3
TTP	79	96	3	B	0	M1
TTP	79	96	4	E	0	M1
TAP	79	192	5
TAP	79	240	6
TAP	79	288	2
TAP	79	336	2
STR	80	0	6
SI_	80	0	6	96	48	4
TTP	80	96	4	B	0	M1
TTP	80	96	4	E	0	M1
TAP	80	192	2
TAP	80	240	1
TAP	80	288	0
TAP	80	288	6
TAP	80	336	6
TAP	81	0	1
TAP	81	24	5
TAP	81	48	1
TAP	81	72	5
TAP	81	96	2
TAP	81	120	4
TAP	81	144	2
TAP	81	168	4
TAP	81	192	3
TAP	81	216	3
TAP	81	240	3
TAP	81	264	3
BRK	81	288	3
STR	82	0	1
SI_	82	0	1	96	48	3
TTP	82	96	3	B	0	M1
TTP	82	96	4	E	0	M1
TAP	82	192	4
TAP	82	240	5
TAP	82	288	0
TAP	82	336	0
STR	83	0	6
SI_	83	0	6	96	48	4
TTP	83	96	4	B	0	M1
TTP	83	96	4	E	0	M1
TAP	83	192	3
TAP	83	240	2
TAP	83	288	7
TAP	83	336	7
STR	84	0	2
SI_	84	0	2	96	48	4
TAP	84	96	4
TAP	84	192	6
TAP	84	216	3
TAP	84	240	5
TAP	84	264	4
TAP	84	288	6
TAP	84	336	6
TAP	85	0	1
TAP	85	24	4
TAP	85	48	2
TAP	85	72	3
TAP	85	96	0
TAP	85	144	0
TAP	85	192	6
TAP	85	216	3
TAP	85	240	5
TAP	85	264	4
BRK	85	288	7
TAP	86	0	0
XST	86	0	1
SI_	86	0	1	96	48	3
TTP	86	96	0	C	0	M1
TAP	86	192	0
STR	86	192	1
SI_	86	192	1	96	48	3
TAP	86	288	4
STR	87	0	6
SI_	87	0	6	96	48	4
TAP	87	0	7
TTP	87	96	0	C	0	M1
STR	87	192	6
SI_	87	192	6	96	48	4
TAP	87	192	7
TAP	87	288	3
STR	88	0	2
SI_	88	0	2	96	48	0
TAP	88	0	3
TTP	88	96	0	C	0	M1
STR	88	192	2
SI_	88	192	2	96	48	0
TAP	88	192	3
TAP	88	288	7
TAP	89	0	6
TAP	89	24	2
TAP	89	48	6
TAP	89	72	2
TAP	89	96	7
TAP	89	120	1
TAP	89	144	7
TAP	89	168	1
TAP	89	192	0
TAP	89	216	0
TAP	89	240	0
TAP	89	264	0
BRK	89	288	0
STR	90	0	1
SI_	90	0	1	96	48	3
TAP	90	0	4
TTP	90	96	0	B	0	M1
TTP	90	192	4	B	0	M1
STR	90	192	7
SI_	90	192	7	96	48	5
TTP	90	288	0	C	0	M1
STR	91	0	0
SI_	91	0	0	96	48	2
TAP	91	0	3
TTP	91	96	7	B	0	M1
TTP	91	192	3	B	0	M1
STR	91	192	6
SI_	91	192	6	96	48	4
TTP	91	288	0	C	0	M1
TAP	92	0	0
TAP	92	24	1
TAP	92	48	2
TAP	92	72	3
TAP	92	96	4
TAP	92	120	5
TAP	92	144	6
TAP	92	168	7
TAP	92	192	0
TAP	92	204	1
TAP	92	216	2
TAP	92	228	3
TAP	92	240	4
TAP	92	252	5
TAP	92	264	6
TAP	92	276	7
TAP	92	288	0
TAP	92	300	1
TAP	92	312	2
TAP	92	324	3
TAP	92	336	4
TAP	92	348	5
TAP	92	360	6
TAP	92	372	7
XTP	93	0	0
XST	93	0	4
SUL	93	0	4	96	144	3
STR	93	288	0
SI_	93	288	0	96	48	4
BRK	94	0	0
BRK	94	0	4
STR	94	96	7
SI_	94	96	7	96	48	3
BRK	94	192	3
BRK	94	192	7
XTP	94	288	1
XTP	94	288	5
XTP	94	336	1
XTP	94	336	5
TAP	95	48	3
TAP	95	48	4
TAP	95	96	2
TAP	95	96	5
TAP	95	144	1
TAP	95	144	6
XTP	95	192	0
XST	95	192	7
SF_	95	192	7	96	48	3
BRK	95	288	7
XST	96	0	1
SI_	96	0	1	96	48	5
TAP	96	96	1
STR	96	96	5
SCL	96	96	5	96	48	2
TAP	96	144	6
TAP	96	192	7
TAP	96	240	7
TAP	96	288	0
STR	96	336	6
SI_	96	336	6	96	48	4
STR	97	0	2
SCL	97	0	2	96	48	7
STR	97	48	6
SI_	97	48	6	96	48	2
TAP	97	96	2
TAP	97	144	6
BRK	97	192	0
TAP	97	288	1
TAP	97	288	7
TAP	97	336	2
TAP	97	336	6
STR	98	0	3
SI_	98	0	3	96	48	1
STR	98	0	5
SI_	98	0	5	96	48	3
STR	98	96	3
SLR	98	96	3	96	96	7
TAP	98	96	5
XTP	98	192	0
TAP	98	240	1
TAP	98	288	2
TAP	98	336	3
STR	99	0	7
SUL	99	0	7	96	48	3
STR	99	48	2
SCL	99	48	2	96	48	7
TAP	99	96	7
TAP	99	144	2
BRK	99	192	5
TAP	99	288	6
TAP	99	288	7
TAP	99	336	5
STR	100	0	0
SI_	100	0	0	96	48	6
TAP	100	0	4
STR	100	96	5
SI_	100	96	5	96	48	3
TAP	100	144	5
STR	100	192	1
SI_	100	192	1	96	48	5
TAP	100	240	1
TAP	100	288	5
TAP	100	336	6
TAP	101	0	3
TAP	101	0	7
TAP	101	48	2
TAP	101	96	1
TAP	101	96	4
TAP	101	144	5
BRK	101	192	3
BRK	101	192	6
TAP	101	288	2
TAP	101	288	4
TAP	101	336	1
TAP	101	336	5
STR	102	0	0
SI_	102	0	0	96	48	4
STR	102	0	6
SI_	102	0	6	96	48	2
BRK	102	96	0
BRK	102	96	6
XTP	102	192	3
TAP	102	240	2
TAP	102	240	4
STR	102	288	1
SI_	102	288	1	96	48	4
TAP	102	288	5
TAP	102	336	0
TAP	103	0	1
STR	103	0	6
SI_	103	0	6	96	48	0
TAP	103	48	5
TAP	103	96	3
TAP	103	96	6
TAP	103	144	2
XTP	103	192	1
XTP	103	192	4
TAP	103	288	2
STR	103	288	5
SCL	103	288	5	96	48	2
TAP	103	336	6
TAP	104	0	2
TAP	104	0	5
STR	104	96	1
SI_	104	96	1	96	48	5
TAP	104	144	0
STR	104	192	1
SCR	104	192	1	96	48	4
TAP	104	240	7
TAP	104	288	1
TAP	104	336	6
STR	105	0	6
SI_	105	0	6	96	48	2
STR	105	48	3
SCL	105	48	3	96	48	0
TAP	105	96	6
TAP	105	144	3
BRK	105	192	7
TAP	105	288	0
TAP	105	288	6
TAP	105	336	1
TAP	105	336	5
STR	106	0	2
SI_	106	0	2	96	48	4
STR	106	0	4
SI_	106	0	4	96	48	0
TAP	106	96	2
TAP	106	96	4
TAP	106	192	3
TAP	106	192	7
TAP	106	240	3
TAP	106	240	7
TAP	106	288	2
TAP	106	288	6
TAP	106	336	2
TAP	106	336	6
BRK	107	0	1
BRK	107	0	5
XTP	107	48	0
BST	107	96	2
SV_	107	96	2	96	48	7
BST	107	96	6
SCL	107	96	6	96	48	3
XTP	107	144	7
BRK	107	192	2
BRK	107	192	6
XTP	107	288	0
XTP	107	288	4
XTP	107	336	2
XTP	107	336	6
TAP	108	48	0
TAP	108	48	1
TAP	108	96	2
TAP	108	96	7
TAP	108	144	3
TAP	108	144	6
TAP	108	192	2
TAP	108	192	3
TAP	108	240	1
TAP	108	240	4
TAP	108	288	0
TAP	108	288	5
TAP	108	336	6
TAP	108	336	7
STR	109	0	0
SI_	109	0	0	96	48	4
TAP	109	48	5
TAP	109	96	0
TAP	109	144	6
STR	109	192	5
SI_	109	192	5	96	48	1
STR	109	192	7
SI_	109	192	7	96	48	3
BRK	109	288	5
BST	109	288	7
SCL	109	288	7	96	576	0
BRK	110	0	7
HLD	112	0	5	96
TAP	112	48	4
TAP	112	96	3
HLD	112	144	2	96
TAP	112	192	4
TAP	112	240	3
TAP	112	288	1
TAP	112	336	1
TAP	112	336	4
HLD	113	0	2	96
TAP	113	48	3
TAP	113	96	4
HLD	113	144	5	96
TAP	113	192	3
TAP	113	240	4
TAP	113	288	4
TAP	113	288	5
HLD	114	0	2	96
TAP	114	48	3
TAP	114	96	3
HLD	114	144	4	96
TAP	114	192	3
TAP	114	240	3
TAP	114	288	2
TAP	114	288	4
HLD	115	0	5	96
TAP	115	48	4
TAP	115	96	4
HLD	115	144	3	96
TAP	115	192	4
TAP	115	240	4
TAP	115	288	3
TAP	115	288	5
TAP	116	0	2
TAP	116	48	2
TAP	116	96	3
TAP	116	144	3
TAP	116	192	4
TAP	116	240	4
TAP	116	288	5
TAP	116	336	4
HLD	116	336	5	192
TAP	117	48	4
TAP	117	144	3
TAP	117	240	2
STR	117	240	5
SI_	117	240	5	96	48	3

T_REC_TAP	544
T_REC_BRK	42
T_REC_XTP	31
T_REC_HLD	47
T_REC_XHO	0
T_REC_STR	92
T_REC_BST	3
T_REC_XST	4
T_REC_TTP	50
T_REC_THO	1
T_REC_SLD	99
T_REC_ALL	913
T_NUM_TAP	721
T_NUM_BRK	45
T_NUM_HLD	48
T_NUM_SLD	99
T_NUM_ALL	913
T_JUDGE_TAP	766
T_JUDGE_HLD	188
T_JUDGE_SLD	99
T_JUDGE_ALL	1053
TTM_EACHPAIRS	160
TTM_SCR_TAP	360500
TTM_SCR_BRK	117000
TTM_SCR_HLD	48000
TTM_SCR_SLD	148500
TTM_SCR_ALL	674000
TTM_SCR_S	649450
TTM_SCR_SS	669500
TTM_RAT_ACV	10067

