VERSION	0.00.00	1.03.00
FES_MODE	0
BPM_DEF	190.000	190.000	190.000	190.000
MET_DEF	4	4
RESOLUTION	384
CLK_DEF	384
COMPATIBLE_CODE	MA2

BPM	0	0	190.000
MET	0	0	4	4

HLD	2	0	3	144
HLD	2	0	4	144
HLD	3	0	2	144
TAP	3	0	3
TAP	4	0	4
HLD	4	0	5	144
HLD	5	0	3	144
HLD	5	0	4	144
XTP	5	192	3
XTP	5	192	4
XTP	5	288	2
XTP	5	288	5
HLD	6	0	4	144
HLD	6	0	6	144
TAP	6	192	4
TAP	6	192	6
HLD	7	0	1	144
HLD	7	0	3	144
TAP	7	192	1
TAP	7	192	3
HLD	8	0	4	144
HLD	8	0	6	144
TAP	8	192	4
TAP	8	192	6
TAP	8	288	4
TAP	8	288	6
STR	9	0	2
SI_	9	0	2	96	96	0
STR	9	0	5
SI_	9	0	5	96	96	7
TTP	10	0	1	B	0	M1
TTP	10	0	1	E	0	M1
TTP	10	192	6	B	0	M1
TTP	10	192	7	E	0	M1
TTP	11	0	5	E	0	M1
TTP	11	96	4	E	0	M1
TTP	11	192	3	E	0	M1
TTP	12	0	1	B	0	M1
TTP	12	0	2	E	0	M1
TTP	12	192	6	B	0	M1
TTP	12	192	6	E	0	M1
TTP	13	0	1	E	0	M1
TTP	13	96	0	E	0	M1
TTP	13	192	7	E	0	M1
TTP	14	0	5	B	0	M1
TTP	14	0	5	E	0	M1
TTP	14	192	1	B	0	M1
TTP	14	192	1	E	0	M1
TTP	15	0	4	E	0	M1
TTP	15	96	0	C	0	M1
TTP	15	192	0	E	0	M1
TTP	16	0	6	B	0	M1
TTP	16	0	7	E	0	M1
TTP	16	192	2	B	0	M1
TTP	16	192	3	E	0	M1
TTP	17	0	0	E	0	M1
TTP	17	96	0	C	0	M1
TTP	17	192	4	E	0	M1
XTP	18	0	5
TAP	18	96	4
HLD	18	96	6	144
TAP	18	240	5
TAP	18	288	5
TAP	19	0	2
HLD	19	96	1	144
TAP	19	96	3
TAP	19	240	2
TAP	19	288	2
TAP	20	0	5
TAP	20	96	4
HLD	20	96	6	144
TAP	20	240	5
TAP	20	288	5
TAP	21	0	4
TAP	21	96	3
TAP	21	96	4
XTP	21	192	2
XTP	21	192	5
TAP	22	0	6
TAP	22	0	7
TAP	22	96	5
TAP	22	144	5
TAP	22	240	3
TAP	22	288	3
TAP	23	0	2
TAP	23	0	4
TAP	23	96	1
TAP	23	144	1
TAP	23	240	7
TAP	23	288	7
TAP	24	0	3
TAP	24	0	6
TAP	24	96	2
TAP	24	96	4
TAP	24	144	2
TAP	24	144	4
TAP	24	240	3
TAP	24	240	5
TAP	24	288	3
TAP	24	288	5
TAP	25	0	0
TAP	25	48	7
TAP	25	96	0
TAP	25	192	0
TAP	25	192	7
XTP	25	288	1
XTP	25	288	6
TAP	26	0	4
STR	26	0	5
SCR	26	0	5	96	96	0
TAP	26	192	1
TAP	26	288	1
STR	27	0	2
SCL	27	0	2	96	96	7
TAP	27	0	3
TAP	27	192	6
TAP	27	288	6
TAP	28	0	4
STR	28	0	5
SCR	28	0	5	96	96	0
TAP	28	192	1
TAP	28	288	1
HLD	29	0	2	96
TAP	29	0	3
HLD	29	96	0	96
HLD	29	192	7	96
TAP	29	288	5
XTP	30	0	4
XTP	30	0	5
TAP	30	96	3
TAP	30	96	6
XTP	30	192	2
XTP	30	192	3
TAP	30	288	1
TAP	30	288	4
XTP	31	0	0
XTP	31	0	1
TAP	31	96	2
TAP	31	96	7
XTP	31	192	6
XTP	31	192	7
TAP	31	288	0
TAP	31	288	5
XTP	32	0	1
TAP	32	48	1
XTP	32	96	7
TAP	32	144	7
XTP	32	192	0
TAP	32	240	0
XTP	32	288	6
XST	33	0	1
SV_	33	0	1	96	96	4
XST	33	0	7
SV_	33	0	7	96	96	4
BRK	33	288	2
BRK	33	288	6
HLD	34	0	1	768
TAP	34	0	5
TAP	34	96	4
TAP	34	192	3
TAP	34	288	4
TAP	35	0	5
TAP	35	96	4
TAP	35	192	3
TAP	35	288	4
HLD	36	0	6	288
TAP	36	96	3
TAP	36	192	4
TAP	36	288	3
TTP	37	0	5	B	0	M1
TTP	37	0	6	E	0	M1
TTP	37	96	1	B	0	M1
TTP	37	96	2	E	0	M1
TTP	37	192	0	E	0	M1
TTP	37	192	7	B	0	M1
TTP	37	288	3	B	0	M1
TTP	37	288	4	E	0	M1
XTP	38	0	1
XHO	38	0	5	1056
TAP	38	96	7
TTP	38	192	2	E	0	M1
TTP	38	288	0	C	0	M1
TAP	39	0	0
TAP	39	96	7
TTP	39	192	2	E	0	M1
TTP	39	288	0	C	0	M1
TAP	40	0	0
TAP	40	96	7
TTP	40	192	2	E	0	M1
TTP	40	288	0	C	0	M1
TTP	41	0	0	E	0	M1
TTP	41	0	7	B	0	M1
TTP	41	96	3	B	0	M1
TTP	41	96	4	E	0	M1
TTP	41	192	5	B	0	M1
TTP	41	192	6	E	0	M1
TTP	41	288	1	B	0	M1
TTP	41	288	2	E	0	M1
XHO	42	0	7	96
HLD	42	96	6	96
HLD	42	192	5	96
HLD	42	288	4	96
XHO	43	0	3	96
HLD	43	96	2	96
HLD	43	192	1	96
HLD	43	288	0	96
TAP	44	0	7
TAP	44	48	7
TAP	44	96	1
TAP	44	144	1
TAP	44	192	6
TAP	44	240	6
TAP	44	288	0
TAP	44	336	0
XST	45	0	7
SCL	45	0	7	96	120	3
SCR	45	0	7	96	120	3
TTP	45	288	0	C	0	M1
XST	46	0	1
SI_	46	0	1	96	48	3
STR	46	96	7
SI_	46	96	7	96	48	5
STR	46	192	4
SI_	46	192	4	96	48	0
TAP	46	288	7
TAP	46	336	7
TAP	47	48	1
TAP	47	48	4
TAP	47	96	1
TAP	47	96	4
TAP	47	192	2
XTP	47	240	3
XTP	47	288	3
STR	48	0	1
SUR	48	0	1	96	48	5
TAP	48	96	7
STR	48	192	6
SUL	48	192	6	96	48	2
TAP	48	288	0
TAP	48	336	0
TAP	49	48	1
TAP	49	48	3
TAP	49	96	1
TAP	49	96	3
TAP	49	192	4
TAP	49	192	6
XTP	49	288	0
XTP	49	288	7
STR	50	0	6
SI_	50	0	6	96	48	4
STR	50	96	0
SI_	50	96	0	96	48	2
STR	50	192	3
SI_	50	192	3	96	48	7
TAP	50	288	0
TAP	50	336	0
TAP	51	48	3
TAP	51	48	6
TAP	51	96	3
TAP	51	96	6
TAP	51	192	5
XTP	51	240	4
XTP	51	288	4
HLD	52	0	6	96
TAP	52	0	7
TAP	52	96	4
TAP	52	192	0
HLD	52	192	1	96
TAP	52	288	3
TAP	52	336	3
TAP	53	48	4
TAP	53	48	6
TAP	53	96	4
TAP	53	96	6
TAP	53	192	0
TAP	53	192	7
BRK	53	288	1
BRK	53	288	4
STR	54	0	6
SI_	54	0	6	96	48	4
STR	54	96	2
SI_	54	96	2	96	48	0
STR	54	192	7
SI_	54	192	7	96	48	3
TAP	54	288	2
TAP	54	336	2
TAP	55	48	1
TAP	55	48	4
TAP	55	96	1
TAP	55	96	4
TAP	55	192	0
XTP	55	240	7
XTP	55	288	7
STR	56	0	1
SUR	56	0	1	96	48	5
TAP	56	96	0
STR	56	192	6
SUL	56	192	6	96	48	2
TAP	56	288	7
TAP	56	336	7
TAP	57	48	1
TAP	57	48	3
TAP	57	96	1
TAP	57	96	3
TAP	57	192	4
TAP	57	192	6
XTP	57	288	0
XTP	57	288	7
STR	58	0	1
SI_	58	0	1	96	48	3
STR	58	96	5
SI_	58	96	5	96	48	7
STR	58	192	0
SI_	58	192	0	96	48	4
TAP	58	288	5
TAP	58	336	5
TAP	59	48	3
TAP	59	48	6
TAP	59	96	3
TAP	59	96	6
TAP	59	192	7
XTP	59	240	0
XTP	59	288	0
TAP	60	0	2
TAP	60	48	1
TAP	60	48	3
TAP	60	144	5
TAP	60	192	4
HLD	60	192	6	96
TAP	60	288	2
TAP	60	336	2
TAP	61	48	1
TAP	61	48	4
TAP	61	96	1
TAP	61	96	4
TTP	61	192	2	B	0	M1
TTP	61	192	3	E	0	M1
TTP	61	192	5	B	0	M1
TTP	61	192	5	E	0	M1
BRK	61	288	0
BRK	61	288	7
XHO	62	0	1	144
XHO	62	0	6	144
TAP	63	0	4
HLD	63	0	5	144
HLD	64	0	2	144
TAP	64	0	3
HLD	65	0	3	144
HLD	65	0	4	144
XTP	65	192	3
XTP	65	192	4
XTP	65	288	2
XTP	65	288	5
HLD	66	0	4	144
HLD	66	0	6	144
TAP	66	192	4
TAP	66	192	6
HLD	67	0	1	144
HLD	67	0	3	144
TAP	67	192	1
TAP	67	192	3
HLD	68	0	4	144
HLD	68	0	6	144
TAP	68	192	4
TAP	68	192	6
TAP	68	288	3
TAP	68	288	5
STR	69	0	2
SV_	69	0	2	96	144	7
STR	69	0	4
SV_	69	0	4	96	144	7
HLD	70	0	5	384
TAP	70	96	4
TAP	70	192	4
TAP	70	288	4
HLD	71	0	2	384
TAP	71	96	3
TAP	71	192	3
TAP	71	288	3
HLD	72	0	6	384
TAP	72	96	4
TAP	72	192	4
TAP	72	288	4
HLD	73	0	1	384
TAP	73	96	3
TAP	73	192	3
TAP	73	288	3
HLD	74	0	7	48
HLD	74	96	0	48
HLD	74	96	6	48
HLD	74	192	1	48
HLD	74	192	5	48
HLD	74	288	2	48
HLD	74	288	4	48
HLD	75	0	0	48
HLD	75	96	1	48
HLD	75	96	7	48
HLD	75	192	2	48
HLD	75	192	6	48
TAP	75	288	3
TAP	75	288	5
TAP	76	0	4
TAP	76	48	5
TAP	76	96	6
TAP	76	144	7
TAP	76	192	0
TAP	76	240	1
TAP	76	288	2
TAP	76	336	3
STR	77	0	4
SCR	77	0	4	96	192	3
TTP	78	0	0	C	0	M1
TTP	78	96	5	E	0	M1
TTP	78	192	3	E	0	M1
BRK	78	288	0
BRK	78	288	7
XTP	79	0	6
XTP	79	0	7
TTP	79	96	0	C	0	M1
TTP	79	96	6	B	0	M1
XTP	79	192	0
XTP	79	192	1
TTP	79	288	0	C	0	M1
TTP	79	288	1	B	0	M1
XTP	80	0	6
XTP	80	0	7
TTP	80	96	0	C	0	M1
TTP	80	96	6	B	0	M1
XTP	80	192	0
XTP	80	192	1
XTP	80	288	2
XTP	80	288	7
TAP	81	0	6
TAP	81	48	6
TAP	81	96	4
TAP	81	192	3
TAP	81	192	5
TAP	81	288	2
TAP	81	288	6
XTP	82	0	1
XTP	82	0	7
TTP	82	96	0	C	0	M1
TTP	82	96	1	B	0	M1
TTP	82	96	7	B	0	M1
XTP	82	192	0
XTP	82	192	6
TTP	82	288	0	B	0	M1
TTP	82	288	0	C	0	M1
TTP	82	288	6	B	0	M1
XTP	83	0	1
XTP	83	0	7
TTP	83	96	0	C	0	M1
TTP	83	96	1	B	0	M1
TTP	83	96	7	B	0	M1
XTP	83	192	0
XTP	83	192	6
TTP	83	288	0	B	0	M1
TTP	83	288	0	C	0	M1
TTP	83	288	6	B	0	M1
XTP	84	0	1
XTP	84	0	7
TTP	84	96	0	C	0	M1
TTP	84	96	1	B	0	M1
TTP	84	96	7	B	0	M1
XTP	84	192	0
XTP	84	192	6
XTP	84	288	1
XTP	84	288	5
TAP	85	0	2
TAP	85	48	2
TAP	85	96	4
TAP	85	192	3
TAP	85	192	5
BRK	85	288	0
BRK	85	288	7
STR	86	0	2
SCL	86	0	2	96	96	7
TAP	86	0	3
TAP	86	192	6
TAP	86	288	6
TAP	87	0	4
STR	87	0	5
SCR	87	0	5	96	96	0
TAP	87	192	1
TAP	87	288	1
STR	88	0	2
SCL	88	0	2	96	96	7
TAP	88	0	3
TAP	88	192	6
TAP	88	288	6
TAP	89	0	4
HLD	89	0	5	96
HLD	89	96	7	96
HLD	89	192	0	96
TAP	89	288	2
XTP	90	0	2
XTP	90	0	3
TAP	90	96	1
TAP	90	96	4
XTP	90	192	4
XTP	90	192	5
TAP	90	288	3
TAP	90	288	6
XTP	91	0	6
XTP	91	0	7
TAP	91	96	0
TAP	91	96	5
XTP	91	192	0
XTP	91	192	1
TAP	91	288	2
TAP	91	288	7
XTP	92	0	6
TAP	92	48	6
XTP	92	96	1
TAP	92	144	1
XTP	92	192	7
XTP	92	216	0
XTP	92	240	7
XTP	92	264	0
XTP	92	288	7
XTP	92	312	0
XTP	92	336	7
XTP	92	360	0
XST	93	0	7
SSR	93	0	7	96	144	3
TAP	94	0	1
TAP	94	0	4
TAP	94	192	3
TAP	94	192	6
XTP	94	336	0
XTP	94	336	7
XTP	95	48	2
XTP	95	48	5
XTP	95	96	2
XTP	95	96	5
XTP	95	192	0
XTP	95	192	7
TTP	95	288	0	C	1	M1
XST	96	0	1
SCR	96	0	1	96	48	4
TAP	96	96	5
STR	96	192	6
SUL	96	192	6	96	48	2
TAP	96	288	0
TAP	96	336	0
TAP	97	48	1
TAP	97	48	3
TAP	97	96	1
TAP	97	96	3
TAP	97	192	4
TAP	97	192	6
XTP	97	288	0
XTP	97	288	7
STR	98	0	1
SI_	98	0	1	96	48	3
STR	98	96	6
SI_	98	96	6	96	48	2
STR	98	192	4
SI_	98	192	4	96	48	0
TAP	98	288	7
TAP	98	336	7
TAP	99	48	1
TAP	99	48	4
TAP	99	96	1
TAP	99	96	4
TAP	99	192	2
XTP	99	240	3
XTP	99	288	3
TAP	100	0	0
TAP	100	0	1
TAP	100	96	2
TAP	100	96	4
TAP	100	192	6
TAP	100	192	7
TAP	100	288	3
TAP	100	288	5
TAP	100	336	3
TAP	100	336	5
TAP	101	48	1
TAP	101	48	4
TAP	101	96	1
TAP	101	96	4
TAP	101	192	0
TAP	101	192	7
BRK	101	288	2
BRK	101	288	5
STR	102	0	6
SI_	102	0	6	96	48	4
STR	102	96	1
SI_	102	96	1	96	48	5
STR	102	192	3
SI_	102	192	3	96	48	7
TAP	102	288	0
TAP	102	336	0
TAP	103	48	3
TAP	103	48	6
TAP	103	96	3
TAP	103	96	6
TAP	103	192	1
TAP	103	192	4
TAP	103	288	0
TAP	103	288	7
STR	104	0	6
SCL	104	0	6	96	48	3
TAP	104	96	2
STR	104	192	1
SUR	104	192	1	96	48	5
TAP	104	288	7
TAP	104	336	7
TAP	105	48	4
TAP	105	48	6
TAP	105	96	4
TAP	105	96	6
TAP	105	192	1
TAP	105	192	3
XTP	105	288	0
XTP	105	288	7
STR	106	0	1
SI_	106	0	1	96	48	3
STR	106	96	6
SI_	106	96	6	96	48	2
STR	106	192	4
SI_	106	192	4	96	48	0
TAP	106	288	7
TAP	106	336	7
TAP	107	48	1
TAP	107	48	4
TAP	107	96	1
TAP	107	96	4
TAP	107	192	3
TAP	107	192	7
TAP	107	288	1
TAP	107	288	5
TAP	107	336	1
TAP	107	336	5
XTP	108	48	0
XTP	108	48	2
TAP	108	144	6
TAP	108	192	5
TAP	108	192	7
TAP	108	288	3
TAP	108	288	4
TAP	108	336	3
TAP	108	336	4
TAP	109	48	0
TAP	109	48	7
TAP	109	96	0
TAP	109	96	7
TAP	109	192	5
TAP	109	192	6
TAP	109	288	1
TAP	109	288	2
BST	110	0	0
SCR	110	0	0	96	480	7
BST	110	0	7
SCL	110	0	7	96	480	0
HLD	112	0	2	384
TAP	112	96	3
TAP	112	192	4
TAP	112	288	5
HLD	113	0	6	384
TAP	113	96	5
TAP	113	192	4
TAP	113	288	3
HLD	114	0	2	384
TAP	114	96	3
TAP	114	192	4
TAP	114	288	5
HLD	115	0	6	384
TAP	115	96	5
TAP	115	192	4
TAP	115	288	3
TAP	116	0	2
TAP	116	96	3
TAP	116	192	4
TAP	116	288	5
TAP	117	0	6
TAP	117	96	7
TAP	117	192	0
TAP	117	288	1
STR	118	0	2
SXR	118	0	2	96	384	5
TAP	118	0	6

T_REC_TAP	333
T_REC_BRK	12
T_REC_XTP	96
T_REC_HLD	62
T_REC_XHO	5
T_REC_STR	39
T_REC_BST	2
T_REC_XST	6
T_REC_TTP	80
T_REC_THO	0
T_REC_SLD	48
T_REC_ALL	683
T_NUM_TAP	554
T_NUM_BRK	14
T_NUM_HLD	67
T_NUM_SLD	48
T_NUM_ALL	683
T_JUDGE_TAP	568
T_JUDGE_HLD	235
T_JUDGE_SLD	48
T_JUDGE_ALL	851
TTM_EACHPAIRS	164
TTM_SCR_TAP	277000
TTM_SCR_BRK	36400
TTM_SCR_HLD	67000
TTM_SCR_SLD	72000
TTM_SCR_ALL	452400
TTM_SCR_S	437500
TTM_SCR_SS	451000
TTM_RAT_ACV	10031

