VERSION	0.00.00	1.03.00
FES_MODE	0
BPM_DEF	190.000	190.000	190.000	190.000
MET_DEF	4	4
RESOLUTION	384
CLK_DEF	384
COMPATIBLE_CODE	MA2

BPM	0	0	190.000
MET	0	0	4	4

HLD	2	0	2	384
HLD	3	0	3	384
HLD	4	0	4	384
TAP	5	0	5
TAP	5	192	4
TAP	5	192	5
HLD	6	0	6	192
TAP	6	192	7
HLD	7	0	1	192
TAP	7	192	0
HLD	8	0	6	192
TAP	8	192	7
TAP	9	0	0
TAP	9	0	7
TAP	9	96	0
TAP	9	96	7
XTP	9	192	1
XTP	9	192	6
STR	10	0	5
SI_	10	0	5	96	192	0
STR	11	0	1
SI_	11	0	1	96	192	5
STR	12	0	6
SI_	12	0	6	96	192	2
TAP	13	0	1
TAP	13	192	0
TAP	13	192	7
STR	14	0	6
SUL	14	0	6	96	192	2
STR	15	0	1
SUR	15	0	1	96	192	5
STR	16	0	6
SCL	16	0	6	96	192	3
TAP	17	0	2
TAP	17	96	1
XTP	17	192	0
XTP	17	192	7
TAP	18	0	6
TAP	18	96	6
TAP	18	192	6
TAP	18	192	7
TAP	19	0	1
TAP	19	96	1
TAP	19	192	0
TAP	19	192	1
TAP	20	0	6
TAP	20	96	6
TAP	20	192	7
TAP	20	288	7
TAP	21	0	0
TAP	21	96	0
TAP	21	192	1
TAP	21	192	7
TAP	22	0	2
TAP	22	96	2
TAP	22	192	2
TAP	22	192	3
TAP	23	0	5
TAP	23	96	5
TAP	23	192	4
TAP	23	192	5
TAP	24	0	2
TAP	24	96	2
TAP	24	192	3
TAP	24	288	3
TAP	25	0	4
TAP	25	96	4
TAP	25	192	3
TAP	25	192	5
TTP	26	0	3	B	0	L1
TTP	26	192	2	B	0	L1
TTP	27	0	1	B	0	L1
TTP	27	192	0	B	0	L1
TTP	28	0	7	B	0	L1
TTP	28	192	6	B	0	L1
TTP	29	0	5	B	0	L1
TTP	29	192	0	C	0	L1
XTP	30	0	7
XTP	30	96	7
TAP	30	192	0
TAP	30	288	0
TAP	31	0	1
TAP	31	96	1
TAP	31	192	2
TAP	31	288	2
TAP	32	0	3
TAP	32	48	3
TAP	32	96	3
TAP	32	192	4
TAP	32	240	4
TAP	32	288	4
BRK	33	0	2
BRK	33	0	5
XHO	34	0	5	192
TAP	34	192	4
TAP	34	288	3
HLD	35	0	2	192
TAP	35	192	3
TAP	35	288	4
HLD	36	0	5	192
TAP	36	192	4
TAP	36	288	3
TAP	37	0	2
TAP	37	0	3
TAP	37	96	2
TAP	37	96	3
TAP	37	192	1
TAP	37	192	4
XHO	38	0	1	192
TAP	38	192	0
TAP	38	288	7
HLD	39	0	6	192
TAP	39	192	7
TAP	39	288	0
HLD	40	0	1	192
TAP	40	192	0
TAP	40	288	7
TAP	41	0	0
TAP	41	0	7
TAP	41	96	0
TAP	41	96	7
TAP	41	192	1
TAP	41	192	6
TAP	42	0	5
TAP	42	96	4
TAP	42	192	3
TAP	42	288	2
TAP	43	0	1
TAP	43	96	0
TAP	43	192	7
TAP	43	288	6
TAP	44	0	5
TAP	44	48	5
TAP	44	96	5
TAP	44	192	3
TAP	44	240	3
TAP	44	288	3
XTP	45	0	2
XTP	45	0	4
TAP	46	0	6
TAP	46	96	6
TAP	46	192	6
TAP	46	192	7
TAP	46	288	6
TAP	46	288	7
TAP	47	0	5
TAP	47	96	4
TAP	47	192	3
TAP	47	192	5
TAP	48	0	2
TAP	48	96	2
TAP	48	192	2
TAP	48	192	3
TAP	48	288	2
TAP	48	288	3
TAP	49	0	1
TAP	49	96	0
XTP	49	192	0
XTP	49	192	7
TAP	50	0	1
TAP	50	96	1
TAP	50	192	0
TAP	50	192	1
TAP	50	288	0
TAP	50	288	1
TAP	51	0	2
TAP	51	96	3
TAP	51	192	2
TAP	51	192	4
TAP	52	0	5
TAP	52	96	4
TAP	52	96	5
TAP	52	192	2
TAP	52	288	2
TAP	52	288	3
TAP	53	0	4
TAP	53	96	3
TAP	53	96	4
BRK	53	192	2
BRK	53	192	5
TAP	54	0	1
TAP	54	96	0
TAP	54	96	1
TAP	54	192	1
TAP	54	288	0
TAP	54	288	1
TAP	55	0	2
TAP	55	96	2
TAP	55	96	3
TAP	55	192	1
TAP	55	192	4
TAP	56	0	5
TAP	56	96	4
TAP	56	96	5
TAP	56	192	5
TAP	56	288	4
TAP	56	288	5
TAP	57	0	6
TAP	57	96	0
TAP	57	96	7
XTP	57	192	1
XTP	57	192	6
TAP	58	0	6
TAP	58	96	6
TAP	58	96	7
TAP	58	192	6
TAP	58	288	6
TAP	58	288	7
TAP	59	0	5
TAP	59	96	4
TAP	59	96	5
TAP	59	192	3
TAP	59	192	6
TAP	60	0	2
TAP	60	96	2
TAP	60	96	3
TAP	60	192	5
TAP	60	288	4
TAP	60	288	5
TAP	61	0	3
TAP	61	96	3
TAP	61	96	4
BRK	61	192	2
BRK	61	192	5
HLD	62	0	1	384
HLD	63	0	0	384
HLD	64	0	7	384
TAP	65	0	6
TAP	65	192	0
TAP	65	192	5
HLD	66	0	5	384
HLD	67	0	4	384
HLD	68	0	3	384
TAP	69	0	2
TAP	69	96	2
TAP	69	192	3
TAP	69	192	4
TAP	70	0	5
TAP	70	96	5
TAP	70	192	4
TAP	70	288	4
TAP	71	0	3
TAP	71	96	3
TAP	71	192	2
TAP	71	192	4
TAP	72	0	1
TAP	72	96	1
TAP	72	192	0
TAP	72	288	0
TAP	73	0	7
TAP	73	96	7
TAP	73	192	0
TAP	73	192	6
TAP	74	0	5
TAP	74	96	4
TAP	74	192	3
TAP	74	288	2
TAP	75	0	1
TAP	75	96	0
TAP	75	192	7
TAP	75	288	6
TAP	76	0	5
TAP	76	48	5
TAP	76	96	5
TAP	76	192	2
TAP	76	240	2
TAP	76	288	2
STR	77	0	3
SCL	77	0	3	96	192	0
STR	77	0	4
SCR	77	0	4	96	192	7
TAP	78	0	0
TAP	78	0	7
TAP	78	96	0
TAP	78	96	7
BRK	78	192	1
BRK	78	192	6
TTP	79	0	7	E	0	L1
TTP	79	96	6	B	0	L1
TTP	79	192	5	B	0	L1
TTP	80	0	1	E	0	L1
TTP	80	96	1	B	0	L1
TTP	80	192	2	B	0	L1
TTP	81	0	5	E	0	L1
TTP	81	96	4	E	0	L1
TTP	81	192	3	E	0	L1
TTP	82	0	5	B	0	L1
TTP	82	96	6	B	0	L1
TTP	82	192	7	E	0	L1
TTP	83	0	2	B	0	L1
TTP	83	96	1	B	0	L1
TTP	83	192	1	E	0	L1
TTP	84	0	7	E	0	L1
TTP	84	96	0	E	0	L1
TTP	84	192	1	E	0	L1
TTP	85	0	1	B	0	L1
TTP	85	0	6	B	0	L1
TTP	85	96	2	B	0	L1
TTP	85	96	5	B	0	L1
TTP	85	192	3	E	0	L1
TTP	85	192	5	E	0	L1
XHO	86	0	6	192
XTP	86	192	4
XTP	86	288	3
HLD	87	0	2	192
TAP	87	192	3
TAP	87	288	4
HLD	88	0	5	192
TAP	88	192	4
TAP	88	288	3
TAP	89	0	2
TAP	89	96	3
TAP	89	96	4
XTP	89	192	2
XTP	89	192	5
TAP	90	0	6
TAP	90	96	7
TAP	90	192	0
TAP	90	288	1
TAP	91	0	2
TAP	91	96	3
TAP	91	192	4
TAP	91	288	5
TAP	92	0	6
TAP	92	48	6
TAP	92	96	6
TAP	92	192	1
TAP	92	240	1
TAP	92	288	1
BST	93	0	0
SI_	93	0	0	96	192	4
BST	93	0	7
SI_	93	0	7	96	192	3
TAP	94	0	2
TAP	94	0	5
HLD	94	192	1	144
HLD	94	192	6	144
XTP	95	96	0
XTP	95	96	7
BRK	95	192	1
BRK	95	192	6
TAP	96	0	5
TAP	96	96	4
TAP	96	96	5
TAP	96	192	5
TAP	96	288	4
TAP	96	288	5
TAP	97	0	2
TAP	97	96	2
TAP	97	96	3
TAP	97	192	1
TAP	97	192	4
TAP	98	0	1
TAP	98	96	0
TAP	98	96	1
TAP	98	192	1
TAP	98	288	0
TAP	98	288	1
TAP	99	0	2
TAP	99	96	2
TAP	99	96	3
TAP	99	192	1
TAP	99	192	4
TAP	100	0	5
TAP	100	96	4
TAP	100	96	5
TAP	100	192	2
TAP	100	288	2
TAP	100	288	3
TAP	101	0	4
TAP	101	96	3
TAP	101	96	4
XTP	101	192	2
XTP	101	192	5
TAP	102	0	6
TAP	102	96	6
TAP	102	96	7
TAP	102	192	1
TAP	102	288	0
TAP	102	288	1
TAP	103	0	2
TAP	103	96	2
TAP	103	96	3
TAP	103	192	1
TAP	103	192	4
TAP	104	0	5
TAP	104	96	4
TAP	104	96	5
TAP	104	192	2
TAP	104	288	2
TAP	104	288	3
TAP	105	0	1
TAP	105	96	0
TAP	105	96	1
TAP	105	192	2
TAP	105	192	7
TAP	106	0	6
TAP	106	96	6
TAP	106	96	7
TAP	106	192	1
TAP	106	288	0
TAP	106	288	1
TAP	107	0	2
TAP	107	96	2
TAP	107	96	3
TAP	107	192	1
TAP	107	192	4
TAP	108	0	5
TAP	108	96	4
TAP	108	96	5
TAP	108	192	2
TAP	108	288	2
TAP	108	288	3
TAP	109	0	4
TAP	109	96	3
TAP	109	96	4
TAP	109	192	2
TAP	109	192	5
TAP	109	288	2
TAP	109	288	5
BST	110	0	1
SLR	110	0	1	96	480	7
BST	110	0	6
SLL	110	0	6	96	480	0
STR	112	0	6
SI_	112	0	6	96	144	4
STR	113	0	2
SI_	113	0	2	96	144	4
STR	114	0	5
SI_	114	0	5	96	144	3
STR	115	0	1
SI_	115	0	1	96	144	3
STR	116	0	4
SCR	116	0	4	96	576	3

T_REC_TAP	315
T_REC_BRK	10
T_REC_XTP	20
T_REC_HLD	20
T_REC_XHO	3
T_REC_STR	13
T_REC_BST	4
T_REC_XST	0
T_REC_TTP	32
T_REC_THO	0
T_REC_SLD	17
T_REC_ALL	434
T_NUM_TAP	380
T_NUM_BRK	14
T_NUM_HLD	23
T_NUM_SLD	17
T_NUM_ALL	434
T_JUDGE_TAP	394
T_JUDGE_HLD	126
T_JUDGE_SLD	17
T_JUDGE_ALL	537
TTM_EACHPAIRS	94
TTM_SCR_TAP	190000
TTM_SCR_BRK	36400
TTM_SCR_HLD	23000
TTM_SCR_SLD	25500
TTM_SCR_ALL	274900
TTM_SCR_S	265300
TTM_SCR_SS	273500
TTM_RAT_ACV	10051

