VERSION	0.00.00	1.03.00
FES_MODE	0
BPM_DEF	190.000	190.000	190.000	190.000
MET_DEF	4	4
RESOLUTION	384
CLK_DEF	384
COMPATIBLE_CODE	MA2

BPM	0	0	190.000
MET	0	0	4	4

TAP	6	0	0
TAP	8	0	7
TAP	10	0	0
TAP	12	0	1
TAP	14	0	2
TAP	16	0	3
TAP	16	0	4
TAP	18	0	4
TAP	19	0	4
TAP	20	0	5
TAP	21	0	5
TAP	22	0	6
TAP	23	0	6
TAP	24	0	7
XTP	25	0	0
XTP	25	0	7
HLD	26	0	7	384
HLD	28	0	0	384
HLD	30	0	7	384
HLD	32	0	0	384
HLD	32	0	7	384
TAP	34	0	7
TAP	35	0	7
TAP	36	0	6
TAP	37	0	6
TAP	38	0	5
TAP	39	0	5
TAP	40	0	4
TAP	41	0	3
TAP	41	0	4
TAP	42	0	3
TAP	43	0	2
TAP	44	0	1
XTP	45	0	0
XTP	45	0	7
TAP	46	0	0
TAP	46	192	0
TAP	47	0	0
TAP	48	0	1
TAP	48	192	1
TAP	49	0	1
TAP	50	0	2
TAP	50	192	2
TAP	51	0	2
TAP	52	0	3
TAP	52	192	3
TAP	53	0	3
TAP	53	0	4
TAP	54	0	4
TAP	54	192	4
TAP	55	0	4
TAP	56	0	5
TAP	56	192	5
TAP	57	0	5
TAP	58	0	6
TAP	58	192	6
TAP	59	0	6
TAP	60	0	7
TAP	60	192	7
TAP	61	0	0
TAP	61	0	7
STR	62	0	0
SI_	62	0	0	96	480	3
TAP	65	0	7
STR	66	0	7
SI_	66	0	7	96	480	4
TAP	69	0	3
TAP	69	0	4
TTP	70	0	3	B	0	L1
TTP	71	0	4	B	0	L1
TTP	72	0	2	B	0	L1
TTP	73	0	5	B	0	L1
TTP	74	0	1	B	0	L1
TTP	74	0	2	B	0	L1
TTP	75	0	5	B	0	L1
TTP	75	0	6	B	0	L1
THO	76	0	0	384	C	0	L1
XTP	78	0	0
XTP	78	0	7
TAP	79	0	7
TAP	79	192	7
TAP	80	0	6
TAP	80	192	6
TAP	81	0	4
TAP	81	0	5
TAP	82	0	3
TAP	82	192	3
TAP	83	0	2
TAP	83	192	2
TAP	84	0	1
TAP	84	192	1
XTP	85	0	0
XTP	85	0	1
TAP	86	0	0
TAP	86	192	0
TAP	87	0	1
TAP	87	192	1
TAP	88	0	2
TAP	88	192	2
TAP	89	0	3
TAP	89	192	3
TAP	90	0	4
TAP	90	192	4
TAP	91	0	5
TAP	91	192	5
TAP	92	0	6
TAP	92	192	6
BRK	93	0	0
BRK	93	0	7
HLD	94	0	0	192
HLD	94	0	7	192
TAP	95	0	0
TAP	95	0	7
XTP	95	192	0
XTP	95	192	7
TAP	96	0	6
TAP	96	96	6
TAP	96	192	6
TAP	97	0	5
TAP	97	96	5
TAP	97	192	5
TAP	98	0	4
TAP	98	96	4
TAP	98	192	4
TAP	99	0	3
TAP	99	96	3
TAP	99	192	3
TAP	100	0	2
TAP	100	96	2
TAP	100	192	2
TAP	101	0	1
TAP	101	96	1
TAP	101	192	0
TAP	101	192	1
TAP	102	0	0
TAP	102	96	0
TAP	102	192	0
TAP	103	0	1
TAP	103	96	1
TAP	103	192	1
TAP	104	0	2
TAP	104	96	2
TAP	104	192	2
TAP	105	0	3
TAP	105	96	3
TAP	105	192	3
TAP	105	192	4
TAP	106	0	4
TAP	106	96	4
TAP	106	192	4
TAP	107	0	5
TAP	107	96	5
TAP	107	192	5
TAP	108	0	6
TAP	108	96	6
TAP	108	192	6
TAP	109	0	0
TAP	109	0	7
XTP	109	192	0
XTP	109	192	7
BRK	110	0	1
BRK	110	0	6
TTP	112	0	0	B	0	L1
TTP	113	0	7	B	0	L1
TTP	114	0	1	B	0	L1
TTP	114	0	2	B	0	L1
TTP	115	0	5	B	0	L1
TTP	115	0	6	B	0	L1
TTP	116	0	3	B	0	L1
TTP	116	0	4	B	0	L1
THO	117	0	0	384	C	0	L1

T_REC_TAP	126
T_REC_BRK	4
T_REC_XTP	12
T_REC_HLD	7
T_REC_XHO	0
T_REC_STR	2
T_REC_BST	0
T_REC_XST	0
T_REC_TTP	16
T_REC_THO	2
T_REC_SLD	2
T_REC_ALL	171
T_NUM_TAP	156
T_NUM_BRK	4
T_NUM_HLD	9
T_NUM_SLD	2
T_NUM_ALL	171
T_JUDGE_TAP	160
T_JUDGE_HLD	64
T_JUDGE_SLD	2
T_JUDGE_ALL	226
TTM_EACHPAIRS	20
TTM_SCR_TAP	78000
TTM_SCR_BRK	10400
TTM_SCR_HLD	9000
TTM_SCR_SLD	3000
TTM_SCR_ALL	100400
TTM_SCR_S	97000
TTM_SCR_SS	100000
TTM_RAT_ACV	10040

