VERSION	0.00.00	1.03.00
FES_MODE	0
BPM_DEF	170.000	170.000	170.000	170.000
MET_DEF	4	4
RESOLUTION	384
CLK_DEF	384
COMPATIBLE_CODE	MA2

BPM	0	0	170.000
MET	0	0	4	4

THO	1	0	0	768	C	0	M1
TAP	3	0	0
TAP	3	48	0
HLD	3	144	1	144
TTP	3	288	5	B	0	M1
TAP	4	0	1
TAP	4	96	2
HLD	4	144	2	144
TTP	4	240	4	B	0	M1
TTP	4	288	5	B	0	M1
TAP	5	0	7
TAP	5	48	7
HLD	5	144	6	144
TTP	5	288	2	B	0	M1
TAP	6	0	6
TAP	6	96	5
HLD	6	144	5	144
TTP	6	240	3	B	0	M1
TTP	6	288	2	B	0	M1
TAP	7	0	0
TAP	7	48	0
HLD	7	144	6	144
TAP	7	144	7
TTP	7	288	1	E	0	M1
TAP	8	0	4
TAP	8	96	2
TAP	8	96	3
HLD	8	144	2	144
TAP	8	144	3
TTP	8	240	6	E	0	M1
TTP	8	288	5	E	0	M1
TAP	9	0	0
TAP	9	48	0
HLD	9	144	6	144
TAP	9	144	7
TTP	9	288	1	E	0	M1
STR	10	0	4
SUL	10	0	4	96	144	3
BST	11	0	3
SI_	11	0	3	96	36	1
BRK	11	0	4
TAP	11	96	0
TAP	11	240	3
TAP	11	288	2
TAP	11	288	4
STR	12	0	3
SI_	12	0	3	96	36	1
TAP	12	0	4
TAP	12	96	0
TAP	12	144	0
TAP	12	240	6
STR	12	288	1
SI_	12	288	1	96	48	5
STR	12	336	5
SI_	12	336	5	96	48	1
STR	13	96	6
SI_	13	96	6	96	48	2
STR	13	144	2
SI_	13	144	2	96	48	6
TAP	13	240	0
STR	13	288	0
SCR	13	288	0	96	144	7
THO	14	0	0	144	C	0	M1
BRK	14	240	0
BRK	14	288	0
TAP	15	0	3
STR	15	0	4
SI_	15	0	4	96	36	6
TAP	15	96	7
TAP	15	240	4
TAP	15	288	3
TAP	15	288	5
TAP	16	0	3
STR	16	0	4
SI_	16	0	4	96	36	6
TAP	16	96	7
TAP	16	144	7
TAP	16	240	1
STR	16	288	6
SI_	16	288	6	96	48	2
STR	16	336	2
SI_	16	336	2	96	48	6
STR	17	96	1
SI_	17	96	1	96	48	5
STR	17	144	5
SI_	17	144	5	96	48	1
TAP	17	240	7
TAP	17	288	7
TTP	18	0	0	E	0	M1
TTP	18	48	1	E	0	M1
TTP	18	48	7	E	0	M1
TTP	18	96	2	E	0	M1
TTP	18	96	6	E	0	M1
TTP	18	144	3	E	0	M1
TTP	18	144	5	E	0	M1
TTP	18	192	4	E	0	M1
BRK	18	288	1
BRK	18	288	6
TAP	19	0	6
STR	19	48	6
SLL	19	48	6	96	96	0
STR	19	144	0
SLL	19	144	0	96	96	3
TAP	19	240	2
TAP	19	288	1
TAP	19	336	0
TAP	20	0	7
STR	20	48	7
SI_	20	48	7	96	36	2
SI_	20	48	7	96	36	4
TAP	20	240	1
TAP	20	240	3
TAP	20	288	2
TAP	20	288	4
TAP	20	336	5
TAP	20	360	5
TAP	21	0	4
STR	21	48	4
SLL	21	48	4	96	96	6
STR	21	144	6
SLL	21	144	6	96	96	1
TAP	21	240	0
TAP	21	288	7
TAP	21	336	6
TAP	22	0	5
TAP	22	48	3
TAP	22	48	4
TTP	22	144	2	E	0	M1
TTP	22	144	3	E	0	M1
TTP	22	144	6	E	0	M1
TTP	22	144	7	E	0	M1
TAP	22	240	0
TAP	22	240	7
TAP	22	288	1
TAP	22	312	0
TAP	22	336	2
TAP	22	360	7
TAP	23	0	1
STR	23	48	1
SLR	23	48	1	96	96	7
STR	23	144	7
SLR	23	144	7	96	96	4
TAP	23	240	5
TAP	23	288	6
TAP	23	336	7
TAP	24	0	0
STR	24	48	0
SI_	24	48	0	96	36	3
SI_	24	48	0	96	36	5
TAP	24	240	4
TAP	24	240	6
TAP	24	288	3
TAP	24	288	5
TAP	24	336	2
TAP	24	360	2
TAP	25	0	3
STR	25	48	3
SLR	25	48	3	96	96	1
STR	25	144	1
SLR	25	144	1	96	96	6
TAP	25	240	7
TAP	25	288	0
TAP	25	336	1
TAP	26	0	2
TAP	26	48	3
TAP	26	48	4
TTP	26	144	1	E	0	M1
TTP	26	144	2	E	0	M1
TTP	26	144	5	E	0	M1
TTP	26	144	6	E	0	M1
TAP	26	240	0
TAP	26	240	7
TAP	26	288	6
TAP	26	312	4
TAP	26	336	5
TAP	26	360	3
STR	27	0	4
SCL	27	0	4	96	36	2
HLD	27	48	4	144
STR	27	192	3
SCR	27	192	3	96	36	5
HLD	27	240	3	144
STR	28	0	6
SCL	28	0	6	96	36	4
HLD	28	48	6	144
STR	28	192	1
SCR	28	192	1	96	36	3
HLD	28	240	1	144
STR	29	0	4
SCR	29	0	4	96	36	6
HLD	29	48	4	144
STR	29	192	3
SCL	29	192	3	96	36	1
HLD	29	240	3	144
STR	30	0	5
SCR	30	0	5	96	36	7
HLD	30	48	5	144
STR	30	192	2
SCL	30	192	2	96	36	0
HLD	30	240	2	144
HLD	31	0	4	48
HLD	31	96	4	48
HLD	31	96	5	48
HLD	31	192	3	48
HLD	31	192	4	48
HLD	31	288	4	48
HLD	31	288	6	48
HLD	32	0	2	48
HLD	32	0	4	48
HLD	32	96	4	48
HLD	32	96	7	48
HLD	32	192	1	48
HLD	32	192	4	48
HLD	32	288	0	48
HLD	32	288	4	48
TAP	33	0	2
TAP	33	24	3
TAP	33	48	2
TAP	33	72	3
TAP	33	96	1
TAP	33	120	4
TAP	33	144	1
TAP	33	168	4
TAP	33	192	0
TAP	33	216	5
TAP	33	240	0
TAP	33	264	5
TAP	33	288	7
TAP	33	312	6
TAP	33	336	7
TAP	33	360	6
TTP	34	0	1	E	0	M1
TTP	34	16	2	E	0	M1
TTP	34	32	3	E	0	M1
TTP	34	48	7	E	0	M1
TTP	34	64	6	E	0	M1
TTP	34	80	5	E	0	M1
XTP	34	96	0
XTP	34	108	1
XTP	34	120	2
XTP	34	132	3
XTP	34	144	7
XTP	34	156	6
XTP	34	168	5
XTP	34	180	4
THO	34	192	0	192	C	1	M1
TAP	35	288	6
STR	35	288	7
SI_	35	288	7	96	48	5
STR	36	0	0
SI_	36	0	0	96	48	4
XTP	36	0	7
XTP	36	96	0
STR	36	96	1
SCL	36	96	1	96	120	5
XTP	36	192	1
XTP	36	192	3
TAP	36	288	3
HLD	36	336	3	96
TTP	37	48	4	B	0	M1
TTP	37	48	4	E	0	M1
TAP	37	144	2
TAP	37	144	7
TAP	37	192	1
TAP	37	192	6
TAP	37	240	0
TAP	37	240	5
BRK	37	288	7
TAP	38	0	6
TAP	38	24	3
TAP	38	48	5
TAP	38	72	2
HLD	38	96	4	48
TTP	38	144	3	E	0	M1
TAP	38	192	1
TAP	38	216	5
TAP	38	240	2
TAP	38	264	6
HLD	38	288	3	48
TTP	38	336	5	E	0	M1
TAP	39	0	6
TAP	39	24	2
TAP	39	48	5
TAP	39	72	1
HLD	39	96	4	48
TTP	39	144	3	E	0	M1
TAP	39	192	1
TAP	39	216	5
TAP	39	240	2
TAP	39	264	6
STR	39	288	3
SI_	39	288	3	96	48	1
XTP	40	0	3
STR	40	0	4
SI_	40	0	4	96	48	0
XTP	40	96	4
STR	40	96	5
SCL	40	96	5	96	120	1
XTP	40	192	5
XTP	40	192	7
TAP	40	288	7
HLD	40	336	7	96
TTP	41	48	3	B	0	M1
TTP	41	48	4	E	0	M1
TAP	41	144	0
TAP	41	144	5
TAP	41	192	1
TAP	41	192	6
TAP	41	240	2
TAP	41	240	7
BRK	41	288	0
TAP	42	0	1
TAP	42	24	4
TAP	42	48	2
TAP	42	72	5
HLD	42	96	3	48
TTP	42	144	5	E	0	M1
TAP	42	192	6
TAP	42	216	2
TAP	42	240	5
TAP	42	264	1
HLD	42	288	4	48
TTP	42	336	3	E	0	M1
BST	43	0	1
SI_	43	0	1	96	48	6
TAP	43	192	4
TAP	43	240	3
TAP	43	288	2
TAP	43	288	5
XTP	44	0	1
XTP	44	0	7
TAP	44	48	0
TAP	44	96	6
TAP	44	96	7
TAP	44	144	5
TAP	44	192	3
TAP	44	192	4
TAP	44	240	2
TAP	44	288	0
TAP	44	288	1
STR	44	336	0
SI_	44	336	0	96	36	4
TAP	44	336	1
TTP	45	48	2	B	0	M1
TTP	45	48	3	B	0	M1
TAP	45	144	5
TAP	45	192	4
TAP	45	192	5
TTP	45	288	0	E	0	M1
TTP	45	288	1	E	0	M1
TTP	45	288	2	E	0	M1
STR	46	0	5
SI_	46	0	5	96	36	0
TAP	46	24	3
TAP	46	48	6
TAP	46	72	4
XTP	46	96	5
STR	46	192	3
SI_	46	192	3	96	36	7
TAP	46	216	5
TAP	46	240	2
TAP	46	264	4
XTP	46	288	3
STR	47	0	4
SI_	47	0	4	96	36	0
TAP	47	24	2
TAP	47	48	5
TAP	47	72	3
XTP	47	96	4
STR	47	192	2
SI_	47	192	2	96	36	7
TAP	47	216	4
TAP	47	240	1
TAP	47	264	3
XTP	47	288	2
XTP	48	0	0
XTP	48	0	6
TAP	48	48	7
TAP	48	96	0
TAP	48	96	1
TAP	48	144	2
TAP	48	192	3
TAP	48	192	4
TAP	48	240	5
TAP	48	288	6
TAP	48	288	7
TAP	48	336	6
STR	48	336	7
SI_	48	336	7	96	36	3
TTP	49	48	4	B	0	M1
TTP	49	48	5	B	0	M1
TAP	49	144	2
TAP	49	192	2
TAP	49	192	3
TTP	49	288	0	E	0	M1
TTP	49	288	6	E	0	M1
TTP	49	288	7	E	0	M1
STR	50	0	2
SI_	50	0	2	96	36	7
TAP	50	24	4
TAP	50	48	1
TAP	50	72	3
XTP	50	96	2
STR	50	192	5
SI_	50	192	5	96	36	0
TAP	50	216	3
TAP	50	240	6
TAP	50	264	4
XTP	50	288	5
TTP	51	0	0	C	1	M1
TTP	51	0	3	B	0	M1
TTP	51	0	4	B	0	M1
TAP	51	144	0
TAP	51	168	7
STR	51	192	1
SCR	51	192	1	96	24	3
STR	51	192	6
SCL	51	192	6	96	24	4
THO	52	0	0	1056	C	0	M1
TTP	53	0	1	B	0	M1
TTP	53	144	1	E	0	M1
TTP	53	288	0	B	0	M1
TTP	53	288	0	E	0	M1
TTP	54	0	6	B	0	M1
TTP	54	144	7	E	0	M1
TTP	54	288	0	E	0	M1
TTP	54	288	7	B	0	M1
TAP	55	48	1
TAP	55	96	2
TAP	55	144	5
STR	55	192	6
SI_	55	192	6	96	48	1
TTP	55	288	0	C	0	M1
BRK	56	0	0
BRK	56	0	7
TAP	56	144	2
TAP	56	192	3
STR	56	192	4
SUL	56	192	4	96	96	7
STR	56	288	7
SCL	56	288	7	96	144	2
HLD	57	0	1	96
TAP	57	144	0
XST	57	192	0
SI_	57	192	0	96	48	4
XTP	57	288	0
XST	57	288	3
SI_	57	288	3	96	48	7
XTP	58	0	2
XTP	58	0	3
TAP	58	144	1
TAP	58	192	0
STR	58	192	7
SUR	58	192	7	96	96	4
STR	58	288	4
SCR	58	288	4	96	144	1
HLD	59	0	2	96
TAP	59	144	3
XST	59	192	3
SI_	59	192	3	96	48	7
XST	59	288	0
SI_	59	288	0	96	48	4
XTP	59	288	3
XTP	60	0	0
XTP	60	0	1
TAP	60	144	5
STR	60	192	3
SUR	60	192	3	96	96	0
TAP	60	192	4
STR	60	288	0
SCR	60	288	0	96	144	5
HLD	61	0	6	96
TAP	61	144	7
XST	61	192	7
SI_	61	192	7	96	48	3
XST	61	288	4
SI_	61	288	4	96	48	0
XTP	61	288	7
XTP	62	0	4
XTP	62	0	5
TAP	62	144	2
TAP	62	144	5
STR	62	192	2
SI_	62	192	2	96	24	7
STR	62	192	5
SI_	62	192	5	96	24	0
STR	62	288	2
SCL	62	288	2	96	168	4
STR	62	288	5
SCR	62	288	5	96	168	3
XTP	63	0	2
XTP	63	0	5
BRK	63	288	0
BRK	63	288	7
STR	64	0	0
SCR	64	0	0	96	36	2
HLD	64	48	0	144
STR	64	192	4
SCR	64	192	4	96	36	6
HLD	64	240	4	144
STR	65	0	1
SCR	65	0	1	96	36	3
HLD	65	48	1	144
STR	65	192	5
SCR	65	192	5	96	36	7
HLD	65	240	5	144
STR	66	0	2
SCR	66	0	2	96	36	4
HLD	66	48	2	144
STR	66	192	6
SCR	66	192	6	96	36	0
HLD	66	240	6	144
STR	67	0	3
SCR	67	0	3	96	36	5
HLD	67	48	3	144
STR	67	192	7
SCR	67	192	7	96	36	1
HLD	67	240	7	144
HLD	68	0	3	48
HLD	68	96	2	48
HLD	68	96	3	48
HLD	68	192	3	48
HLD	68	192	4	48
HLD	68	288	1	48
HLD	68	288	3	48
HLD	69	0	3	48
HLD	69	0	5	48
HLD	69	96	0	48
HLD	69	96	3	48
HLD	69	192	3	48
HLD	69	192	6	48
HLD	69	288	3	48
HLD	69	288	7	48
TAP	70	0	5
TAP	70	24	4
TAP	70	48	5
TAP	70	72	4
TAP	70	96	6
TAP	70	120	3
TAP	70	144	6
TAP	70	168	3
TAP	70	192	7
TAP	70	216	2
TAP	70	240	7
TAP	70	264	2
TAP	70	288	0
TAP	70	312	1
TAP	70	336	0
TAP	70	360	1
TTP	71	0	7	E	0	M1
TTP	71	16	6	E	0	M1
TTP	71	32	5	E	0	M1
TTP	71	48	1	E	0	M1
TTP	71	64	2	E	0	M1
TTP	71	80	3	E	0	M1
XTP	71	96	7
XTP	71	108	6
XTP	71	120	5
XTP	71	132	4
XTP	71	144	0
XTP	71	156	1
XTP	71	168	2
XTP	71	180	3
THO	71	192	0	192	C	1	M1
STR	72	288	0
SI_	72	288	0	96	48	2
TAP	72	288	1
XTP	73	0	0
STR	73	0	7
SI_	73	0	7	96	48	3
STR	73	96	6
SXL	73	96	6	96	144	1
XTP	73	96	7
XTP	73	192	4
XTP	73	192	6
TAP	73	288	3
HLD	73	336	3	96
TTP	74	48	4	B	0	M1
TTP	74	48	5	B	0	M1
TAP	74	144	2
TAP	74	144	3
TAP	74	192	1
TAP	74	192	7
TAP	74	240	0
TAP	74	240	6
BRK	74	288	4
BRK	74	288	5
TAP	75	0	6
TAP	75	24	4
TAP	75	48	7
TAP	75	72	3
HLD	75	96	0	48
TTP	75	144	1	B	0	M1
TAP	75	192	2
TAP	75	216	0
TAP	75	240	3
TAP	75	264	7
HLD	75	288	4	48
TTP	75	336	5	B	0	M1
TAP	76	0	6
TAP	76	24	4
TAP	76	48	7
TAP	76	72	3
HLD	76	96	0	48
TTP	76	144	1	B	0	M1
TAP	76	192	2
TAP	76	216	0
TAP	76	240	3
TAP	76	264	7
STR	76	288	4
SI_	76	288	4	96	48	6
STR	77	0	3
SI_	77	0	3	96	48	7
XTP	77	0	4
STR	77	96	2
SXL	77	96	2	96	144	5
XTP	77	96	3
XTP	77	192	0
XTP	77	192	2
TAP	77	288	7
HLD	77	336	7	96
TTP	78	48	2	B	0	M1
TTP	78	48	3	B	0	M1
TAP	78	144	4
TAP	78	144	5
TAP	78	192	0
TAP	78	192	6
TAP	78	240	1
TAP	78	240	7
BRK	78	288	2
BRK	78	288	3
TAP	79	0	1
TAP	79	24	3
TAP	79	48	0
TAP	79	72	4
HLD	79	96	7	48
TTP	79	144	6	B	0	M1
TAP	79	192	5
TAP	79	216	7
TAP	79	240	4
TAP	79	264	0
HLD	79	288	3	48
TTP	79	336	2	B	0	M1
BST	80	0	1
SI_	80	0	1	96	48	6
TAP	80	192	4
TAP	80	240	3
TAP	80	288	2
TAP	80	288	5
XTP	81	0	0
XTP	81	0	2
TAP	81	48	7
TAP	81	96	5
TAP	81	96	6
TAP	81	144	4
TAP	81	192	2
TAP	81	192	3
TAP	81	240	1
TAP	81	288	0
TAP	81	288	7
STR	81	336	0
SI_	81	336	0	96	36	4
TAP	81	336	7
BRK	82	48	0
TTP	82	48	2	B	0	M1
TTP	82	48	2	E	0	M1
TAP	82	144	5
TAP	82	192	3
TAP	82	192	6
TAP	82	240	4
TAP	82	240	5
TTP	82	288	0	B	0	M1
TTP	82	288	0	E	0	M1
TTP	82	288	1	B	0	M1
TTP	82	288	1	E	0	M1
TTP	82	288	2	E	0	M1
STR	83	0	5
SUR	83	0	5	96	36	1
TAP	83	24	3
TAP	83	48	6
TAP	83	72	4
XTP	83	96	5
STR	83	192	3
SUL	83	192	3	96	36	7
TAP	83	216	5
TAP	83	240	2
TAP	83	264	4
XTP	83	288	3
STR	84	0	4
SUR	84	0	4	96	36	0
TAP	84	24	2
TAP	84	48	5
TAP	84	72	3
XTP	84	96	4
STR	84	192	2
SUL	84	192	2	96	36	6
TAP	84	216	4
TAP	84	240	1
TAP	84	264	3
XTP	84	288	2
XTP	85	0	5
XTP	85	0	7
TAP	85	48	0
TAP	85	96	1
TAP	85	96	2
TAP	85	144	3
TAP	85	192	4
TAP	85	192	5
TAP	85	240	6
TAP	85	288	0
TAP	85	288	7
TAP	85	336	0
STR	85	336	7
SI_	85	336	7	96	36	3
TTP	86	48	5	B	0	M1
TTP	86	48	6	E	0	M1
BRK	86	48	7
TAP	86	144	2
TAP	86	192	1
TAP	86	192	4
TAP	86	240	2
TAP	86	240	3
TTP	86	288	0	E	0	M1
TTP	86	288	6	B	0	M1
TTP	86	288	6	E	0	M1
TTP	86	288	7	B	0	M1
TTP	86	288	7	E	0	M1
STR	87	0	2
SCL	87	0	2	96	48	7
TAP	87	24	4
TAP	87	48	1
TAP	87	72	3
XTP	87	96	2
STR	87	192	5
SCR	87	192	5	96	48	0
TAP	87	216	3
TAP	87	240	6
TAP	87	264	4
XTP	87	288	5
TTP	88	0	0	C	1	M1
TTP	88	0	3	B	0	M1
TTP	88	0	4	B	0	M1
TAP	88	144	0
TAP	88	168	7
STR	88	192	1
SCR	88	192	1	96	24	3
STR	88	192	6
SCL	88	192	6	96	24	4

T_REC_TAP	314
T_REC_BRK	17
T_REC_XTP	63
T_REC_HLD	70
T_REC_XHO	0
T_REC_STR	82
T_REC_BST	3
T_REC_XST	6
T_REC_TTP	95
T_REC_THO	5
T_REC_SLD	93
T_REC_ALL	748
T_NUM_TAP	560
T_NUM_BRK	20
T_NUM_HLD	75
T_NUM_SLD	93
T_NUM_ALL	748
T_JUDGE_TAP	580
T_JUDGE_HLD	172
T_JUDGE_SLD	93
T_JUDGE_ALL	845
TTM_EACHPAIRS	106
TTM_SCR_TAP	280000
TTM_SCR_BRK	52000
TTM_SCR_HLD	75000
TTM_SCR_SLD	139500
TTM_SCR_ALL	546500
TTM_SCR_S	528200
TTM_SCR_SS	544500
TTM_RAT_ACV	10036

