VERSION	0.00.00	1.03.00
FES_MODE	0
BPM_DEF	170.000	170.000	170.000	170.000
MET_DEF	4	4
RESOLUTION	384
CLK_DEF	384
COMPATIBLE_CODE	MA2

BPM	0	0	170.000
MET	0	0	4	4

TAP	3	0	2
HLD	3	96	2	576
TAP	3	288	3
TAP	4	96	3
TAP	4	288	3
TAP	5	0	4
HLD	5	96	5	576
TAP	5	288	4
XTP	6	96	3
TAP	6	288	4
TAP	7	0	3
HLD	7	96	2	576
TAP	7	288	3
TAP	8	96	3
TAP	8	288	3
TAP	9	0	4
HLD	9	96	5	192
TAP	9	288	4
TAP	10	0	3
TAP	10	96	4
TAP	10	192	3
TAP	10	192	4
TAP	11	0	5
TAP	11	96	4
HLD	11	96	6	576
TAP	11	240	5
TAP	11	288	5
TAP	12	96	4
TAP	12	288	4
TAP	13	0	3
HLD	13	96	2	576
TAP	13	96	5
TAP	13	240	3
TAP	13	288	3
TAP	14	96	4
TAP	14	288	3
TAP	15	0	2
HLD	15	96	1	576
TAP	15	96	3
TAP	15	240	2
TAP	15	288	2
TAP	16	96	3
TAP	16	288	2
TAP	17	0	3
TAP	17	96	4
TAP	17	192	2
TAP	17	192	5
TAP	17	288	3
STR	17	288	4
SUL	17	288	4	96	192	3
XTP	19	0	2
XTP	19	0	5
TAP	19	96	1
HLD	19	144	1	144
TAP	19	240	3
TAP	19	288	3
TAP	20	0	2
TAP	20	0	4
TAP	20	96	3
TAP	20	192	4
TAP	20	288	3
TAP	20	288	4
XTP	21	0	3
XTP	21	0	5
TAP	21	96	6
HLD	21	144	6	144
TAP	21	240	4
TAP	21	288	4
TAP	22	0	5
TAP	22	96	4
TAP	22	192	2
TAP	22	192	3
TAP	22	288	2
TAP	22	288	3
TAP	23	0	1
TAP	23	0	4
TAP	23	96	5
HLD	23	144	5	144
TAP	23	240	4
TAP	23	288	4
TAP	24	0	3
TAP	24	0	4
TAP	24	96	2
HLD	24	144	2	144
TAP	24	240	3
TAP	24	288	3
TAP	25	0	1
TAP	25	0	4
TAP	25	96	0
HLD	25	144	0	144
TAP	25	240	7
TAP	25	288	7
TAP	26	0	1
TAP	26	0	6
TAP	26	192	3
TAP	26	192	4
TAP	26	288	4
TAP	27	0	3
STR	27	0	5
SI_	27	0	5	96	96	3
TAP	27	192	2
TAP	27	288	2
TAP	28	0	3
STR	28	0	5
SI_	28	0	5	96	96	3
TAP	28	192	2
TAP	28	288	2
STR	29	0	2
SCR	29	0	2	96	96	5
TAP	29	0	5
TAP	29	192	6
TAP	29	288	6
STR	30	0	2
SCR	30	0	2	96	96	5
TAP	30	0	5
TAP	30	192	6
TAP	30	288	6
TAP	31	0	4
TAP	31	0	5
TAP	31	96	3
TAP	31	96	4
TAP	31	192	2
TAP	31	192	3
TAP	31	288	1
TAP	32	0	2
TAP	32	0	3
TAP	32	96	3
TAP	32	96	4
TAP	32	192	4
TAP	32	192	5
TAP	32	288	6
TAP	33	0	0
TAP	33	48	0
TAP	33	96	7
TAP	33	144	7
TAP	33	192	1
TAP	33	240	1
TAP	33	288	6
TAP	33	336	6
TAP	34	0	0
TAP	34	24	7
TAP	34	48	0
TAP	34	72	7
TAP	34	96	0
TAP	34	120	7
TAP	34	144	0
TAP	34	168	7
TAP	34	192	0
TAP	34	216	7
TAP	34	240	0
TAP	34	264	7
STR	34	288	0
SI_	34	288	0	96	192	4
BRK	35	288	7
TAP	36	0	0
TAP	36	0	6
TAP	36	96	2
TAP	36	96	3
TAP	36	192	1
TAP	36	192	7
TAP	36	288	4
TAP	36	288	5
TAP	37	0	6
TAP	37	48	7
TAP	37	96	0
TAP	37	192	0
TAP	37	192	1
TAP	37	288	2
TAP	37	288	7
TAP	38	0	3
HLD	38	0	6	96
TAP	38	96	5
HLD	38	192	0	96
TAP	38	192	4
TAP	38	288	2
TAP	39	0	3
HLD	39	0	6	96
TAP	39	96	5
TAP	39	192	0
TAP	39	240	0
TAP	39	288	7
XTP	40	0	1
XTP	40	0	6
XTP	40	96	3
XTP	40	96	5
TAP	40	192	4
TAP	40	240	3
TAP	40	288	2
TAP	41	0	1
TAP	41	0	4
TAP	41	96	2
TAP	41	96	3
TAP	41	192	4
TAP	41	192	5
STR	41	288	6
SI_	41	288	6	96	48	4
STR	42	0	7
SI_	42	0	7	96	48	3
STR	42	96	6
SI_	42	96	6	96	48	4
STR	42	192	7
SI_	42	192	7	96	48	3
STR	42	288	6
SCL	42	288	6	96	144	2
XTP	43	0	2
TAP	43	192	0
TAP	43	192	1
TAP	43	288	3
TAP	43	288	7
BRK	44	0	2
BRK	44	0	4
TAP	44	96	6
TAP	44	96	7
TAP	44	192	3
TAP	44	192	5
TAP	44	288	0
TAP	44	288	1
TAP	45	0	2
TAP	45	48	3
TAP	45	96	4
TAP	45	192	4
TAP	45	192	5
TAP	45	288	3
TAP	45	288	6
HLD	46	0	2	96
TAP	46	0	3
XTP	46	96	7
TAP	46	192	4
HLD	46	192	5	96
XTP	46	288	0
HLD	47	0	1	96
TAP	47	0	3
XTP	47	96	7
TAP	47	192	0
TAP	47	192	6
TAP	47	288	2
TAP	47	288	4
BST	48	0	1
SCR	48	0	1	96	96	4
BRK	48	0	5
TAP	48	192	6
TAP	48	240	6
TAP	48	288	6
TAP	48	288	7
TAP	49	0	1
TAP	49	48	1
TAP	49	96	0
TAP	49	96	1
TAP	49	192	2
TAP	49	192	3
TAP	49	288	1
TAP	49	288	4
STR	50	0	6
SI_	50	0	6	96	48	4
STR	50	0	7
SI_	50	0	7	96	48	3
STR	50	192	0
SI_	50	192	0	96	48	4
STR	50	192	1
SI_	50	192	1	96	48	3
XTP	51	0	6
XTP	51	0	7
TAP	51	96	6
TAP	51	96	7
TAP	51	192	0
TAP	51	192	1
BST	51	288	3
SCL	51	288	3	96	1152	4
BRK	51	288	4
HLD	56	0	2	384
TTP	56	192	2	B	0	M1
TTP	56	192	3	B	0	M1
HLD	57	0	5	384
TTP	57	192	4	B	0	M1
TTP	57	192	5	B	0	M1
HLD	58	0	1	384
TTP	58	192	2	B	0	M1
TTP	58	192	3	B	0	M1
HLD	59	0	6	384
TTP	59	192	4	B	0	M1
TTP	59	192	5	B	0	M1
HLD	60	0	3	384
TTP	60	192	1	B	0	M1
TTP	60	192	2	B	0	M1
HLD	61	0	4	384
TTP	61	192	4	B	0	M1
TTP	61	192	5	B	0	M1
HLD	62	0	3	384
TTP	62	192	2	B	0	M1
TTP	62	192	3	B	0	M1
THO	63	0	0	192	C	0	M1
TAP	64	0	1
HLD	64	48	1	144
TAP	64	192	3
HLD	64	240	3	144
TAP	65	0	2
HLD	65	48	2	144
TAP	65	192	5
HLD	65	240	5	144
TAP	66	0	4
HLD	66	48	4	144
TAP	66	192	6
HLD	66	240	6	144
TAP	67	0	4
HLD	67	48	4	144
TAP	67	192	5
HLD	67	240	5	144
TAP	68	0	3
TAP	68	96	2
TAP	68	96	3
TAP	68	192	4
TAP	68	288	4
TAP	68	288	5
TAP	69	0	3
TAP	69	96	1
TAP	69	96	3
TAP	69	192	4
TAP	69	288	4
TAP	69	288	6
TAP	70	0	0
TAP	70	48	0
TAP	70	96	0
TAP	70	144	0
TAP	70	192	7
TAP	70	240	7
TAP	70	288	7
TAP	70	336	7
TAP	71	0	0
TAP	71	24	7
TAP	71	48	0
TAP	71	72	7
TAP	71	96	0
TAP	71	120	7
TAP	71	144	0
TAP	71	168	7
TAP	71	192	0
TAP	71	216	7
TAP	71	240	0
TAP	71	264	7
STR	71	288	1
SI_	71	288	1	96	192	5
BRK	72	288	7
TAP	73	0	0
TAP	73	0	6
TAP	73	96	2
TAP	73	96	3
TAP	73	192	1
TAP	73	192	7
TAP	73	288	4
TAP	73	288	5
TAP	74	0	6
TAP	74	48	7
TAP	74	96	0
TAP	74	192	0
TAP	74	192	5
XTP	74	288	2
XTP	74	288	7
TAP	75	0	3
HLD	75	0	6	96
TAP	75	96	5
HLD	75	192	0	96
TAP	75	192	4
TAP	75	288	2
TAP	76	0	3
HLD	76	0	6	96
TAP	76	96	5
TAP	76	192	0
TAP	76	240	0
TAP	76	288	7
TAP	77	0	1
TAP	77	0	6
TAP	77	96	4
TAP	77	96	5
TAP	77	192	6
TAP	77	240	7
TAP	77	288	0
TAP	78	0	2
TAP	78	0	7
TAP	78	96	0
TAP	78	96	5
TAP	78	192	3
TAP	78	192	4
STR	78	288	1
SI_	78	288	1	96	48	3
TAP	78	288	3
STR	79	0	0
SI_	79	0	0	96	48	4
STR	79	96	1
SI_	79	96	1	96	48	3
STR	79	192	0
SI_	79	192	0	96	48	4
STR	79	288	1
SCR	79	288	1	96	96	5
XTP	80	0	5
TAP	80	192	6
TAP	80	192	7
TAP	80	288	1
TAP	80	288	4
BRK	81	0	3
BRK	81	0	5
TAP	81	96	0
TAP	81	96	1
TAP	81	192	2
TAP	81	192	4
TAP	81	288	6
TAP	81	288	7
TAP	82	0	5
TAP	82	48	4
TAP	82	96	3
TAP	82	192	2
TAP	82	192	3
TAP	82	288	1
TAP	82	288	4
HLD	83	0	3	96
STR	83	0	5
SI_	83	0	5	96	48	0
STR	83	192	2
SI_	83	192	2	96	48	7
HLD	83	192	4	96
HLD	84	0	3	96
STR	84	0	5
SI_	84	0	5	96	48	0
XTP	84	192	2
XTP	84	192	7
XTP	84	288	1
XTP	84	288	6
TAP	85	0	2
TAP	85	0	3
TAP	85	48	1
TAP	85	96	0
XTP	85	96	6
TAP	85	192	4
TAP	85	192	5
TAP	85	240	6
XTP	85	288	1
TAP	85	288	7
TAP	86	0	1
TAP	86	0	3
TAP	86	48	0
TAP	86	96	6
XTP	86	96	7
TAP	86	192	4
TAP	86	192	6
TAP	86	240	7
TAP	86	288	0
XTP	86	288	1
TAP	87	0	7
TAP	87	48	6
TAP	87	96	5
TAP	87	144	4
TAP	87	192	3
TAP	87	240	2
TAP	87	288	1
TAP	87	336	0
STR	88	0	7
SI_	88	0	7	96	48	3
STR	88	96	0
SI_	88	96	0	96	48	4
TAP	88	192	5
XTP	88	288	2
XTP	88	288	7

T_REC_TAP	315
T_REC_BRK	8
T_REC_XTP	28
T_REC_HLD	39
T_REC_XHO	0
T_REC_STR	26
T_REC_BST	2
T_REC_XST	0
T_REC_TTP	14
T_REC_THO	1
T_REC_SLD	28
T_REC_ALL	461
T_NUM_TAP	383
T_NUM_BRK	10
T_NUM_HLD	40
T_NUM_SLD	28
T_NUM_ALL	461
T_JUDGE_TAP	393
T_JUDGE_HLD	199
T_JUDGE_SLD	28
T_JUDGE_ALL	620
TTM_EACHPAIRS	106
TTM_SCR_TAP	191500
TTM_SCR_BRK	26000
TTM_SCR_HLD	40000
TTM_SCR_SLD	42000
TTM_SCR_ALL	299500
TTM_SCR_S	289550
TTM_SCR_SS	298500
TTM_RAT_ACV	10033

