VERSION	0.00.00	1.03.00
FES_MODE	0
BPM_DEF	170.000	170.000	170.000	170.000
MET_DEF	4	4
RESOLUTION	384
CLK_DEF	384
COMPATIBLE_CODE	MA2

BPM	0	0	170.000
MET	0	0	4	4

THO	3	0	0	1152	C	0	L1
HLD	7	0	5	384
HLD	8	0	4	384
HLD	9	0	3	384
TAP	10	0	2
TAP	10	192	3
TAP	10	192	4
STR	11	0	6
SI_	11	0	6	96	192	3
STR	12	0	2
SI_	12	0	2	96	192	7
XHO	13	0	6	192
HLD	13	192	7	192
HLD	14	0	0	192
TAP	14	192	1
STR	15	0	2
SCR	15	0	2	96	192	5
STR	16	0	6
SCR	16	0	6	96	192	1
XHO	17	0	2	192
HLD	17	192	3	192
HLD	18	0	4	192
TAP	18	192	5
STR	19	0	6
SI_	19	0	6	96	192	3
TAP	20	0	2
TAP	20	96	2
TAP	20	192	2
TAP	20	192	3
STR	21	0	1
SI_	21	0	1	96	192	4
TAP	22	0	5
TAP	22	96	5
TAP	22	192	4
TAP	22	192	5
STR	23	0	6
SI_	23	0	6	96	192	3
TAP	24	0	2
TAP	24	96	2
TAP	24	192	2
TAP	24	192	3
TAP	25	0	3
STR	25	0	4
SCR	25	0	4	96	192	7
TAP	26	0	0
TAP	26	96	0
TAP	26	192	0
TAP	26	192	7
TTP	27	0	0	B	0	L1
TTP	27	192	1	B	0	L1
TTP	28	0	2	B	0	L1
TTP	28	192	3	B	0	L1
TTP	29	0	4	B	0	L1
TTP	29	192	5	B	0	L1
TTP	30	0	6	B	0	L1
TTP	30	192	0	C	0	L1
XTP	31	0	0
XTP	31	96	0
TAP	31	192	1
TAP	31	288	1
TAP	32	0	2
TAP	32	96	2
TAP	32	192	3
TAP	32	288	3
TAP	33	0	4
TAP	33	96	4
TAP	33	192	5
TAP	33	288	5
TAP	34	0	6
TAP	34	96	6
TAP	34	192	7
TAP	34	288	7
BRK	35	0	1
BRK	35	0	6
TAP	36	0	5
TAP	36	96	5
TAP	36	192	4
TAP	36	192	5
TAP	36	288	4
TAP	36	288	5
TAP	37	0	2
TAP	37	96	2
TAP	37	192	2
TAP	37	192	3
TAP	37	288	2
TAP	37	288	3
TAP	38	0	1
TAP	38	96	1
TAP	38	192	0
TAP	38	288	0
TAP	39	0	7
TAP	39	96	7
TAP	39	192	0
TAP	39	192	6
TAP	40	0	1
TAP	40	96	1
TAP	40	192	0
TAP	40	192	1
TAP	40	288	0
TAP	40	288	1
TAP	41	0	6
TAP	41	96	6
TAP	41	192	6
TAP	41	192	7
TAP	41	288	6
TAP	41	288	7
TAP	42	0	5
TAP	42	96	5
TAP	42	192	4
TAP	42	288	4
TAP	43	0	3
TAP	43	0	4
TAP	43	96	3
TAP	43	96	4
BRK	43	192	2
BRK	43	192	5
TAP	44	0	2
TAP	44	96	2
TAP	44	96	3
TAP	44	192	2
TAP	44	288	2
TAP	44	288	3
TAP	45	0	5
TAP	45	96	4
TAP	45	96	5
TAP	45	192	5
TAP	45	288	4
TAP	45	288	5
TAP	46	0	6
TAP	46	96	6
TAP	46	192	7
TAP	46	288	7
TAP	47	0	0
TAP	47	96	0
TAP	47	192	1
TAP	47	192	7
TAP	48	0	6
TAP	48	96	6
TAP	48	96	7
TAP	48	192	6
TAP	48	288	6
TAP	48	288	7
TAP	49	0	1
TAP	49	96	0
TAP	49	96	1
TAP	49	192	1
TAP	49	288	0
TAP	49	288	1
TAP	50	0	2
TAP	50	96	2
TAP	50	192	3
TAP	50	288	3
TAP	51	0	3
TAP	51	0	4
TAP	51	96	3
TAP	51	96	4
BRK	51	192	2
BRK	51	192	5
THO	52	0	0	1152	C	0	L1
STR	56	0	6
SUL	56	0	6	96	192	2
TAP	57	0	1
TAP	57	192	0
STR	58	0	1
SUR	58	0	1	96	192	5
TAP	59	0	6
TAP	59	192	7
STR	60	0	6
SUL	60	0	6	96	192	2
TAP	61	0	1
TAP	61	192	0
TAP	62	0	0
STR	62	0	7
SI_	62	0	7	96	192	3
TAP	63	0	2
XTP	63	192	2
XTP	63	192	5
TTP	64	0	7	B	0	L1
TTP	64	192	6	B	0	L1
TTP	65	0	5	B	0	L1
TTP	65	192	4	B	0	L1
TTP	66	0	3	B	0	L1
TTP	66	192	2	B	0	L1
TTP	67	0	1	B	0	L1
TTP	67	192	0	C	0	L1
XTP	68	0	7
XTP	68	96	6
TAP	68	192	5
TAP	68	288	4
TAP	69	0	3
TAP	69	96	2
TAP	69	192	1
TAP	69	288	0
TAP	70	0	0
TAP	70	0	7
TAP	70	96	1
TAP	70	96	6
TAP	70	192	2
TAP	70	192	5
TAP	70	288	3
TAP	70	288	4
TAP	71	0	3
TAP	71	48	3
TAP	71	96	3
TAP	71	192	4
TAP	71	240	4
TAP	71	288	4
BRK	72	0	2
BRK	72	0	5
TAP	73	0	6
TAP	73	96	6
TAP	73	96	7
TAP	73	192	6
TAP	73	288	6
TAP	73	288	7
TAP	74	0	1
TAP	74	96	0
TAP	74	96	1
TAP	74	192	1
TAP	74	288	0
TAP	74	288	1
TAP	75	0	2
TAP	75	96	2
TAP	75	96	3
TAP	75	192	4
TAP	75	240	4
TAP	75	288	4
TAP	76	0	4
TAP	76	0	5
TAP	76	96	4
TAP	76	96	5
TAP	76	192	3
TAP	76	192	6
TAP	77	0	2
TAP	77	96	2
TAP	77	96	3
TAP	77	192	4
TAP	77	240	4
TAP	77	288	4
TAP	78	0	5
TAP	78	96	4
TAP	78	96	5
TAP	78	192	3
TAP	78	240	3
TAP	78	288	3
TAP	79	0	2
TAP	79	96	2
TAP	79	192	1
TAP	79	288	1
TAP	80	0	0
TAP	80	0	7
TAP	80	96	0
TAP	80	96	7
BRK	80	192	1
BRK	80	192	6
TAP	81	0	5
TAP	81	96	4
TAP	81	96	5
TAP	81	192	5
TAP	81	288	4
TAP	81	288	5
TAP	82	0	2
TAP	82	96	2
TAP	82	96	3
TAP	82	192	2
TAP	82	288	2
TAP	82	288	3
TAP	83	0	1
TAP	83	96	0
TAP	83	96	1
TAP	83	192	7
TAP	83	240	7
TAP	83	288	7
TAP	84	0	6
TAP	84	0	7
TAP	84	96	6
TAP	84	96	7
TAP	84	192	0
TAP	84	192	5
TAP	85	0	1
TAP	85	96	0
TAP	85	96	1
TAP	85	192	7
TAP	85	240	7
TAP	85	288	7
TAP	86	0	6
TAP	86	96	6
TAP	86	96	7
TAP	86	192	0
TAP	86	240	0
TAP	86	288	0
TAP	87	0	1
TAP	87	96	0
TAP	87	96	1
TAP	87	192	7
TAP	87	240	7
TAP	87	288	7
TAP	88	0	0
TAP	88	0	7
TAP	88	96	0
TAP	88	96	7
TAP	88	192	1
TAP	88	192	6
STR	88	288	1
SI_	88	288	1	96	192	4
STR	88	288	6
SI_	88	288	6	96	192	3

T_REC_TAP	236
T_REC_BRK	10
T_REC_XTP	6
T_REC_HLD	7
T_REC_XHO	2
T_REC_STR	14
T_REC_BST	0
T_REC_XST	0
T_REC_TTP	16
T_REC_THO	2
T_REC_SLD	14
T_REC_ALL	307
T_NUM_TAP	272
T_NUM_BRK	10
T_NUM_HLD	11
T_NUM_SLD	14
T_NUM_ALL	307
T_JUDGE_TAP	282
T_JUDGE_HLD	96
T_JUDGE_SLD	14
T_JUDGE_ALL	392
TTM_EACHPAIRS	66
TTM_SCR_TAP	136000
TTM_SCR_BRK	26000
TTM_SCR_HLD	11000
TTM_SCR_SLD	21000
TTM_SCR_ALL	194000
TTM_SCR_S	187250
TTM_SCR_SS	193000
TTM_RAT_ACV	10051

