VERSION	0.00.00	1.03.00
FES_MODE	0
BPM_DEF	128.000	128.000	128.000	128.000
MET_DEF	4	4
RESOLUTION	384
CLK_DEF	384
COMPATIBLE_CODE	MA2

BPM	0	0	128.000
MET	0	0	4	4

TTP	1	144	3	E	0	M1
TTP	1	144	4	E	0	M1
TTP	1	192	2	E	0	M1
TTP	1	240	1	E	0	M1
THO	1	288	0	96	C	0	M1
XST	2	48	1
SUR	2	48	1	96	144	4
XTP	3	0	3
XHO	3	0	5	384
TAP	3	96	4
TAP	3	288	4
HLD	4	0	2	384
TAP	4	96	3
TAP	4	288	3
HLD	5	0	6	384
TAP	5	96	4
TAP	5	288	4
TAP	6	0	2
XTP	6	160	1
XTP	6	160	5
XTP	6	192	2
XTP	6	192	6
XTP	6	224	1
XTP	6	224	5
XTP	6	256	2
XTP	6	256	6
XTP	6	288	1
XTP	6	288	5
XTP	6	320	2
XTP	6	320	6
XHO	7	0	3	144
XHO	7	0	4	144
TTP	7	192	1	B	0	M1
TTP	7	192	6	B	0	M1
TTP	7	208	0	C	0	M1
TTP	7	224	4	E	0	M1
XHO	7	240	3	96
XHO	7	240	4	96
TTP	8	0	1	B	0	M1
TTP	8	0	6	B	0	M1
TTP	8	16	0	C	0	M1
TTP	8	32	4	E	0	M1
XHO	8	48	3	288
XHO	8	48	4	288
TTP	9	0	1	B	0	M1
TTP	9	0	6	B	0	M1
TTP	9	16	0	C	0	M1
TTP	9	32	4	E	0	M1
XHO	9	48	3	240
XHO	9	48	4	240
XTP	9	336	3
XTP	9	336	4
XST	10	0	3
SI_	10	0	3	96	192	0
XST	10	0	4
SI_	10	0	4	96	192	7
TAP	11	0	2
HLD	11	0	6	768
TAP	11	192	3
TAP	11	288	3
STR	12	0	0
SCR	12	0	0	96	96	4
BRK	12	240	7
BRK	12	288	7
HLD	13	0	1	576
TAP	13	192	4
TAP	13	288	4
TAP	14	0	2
STR	14	96	7
SI_	14	96	7	96	48	4
BRK	14	240	1
BRK	14	288	3
BRK	14	336	4
HLD	15	0	6	768
TAP	15	96	4
TAP	15	192	4
TAP	15	288	0
THO	16	0	0	96	C	1	M1
BRK	16	240	7
BRK	16	288	7
HLD	17	0	1	480
TAP	17	96	3
TAP	17	192	3
TAP	17	288	7
STR	18	0	4
SCL	18	0	4	96	144	6
TTP	18	168	0	C	1	M1
XTP	18	288	0
HLD	19	0	6	768
TAP	19	96	4
STR	19	192	3
SI_	19	192	3	96	48	0
TAP	19	240	4
XTP	19	288	3
STR	20	0	3
SI_	20	0	3	96	48	0
TAP	20	48	4
XTP	20	96	3
TAP	20	192	3
BRK	20	240	7
BRK	20	288	7
HLD	21	0	1	576
TAP	21	96	3
STR	21	192	4
SI_	21	192	4	96	48	7
TAP	21	240	3
XTP	21	288	4
STR	22	0	4
SI_	22	0	4	96	48	7
TAP	22	48	3
XTP	22	96	4
TAP	22	192	4
BRK	22	240	1
BRK	22	288	7
BRK	22	336	5
HLD	23	0	6	768
TAP	23	96	4
STR	23	192	3
SI_	23	192	3	96	48	0
TAP	23	240	4
XTP	23	288	3
STR	24	0	3
SXL	24	0	3	96	96	3
TAP	24	48	4
BRK	24	240	7
BRK	24	288	7
HLD	25	0	1	576
TAP	25	96	3
STR	25	192	7
SI_	25	192	7	96	48	4
TAP	25	240	0
XTP	25	288	7
STR	26	0	7
SI_	26	0	7	96	48	4
TAP	26	48	0
XTP	26	96	7
TAP	26	192	6
BRK	26	240	1
BRK	26	288	7
BRK	26	336	5
TTP	27	0	0	C	1	M1
TTP	27	0	2	B	0	M1
TTP	27	0	3	B	0	M1
TTP	27	0	4	B	0	M1
TAP	27	96	7
TAP	27	192	7
TAP	27	288	7
TTP	28	0	0	C	1	M1
TTP	28	0	3	B	0	M1
TTP	28	0	4	B	0	M1
TTP	28	0	5	B	0	M1
STR	28	96	0
SSL	28	96	0	96	144	4
TAP	28	288	7
TTP	29	0	0	C	1	M1
TTP	29	0	2	B	0	M1
TTP	29	0	3	B	0	M1
TTP	29	0	4	B	0	M1
TAP	29	96	7
TAP	29	192	7
TAP	29	288	7
TTP	30	0	0	C	1	M1
TTP	30	0	3	B	0	M1
TTP	30	0	4	B	0	M1
TTP	30	0	5	B	0	M1
STR	30	96	0
SCR	30	96	0	96	96	5
TAP	30	192	6
TAP	30	288	7
TAP	31	0	0
TTP	31	0	0	C	1	M1
TAP	31	48	0
TAP	31	96	1
TAP	31	144	1
TAP	31	192	2
TAP	31	240	2
TAP	31	288	3
TAP	31	336	3
TTP	32	0	0	C	1	M1
TAP	32	0	7
TAP	32	48	7
TAP	32	96	6
TAP	32	144	6
TAP	32	192	5
TAP	32	240	5
TAP	32	288	4
TAP	32	336	4
TAP	33	0	0
TTP	33	0	0	C	1	M1
TAP	33	48	1
TAP	33	96	2
TAP	33	144	3
TTP	33	192	0	C	1	M1
TAP	33	192	7
TAP	33	240	6
TAP	33	288	5
TAP	33	336	4
XTP	34	0	0
TTP	34	0	0	C	0	M1
BRK	34	96	6
BRK	34	96	7
BRK	34	144	0
BRK	34	192	0
BRK	34	192	1
BRK	34	240	2
BRK	34	288	3
BST	34	288	4
SI_	34	288	4	96	48	7
BRK	34	336	5
BST	35	0	4
SXR	35	0	4	96	96	4
BRK	35	0	6
XTP	35	96	4
STR	35	192	0
SF_	35	192	0	96	24	4
XTP	35	288	0
TTP	35	300	0	C	1	M1
XTP	36	0	1
STR	36	0	6
SI_	36	0	6	96	48	1
STR	36	96	2
SI_	36	96	2	96	48	5
XTP	36	96	6
XTP	36	192	2
STR	36	192	6
SI_	36	192	6	96	48	1
XTP	36	288	2
XTP	36	288	6
TAP	37	0	2
HLD	37	0	4	32
TAP	37	48	0
HLD	37	96	3	32
TAP	37	96	5
TAP	37	144	7
TAP	37	192	2
HLD	37	192	4	32
TAP	37	240	0
HLD	37	288	3	32
STR	37	288	5
SCL	37	288	5	96	48	2
TAP	37	336	7
BRK	38	0	1
XTP	38	0	5
STR	38	96	0
SV_	38	96	0	96	48	1
SV_	38	96	0	96	48	3
TAP	38	144	0
STR	38	192	0
SI_	38	192	0	96	48	4
SV_	38	192	0	96	48	6
TAP	38	288	0
XTP	39	0	2
TAP	39	0	5
TAP	39	48	4
XTP	39	48	7
XTP	39	96	2
TAP	39	96	5
TAP	39	144	4
XTP	39	144	7
XTP	39	192	2
TAP	39	192	5
TAP	39	240	4
XTP	39	240	7
XTP	39	288	2
TAP	39	288	5
TAP	39	336	4
XTP	39	336	7
STR	40	0	1
SI_	40	0	1	96	48	6
TAP	40	0	4
XTP	40	96	1
STR	40	96	5
SI_	40	96	5	96	48	2
STR	40	192	1
SI_	40	192	1	96	48	6
XTP	40	192	5
XTP	40	288	1
XTP	40	288	5
HLD	41	0	3	32
TAP	41	0	5
TAP	41	48	7
TAP	41	96	2
HLD	41	96	4	32
TAP	41	144	0
HLD	41	192	3	32
TAP	41	192	5
TAP	41	240	7
TAP	41	288	2
HLD	41	288	4	32
TAP	41	336	0
XTP	42	0	6
TTP	42	48	1	E	0	M1
TTP	42	60	2	E	0	M1
TTP	42	72	3	E	0	M1
TTP	42	84	4	E	0	M1
STR	42	96	7
SV_	42	96	7	96	48	4
SV_	42	96	7	96	48	6
TAP	42	144	7
STR	42	192	7
SI_	42	192	7	96	48	3
SV_	42	192	7	96	48	1
TAP	42	288	7
TAP	43	0	2
XTP	43	0	5
XTP	43	48	0
STR	43	96	2
SI_	43	96	2	96	48	5
STR	43	96	5
SCR	43	96	5	96	48	0
XTP	43	144	7
XTP	43	192	2
XTP	43	192	5
XTP	43	288	7
XTP	43	312	7
XTP	43	336	7
XST	44	0	0
SXR	44	0	0	96	144	3
TAP	44	96	3
TAP	44	192	4
STR	44	288	5
SI_	44	288	5	96	48	2
TAP	44	336	5
HLD	45	0	1	96
STR	45	0	5
SXR	45	0	5	96	144	7
XTP	45	96	5
TAP	45	192	0
STR	45	288	0
SV_	45	288	0	96	48	2
SV_	45	288	0	96	48	6
TAP	45	336	1
TAP	45	336	7
STR	46	0	0
SCL	46	0	0	96	48	4
SCR	46	0	0	96	48	4
TAP	46	96	0
XTP	46	192	2
XTP	46	192	6
TAP	46	288	1
TAP	46	288	5
STR	46	336	1
SCL	46	336	1	96	48	6
STR	46	336	5
SCL	46	336	5	96	48	2
TAP	47	0	2
TAP	47	0	6
TAP	47	48	1
TAP	47	48	5
STR	47	144	1
SCL	47	144	1	96	48	6
STR	47	144	5
SCL	47	144	5	96	48	2
TAP	47	192	2
TAP	47	192	6
XTP	47	240	1
XTP	47	240	5
STR	47	336	0
SCR	47	336	0	96	48	5
STR	48	0	5
SV_	48	0	5	96	48	0
TAP	48	48	0
XTP	48	96	6
XTP	48	144	6
XTP	48	192	7
STR	48	240	7
SXR	48	240	7	96	144	4
TTP	48	336	4	E	0	M1
TTP	49	0	3	E	0	M1
TTP	49	48	2	E	0	M1
TTP	49	96	1	E	0	M1
TTP	49	144	0	E	0	M1
TTP	49	192	0	C	1	M1
TTP	49	192	2	B	0	M1
TTP	49	192	5	B	0	M1
XTP	49	288	0
XTP	49	288	7
STR	50	0	5
SI_	50	0	5	96	48	3
STR	50	0	6
SI_	50	0	6	96	48	2
TAP	50	48	7
STR	50	192	1
SI_	50	192	1	96	48	5
STR	50	192	2
SI_	50	192	2	96	48	4
TAP	50	240	0
TAP	51	0	5
STR	51	0	6
SSR	51	0	6	96	144	2
XTP	51	48	7
XTP	51	96	7
XTP	51	144	0
XTP	51	192	0
STR	51	288	1
SCL	51	288	1	96	48	6
TAP	51	288	4
TAP	52	0	1
STR	52	0	5
SCL	52	0	5	96	48	2
TAP	52	48	4
STR	52	96	1
SCL	52	96	1	96	48	6
TAP	52	96	5
TAP	52	144	0
TAP	52	192	1
STR	52	192	5
SCL	52	192	5	96	48	2
TAP	52	240	4
TAP	52	288	0
TAP	52	288	5
TAP	52	336	0
TAP	53	0	4
TAP	53	48	4
TAP	53	96	1
TAP	53	96	5
TAP	53	120	2
TAP	53	120	6
TAP	53	168	1
TAP	53	168	5
BRK	53	240	0
BRK	53	240	6
BRK	53	288	0
BST	53	288	6
SCR	53	288	6	96	48	1
STR	54	0	2
SCR	54	0	2	96	48	5
TAP	54	0	6
TAP	54	48	3
TAP	54	96	2
STR	54	96	6
SCR	54	96	6	96	48	1
TAP	54	144	7
TAP	54	192	2
TAP	54	192	6
TAP	54	240	3
STR	54	288	2
SV_	54	288	2	96	48	4
STR	54	288	5
SLR	54	288	5	96	48	1
TAP	54	336	3
TAP	54	336	6
XTP	55	96	0
XTP	55	96	6
XTP	55	120	0
XTP	55	120	6
XTP	55	168	1
XTP	55	168	5
BRK	55	240	0
BRK	55	288	3
BST	55	288	5
SCL	55	288	5	96	48	2
BRK	55	336	4
STR	56	0	1
SCL	56	0	1	96	48	6
TAP	56	0	5
TAP	56	48	0
TAP	56	96	1
STR	56	96	5
SCL	56	96	5	96	48	2
TAP	56	144	4
TAP	56	192	1
TAP	56	192	5
TAP	56	240	0
STR	56	288	1
SV_	56	288	1	96	48	4
STR	56	288	6
SV_	56	288	6	96	48	4
TAP	56	336	0
TAP	56	336	7
TAP	57	0	1
TAP	57	0	6
TAP	57	96	1
TAP	57	96	7
TAP	57	120	1
TAP	57	120	7
TAP	57	168	3
TAP	57	168	5
BRK	57	240	1
BRK	57	240	7
BST	57	288	1
SI_	57	288	1	96	48	6
BRK	57	288	7
TAP	58	0	1
STR	58	0	5
SI_	58	0	5	96	48	2
TAP	58	48	4
STR	58	96	1
SI_	58	96	1	96	48	6
TAP	58	96	5
TAP	58	144	0
TAP	58	192	1
TAP	58	192	5
TAP	58	240	4
STR	58	288	2
SV_	58	288	2	96	48	4
STR	58	288	5
SLR	58	288	5	96	48	1
TAP	58	336	1
TAP	58	336	4
XTP	59	96	0
XTP	59	96	6
XTP	59	120	0
XTP	59	120	6
XTP	59	168	1
XTP	59	168	5
TAP	59	240	3
STR	59	288	1
SI_	59	288	1	96	48	4
STR	59	288	5
SI_	59	288	5	96	48	0
TAP	59	336	2
TAP	59	336	6
TAP	60	0	1
TAP	60	0	5
TAP	60	96	0
TAP	60	96	7
TAP	60	144	6
TAP	60	192	5
TAP	60	192	7
TAP	60	240	0
TAP	60	288	0
TAP	60	288	1
TAP	60	336	2
TAP	61	0	1
TAP	61	0	3
TAP	61	48	0
STR	61	96	1
SI_	61	96	1	96	48	5
STR	61	96	7
SI_	61	96	7	96	48	3
TAP	61	144	3
TAP	61	144	5
XTP	61	192	1
XTP	61	192	7
BRK	61	288	2
BRK	61	288	6
TAP	62	0	1
TAP	62	0	7
TAP	62	48	2
TAP	62	96	0
TAP	62	96	3
TAP	62	144	7
TAP	62	192	6
TAP	62	192	7
TAP	62	240	5
STR	62	288	2
SI_	62	288	2	96	48	6
STR	62	288	4
SI_	62	288	4	96	48	0
TAP	62	336	0
TAP	62	336	6
XTP	63	0	2
XTP	63	0	4
XTP	63	96	1
XTP	63	96	5
XTP	63	120	1
XTP	63	120	5
BRK	63	168	7
BRK	63	240	1
BRK	63	240	5
BRK	63	288	2
BRK	63	288	4
BRK	63	336	1
BRK	63	336	5
TAP	64	0	6
TAP	64	0	7
TAP	64	48	5
TAP	64	96	4
TAP	64	96	6
TAP	64	144	7
TAP	64	192	0
TAP	64	192	1
TAP	64	240	2
TAP	64	288	1
TAP	64	288	3
TAP	64	336	0
TAP	65	0	6
TAP	65	0	7
TAP	65	48	4
STR	65	96	3
SI_	65	96	3	96	48	7
STR	65	96	5
SI_	65	96	5	96	48	1
TAP	65	144	1
TAP	65	144	7
XTP	65	192	3
XTP	65	192	5
BRK	65	288	2
BRK	65	288	6
TAP	66	0	1
TAP	66	0	3
TAP	66	48	4
TAP	66	96	4
TAP	66	96	5
TAP	66	144	6
TAP	66	192	4
TAP	66	192	7
TAP	66	240	6
TAP	66	288	3
TAP	66	288	5
TAP	66	336	2
TAP	67	0	1
TAP	67	0	3
TAP	67	48	0
TAP	67	96	2
STR	67	96	4
SLL	67	96	4	96	96	0
TAP	67	144	3
TAP	67	192	4
STR	67	192	5
SV_	67	192	5	96	48	7
TAP	67	240	6
TAP	67	288	5
XST	68	0	0
SSL	68	0	0	96	192	4
XTP	68	0	6
TTP	68	312	7	E	0	M1
TTP	68	360	6	E	0	M1
TTP	69	24	5	E	0	M1
XHO	69	72	2	96
XTP	69	240	3
XST	69	288	3
SXL	69	288	3	96	96	3
SXR	69	288	3	96	96	3
XTP	70	216	1
XTP	70	216	5
XTP	70	240	1
XTP	70	240	5
XTP	70	264	1
XTP	70	264	5
XTP	70	288	1
XTP	70	288	5
XTP	71	0	3
XST	71	0	7
SCL	71	0	7	96	48	4
XTP	71	96	2
XST	71	192	0
SCR	71	192	0	96	48	3
XTP	71	192	4
XTP	71	288	5
BRK	72	0	6
TAP	72	32	6
TAP	72	48	4
TAP	72	80	4
TAP	72	96	5
TAP	72	128	5
TAP	72	144	3
TAP	72	176	3
TAP	72	192	4
TAP	72	208	2
TAP	72	224	4
TAP	72	240	2
XHO	72	272	1	64
XHO	72	272	5	64
TAP	73	0	1
TAP	73	32	1
TAP	73	48	3
TAP	73	80	3
TAP	73	96	2
TAP	73	128	2
TAP	73	144	4
TAP	73	176	4
TAP	73	192	3
TAP	73	208	5
TAP	73	224	3
TAP	73	240	5
XHO	73	272	2	64
XHO	73	272	6	64
TAP	74	0	6
TAP	74	32	6
TAP	74	48	4
TAP	74	80	4
STR	74	96	5
SUL	74	96	5	96	144	3
TAP	74	128	5
TAP	74	144	3
TAP	74	176	3
HLD	75	0	1	144
HLD	75	0	5	144
TAP	75	192	2
HLD	75	192	6	96
TTP	75	312	1	B	0	M1
TTP	75	312	2	B	0	M1
TTP	75	312	2	E	0	M1
THO	76	0	0	696	C	0	M1
TTP	76	0	5	B	0	M1
TTP	76	0	6	B	0	M1
TTP	76	0	6	E	0	M1
TTP	77	312	0	B	0	M1
TTP	77	312	0	E	0	M1
TTP	77	312	7	B	0	M1

T_REC_TAP	266
T_REC_BRK	48
T_REC_XTP	103
T_REC_HLD	22
T_REC_XHO	14
T_REC_STR	70
T_REC_BST	5
T_REC_XST	8
T_REC_TTP	63
T_REC_THO	3
T_REC_SLD	90
T_REC_ALL	692
T_NUM_TAP	510
T_NUM_BRK	53
T_NUM_HLD	39
T_NUM_SLD	90
T_NUM_ALL	692
T_JUDGE_TAP	563
T_JUDGE_HLD	213
T_JUDGE_SLD	90
T_JUDGE_ALL	866
TTM_EACHPAIRS	147
TTM_SCR_TAP	255000
TTM_SCR_BRK	137800
TTM_SCR_HLD	39000
TTM_SCR_SLD	135000
TTM_SCR_ALL	566800
TTM_SCR_S	544700
TTM_SCR_SS	561500
TTM_RAT_ACV	10094

