VERSION	0.00.00	1.03.00
FES_MODE	0
BPM_DEF	128.000	128.000	128.000	128.000
MET_DEF	4	4
RESOLUTION	384
CLK_DEF	384
COMPATIBLE_CODE	MA2

BPM	0	0	128.000
MET	0	0	4	4

HLD	3	0	3	384
TAP	3	0	4
TAP	3	96	4
TAP	3	288	4
HLD	4	0	5	384
TAP	4	96	4
TTP	4	192	4	E	0	M1
TTP	4	288	2	E	0	M1
XHO	5	0	1	384
TAP	5	96	3
TAP	5	288	3
STR	6	0	4
SI_	6	0	4	96	96	7
STR	6	192	0
SI_	6	192	0	96	96	3
HLD	7	0	5	384
TAP	7	96	3
TAP	7	192	4
TAP	7	288	3
HLD	8	0	2	96
TAP	8	96	3
XTP	8	192	2
XTP	8	192	3
XTP	8	264	3
XTP	8	264	4
XTP	8	336	4
XTP	8	336	5
XTP	9	0	4
XHO	9	0	5	384
TAP	9	96	3
TAP	9	192	4
TAP	9	288	3
STR	10	0	4
SCR	10	0	4	96	192	3
TAP	11	0	6
TAP	11	0	7
TAP	11	96	0
STR	11	96	5
SCL	11	96	5	96	96	2
HLD	11	288	1	288
TTP	12	0	1	E	0	M1
TTP	12	96	2	E	0	M1
TTP	12	192	3	E	0	M1
TTP	12	288	0	C	1	M1
XTP	13	0	6
XTP	13	0	7
TAP	13	96	0
STR	13	96	5
SCR	13	96	5	96	96	0
HLD	13	288	1	96
TAP	14	0	0
TAP	14	96	2
STR	14	96	7
SSR	14	96	7	96	144	3
HLD	15	0	1	384
TTP	15	96	3	E	0	M1
TTP	15	192	4	E	0	M1
TTP	15	288	5	E	0	M1
TTP	16	0	6	B	0	M1
TTP	16	0	6	E	0	M1
TTP	16	96	1	B	0	M1
TTP	16	96	2	E	0	M1
TTP	16	192	0	C	1	M1
XTP	16	288	0
XTP	16	288	7
XHO	17	0	6	288
TTP	17	96	7	E	0	M1
TTP	17	192	0	E	0	M1
TTP	17	288	1	E	0	M1
TTP	18	0	3	E	0	M1
TTP	18	0	5	E	0	M1
TTP	18	96	2	E	0	M1
TTP	18	96	6	E	0	M1
TTP	18	192	1	E	0	M1
TTP	18	192	7	E	0	M1
TAP	18	288	0
TAP	18	288	7
XTP	19	0	0
XTP	19	0	1
TAP	19	96	2
TAP	19	96	3
STR	19	192	4
SCL	19	192	4	96	96	1
TAP	19	192	5
TAP	20	0	0
TAP	20	96	2
HLD	20	96	7	96
TAP	20	192	0
XTP	20	240	7
XTP	20	288	7
XTP	21	0	6
XTP	21	0	7
TAP	21	96	4
TAP	21	96	5
TAP	21	192	2
STR	21	192	3
SCR	21	192	3	96	96	6
TAP	22	0	7
STR	22	96	0
SV_	22	96	0	96	120	3
STR	22	96	6
SV_	22	96	6	96	120	3
XTP	23	0	2
XTP	23	0	3
TAP	23	96	0
TAP	23	96	1
TAP	23	192	6
STR	23	192	7
SCR	23	192	7	96	96	2
TAP	24	0	3
TAP	24	96	1
HLD	24	96	4	96
TAP	24	192	3
XTP	24	240	4
XTP	24	288	4
TAP	25	0	4
TAP	25	0	5
STR	25	96	6
SCL	25	96	6	96	96	3
TAP	25	96	7
TAP	25	288	2
TAP	26	0	2
TAP	26	0	3
TAP	26	48	1
TAP	26	96	0
TAP	26	96	7
TAP	26	192	4
TAP	26	192	5
TAP	26	240	6
TAP	26	288	0
TAP	26	288	7
HLD	27	0	1	96
BRK	27	0	6
HLD	27	96	2	96
HLD	27	192	3	96
HLD	27	288	4	96
STR	28	0	5
SCL	28	0	5	96	96	2
TAP	28	192	7
TAP	28	288	0
TAP	28	288	7
XTP	29	0	1
XHO	29	0	6	96
HLD	29	96	5	96
HLD	29	192	4	96
HLD	29	288	3	96
STR	30	0	2
SCL	30	0	2	96	144	5
XTP	30	288	3
XTP	30	288	4
TAP	31	0	3
TAP	31	48	3
TAP	31	96	4
TAP	31	144	4
TAP	31	192	2
TAP	31	240	2
TAP	31	288	5
TAP	31	336	5
TAP	32	0	1
TAP	32	48	1
TAP	32	96	6
TAP	32	144	6
TAP	32	192	0
TAP	32	240	0
TAP	32	288	7
TAP	32	336	7
TAP	33	0	1
TAP	33	0	6
TAP	33	48	1
TAP	33	48	6
TAP	33	96	1
TAP	33	96	6
TAP	33	144	1
TAP	33	144	6
TAP	33	192	1
TAP	33	192	6
TAP	33	240	1
TAP	33	240	6
TAP	33	288	1
TAP	33	288	6
TAP	33	336	1
TAP	33	336	6
XTP	34	0	0
XTP	34	0	7
TTP	34	96	7	E	0	M1
TTP	34	144	6	E	0	M1
TTP	34	192	5	E	0	M1
TTP	34	240	4	E	0	M1
TTP	34	288	3	E	0	M1
TTP	34	336	2	E	0	M1
STR	35	0	0
SLL	35	0	0	96	96	4
SLR	35	0	0	96	96	4
TTP	35	288	0	C	1	M1
BRK	36	0	0
BRK	36	0	7
TTP	36	96	3	B	0	M1
TTP	36	96	3	E	0	M1
TTP	36	96	4	B	0	M1
TTP	36	96	5	E	0	M1
TTP	36	192	0	B	0	M1
TTP	36	192	1	E	0	M1
TTP	36	192	7	B	0	M1
TTP	36	192	7	E	0	M1
TTP	36	288	3	B	0	M1
TTP	36	288	3	E	0	M1
TTP	36	288	4	B	0	M1
TTP	36	288	5	E	0	M1
XTP	37	0	1
BST	37	48	1
SCR	37	48	1	96	48	4
BST	37	144	0
SV_	37	144	0	96	48	5
BRK	37	240	1
TAP	37	336	2
BRK	38	0	3
BRK	38	0	7
TTP	38	96	5	B	0	M1
TTP	38	96	5	E	0	M1
TTP	38	144	1	B	0	M1
TTP	38	144	1	E	0	M1
TTP	38	192	6	B	0	M1
TTP	38	192	7	E	0	M1
XTP	38	288	3
XTP	38	288	4
HLD	39	0	1	48
HLD	39	0	2	48
HLD	39	96	5	48
HLD	39	96	6	48
HLD	39	192	1	48
HLD	39	192	2	48
HLD	39	288	5	48
HLD	39	288	6	48
TTP	40	0	0	C	1	M1
TTP	40	96	3	B	0	M1
TTP	40	96	3	E	0	M1
TTP	40	96	4	B	0	M1
TTP	40	96	5	E	0	M1
TTP	40	192	0	B	0	M1
TTP	40	192	1	E	0	M1
TTP	40	192	7	B	0	M1
TTP	40	192	7	E	0	M1
TTP	40	288	3	B	0	M1
TTP	40	288	3	E	0	M1
TTP	40	288	4	B	0	M1
TTP	40	288	5	E	0	M1
XTP	41	0	6
BST	41	48	6
SCL	41	48	6	96	48	3
BST	41	144	7
SV_	41	144	7	96	48	2
BRK	41	240	6
TAP	41	336	5
BRK	42	0	0
BRK	42	0	4
TTP	42	96	5	B	0	M1
TTP	42	96	5	E	0	M1
TTP	42	144	1	B	0	M1
TTP	42	144	1	E	0	M1
TTP	42	192	6	B	0	M1
TTP	42	192	7	E	0	M1
XTP	42	288	2
XTP	42	288	5
HLD	43	0	1	48
HLD	43	0	4	48
HLD	43	96	3	48
HLD	43	96	6	48
TTP	43	192	0	C	1	M1
TTP	43	192	2	B	0	M1
TTP	43	192	3	B	0	M1
TTP	43	192	4	B	0	M1
TTP	43	192	5	B	0	M1
XTP	43	288	0
XTP	43	288	7
TAP	44	0	1
TAP	44	0	6
TTP	44	96	2	B	0	M1
TTP	44	96	3	E	0	M1
TAP	44	96	7
TAP	44	192	0
TTP	44	192	5	B	0	M1
TTP	44	192	5	E	0	M1
TTP	44	288	2	B	0	M1
TTP	44	288	3	E	0	M1
TAP	44	288	7
TAP	45	0	6
TAP	45	48	6
TAP	45	96	3
TAP	45	96	5
TAP	45	192	1
TAP	45	240	1
TAP	45	288	2
TAP	45	288	4
TAP	46	0	0
TAP	46	0	7
TTP	46	96	5	B	0	M1
TTP	46	96	6	B	0	M1
TTP	46	96	6	E	0	M1
TTP	46	144	1	B	0	M1
TTP	46	144	2	B	0	M1
TTP	46	144	2	E	0	M1
TTP	46	192	0	C	0	M1
XTP	46	288	0
XTP	46	288	7
STR	47	0	2
SI_	47	0	2	96	48	5
STR	47	0	6
SI_	47	0	6	96	48	1
STR	47	192	2
SI_	47	192	2	96	48	5
STR	47	192	6
SI_	47	192	6	96	48	1
TAP	48	0	3
TAP	48	0	7
TAP	48	96	0
TTP	48	96	5	B	0	M1
TTP	48	96	5	E	0	M1
TTP	48	192	2	B	0	M1
TTP	48	192	3	E	0	M1
TAP	48	192	7
TAP	48	288	0
TTP	48	288	5	B	0	M1
TTP	48	288	5	E	0	M1
XHO	49	0	2	32
XHO	49	48	3	32
XHO	49	96	4	32
XHO	49	144	5	32
XTP	49	192	1
XTP	49	192	6
XTP	49	288	3
XTP	49	288	4
STR	50	0	6
SSR	50	0	6	96	96	2
TAP	50	96	2
STR	50	192	1
SSL	50	192	1	96	96	5
TAP	50	288	6
TAP	51	0	7
STR	51	96	0
SI_	51	96	0	96	72	4
STR	51	96	6
SI_	51	96	6	96	72	2
TTP	51	204	0	C	1	M1
HLD	52	0	5	96
TAP	52	96	4
TAP	52	120	5
TAP	52	168	3
TAP	52	168	6
TAP	52	240	1
TAP	52	240	4
TAP	52	288	1
TAP	52	288	4
TAP	53	0	3
HLD	53	0	7	96
TAP	53	96	0
TAP	53	120	7
TAP	53	168	2
HLD	53	168	4	120
BRK	53	240	0
BRK	53	288	0
HLD	54	0	2	96
TAP	54	96	3
TAP	54	120	2
TAP	54	168	1
TAP	54	168	4
TAP	54	240	3
TAP	54	240	6
TAP	54	288	3
TAP	54	288	6
HLD	55	0	0	96
TAP	55	0	4
TAP	55	96	7
TAP	55	120	0
TAP	55	168	2
STR	55	168	3
SF_	55	168	3	96	72	7
TAP	56	0	0
HLD	56	0	5	96
TAP	56	96	4
TAP	56	120	5
TAP	56	168	3
TAP	56	168	6
TAP	56	240	1
TAP	56	240	4
TAP	56	288	2
TAP	56	336	3
TAP	56	336	6
TAP	57	0	2
HLD	57	0	5	96
TAP	57	96	4
TAP	57	120	5
STR	57	168	3
SI_	57	168	3	96	48	0
TAP	57	168	6
BRK	57	240	7
BRK	57	288	7
HLD	58	0	1	96
TAP	58	0	5
TAP	58	96	0
TAP	58	120	1
HLD	58	168	2	72
TAP	58	168	7
TAP	58	240	3
TAP	58	288	1
TAP	58	288	4
XTP	59	0	6
XTP	59	0	7
XTP	59	48	4
XTP	59	48	5
XTP	59	96	2
XTP	59	96	3
XTP	59	120	2
XTP	59	120	3
XHO	59	168	1	72
XHO	59	168	4	72
TTP	59	288	0	C	1	M1
XST	60	0	6
SCR	60	0	6	96	48	0
STR	60	96	2
SCR	60	96	2	96	48	4
STR	60	192	6
SI_	60	192	6	96	48	2
TAP	60	288	1
TAP	61	0	0
HLD	61	48	0	48
TAP	61	96	7
TAP	61	120	0
HLD	61	168	2	120
TAP	61	168	6
TTP	61	288	0	C	1	M1
TTP	61	288	3	B	0	M1
TTP	61	288	4	B	0	M1
XST	62	0	1
SCL	62	0	1	96	48	7
STR	62	96	5
SCL	62	96	5	96	48	3
STR	62	192	1
SI_	62	192	1	96	48	5
TAP	62	288	6
TAP	63	0	7
HLD	63	48	7	48
TAP	63	96	0
TAP	63	120	7
TAP	63	168	2
STR	63	168	5
SLL	63	168	5	96	96	7
XST	64	0	1
SCR	64	0	1	96	48	3
STR	64	96	5
SCR	64	96	5	96	48	7
STR	64	192	4
SI_	64	192	4	96	48	0
TAP	64	288	5
TAP	65	0	7
HLD	65	48	7	48
TAP	65	96	0
TAP	65	120	7
TAP	65	168	1
HLD	65	168	5	120
TTP	65	288	0	C	1	M1
TTP	65	288	3	B	0	M1
TTP	65	288	4	B	0	M1
XHO	66	0	6	96
TAP	66	96	7
TAP	66	120	6
TAP	66	168	0
TAP	66	168	5
TAP	66	240	3
TAP	66	240	4
TAP	66	288	2
TAP	66	336	1
TAP	66	336	6
XTP	67	0	0
XTP	67	48	7
XTP	67	96	0
XTP	67	96	7
XTP	67	120	0
XTP	67	120	7
XTP	67	168	2
XTP	67	168	5
TAP	67	240	3
TAP	67	240	4
TAP	67	288	3
TAP	67	336	4
HLD	68	0	2	384
BRK	68	0	5
TAP	68	96	3
TAP	68	288	3
HLD	69	0	5	96
TAP	69	96	4
TAP	69	192	4
TAP	69	192	5
TAP	69	264	3
TAP	69	264	4
TAP	69	336	2
TAP	69	336	3
HLD	70	0	1	384
TAP	70	0	4
TAP	70	96	2
TAP	70	288	3
STR	71	0	4
SCR	71	0	4	96	72	7
STR	71	192	0
SCR	71	192	0	96	72	3
STR	72	0	6
SSR	72	0	6	96	144	2
TAP	72	288	1
STR	73	0	0
SSL	73	0	0	96	144	4
TAP	73	0	7
TAP	73	288	6
TAP	74	0	2
STR	74	0	7
SCL	74	0	7	96	144	2
TAP	74	288	1
TTP	75	0	3	E	0	M1
TTP	75	192	5	E	0	M1
TTP	75	312	1	B	0	M1
TTP	75	312	2	B	0	M1
TTP	75	312	2	E	0	M1
TTP	76	0	5	B	0	M1
TTP	76	0	6	B	0	M1
TTP	76	0	6	E	0	M1
TTP	77	312	0	C	1	M1

T_REC_TAP	201
T_REC_BRK	14
T_REC_XTP	56
T_REC_HLD	45
T_REC_XHO	11
T_REC_STR	37
T_REC_BST	4
T_REC_XST	3
T_REC_TTP	108
T_REC_THO	0
T_REC_SLD	45
T_REC_ALL	524
T_NUM_TAP	405
T_NUM_BRK	18
T_NUM_HLD	56
T_NUM_SLD	45
T_NUM_ALL	524
T_JUDGE_TAP	423
T_JUDGE_HLD	152
T_JUDGE_SLD	45
T_JUDGE_ALL	620
TTM_EACHPAIRS	107
TTM_SCR_TAP	202500
TTM_SCR_BRK	46800
TTM_SCR_HLD	56000
TTM_SCR_SLD	67500
TTM_SCR_ALL	372800
TTM_SCR_S	359900
TTM_SCR_SS	371000
TTM_RAT_ACV	10048

