VERSION	0.00.00	1.03.00
FES_MODE	0
BPM_DEF	128.000	128.000	128.000	128.000
MET_DEF	4	4
RESOLUTION	384
CLK_DEF	384
COMPATIBLE_CODE	MA2

BPM	0	0	128.000
MET	0	0	4	4
MET	71	0	4	4

HLD	3	0	2	192
TAP	3	192	3
TAP	3	288	4
HLD	4	0	5	192
TAP	4	192	4
TAP	4	288	3
HLD	5	0	2	192
TAP	5	192	3
TAP	5	288	4
HLD	6	0	3	96
HLD	6	0	5	96
HLD	6	192	2	96
HLD	6	192	4	96
TAP	7	0	5
TAP	7	96	5
TAP	7	192	4
TAP	7	192	5
TAP	8	0	2
TAP	8	96	2
TAP	8	192	2
TAP	8	192	3
TAP	9	0	5
TAP	9	96	5
TAP	9	192	4
TAP	9	288	4
STR	10	0	3
SCL	10	0	3	96	144	0
STR	10	0	4
SCR	10	0	4	96	144	7
TTP	11	0	6	B	0	L1
TTP	11	0	7	B	0	L1
TTP	11	192	0	B	0	L1
TTP	11	192	1	B	0	L1
THO	12	0	0	192	C	1	L1
TTP	13	0	2	B	0	L1
TTP	13	0	3	B	0	L1
TTP	13	192	4	B	0	L1
TTP	13	192	5	B	0	L1
THO	14	0	0	192	C	1	L1
XHO	15	0	6	192
HLD	15	192	7	192
HLD	16	0	0	192
TAP	16	192	1
HLD	17	0	2	192
HLD	17	192	3	192
HLD	18	0	4	192
TAP	18	192	5
TAP	18	288	3
TAP	18	288	6
STR	19	0	2
SI_	19	0	2	96	144	7
STR	20	0	6
SI_	20	0	6	96	144	3
STR	21	0	2
SCR	21	0	2	96	144	5
STR	22	0	6
SUL	22	0	6	96	144	2
TAP	23	0	1
TAP	23	96	1
TAP	23	192	0
TAP	23	192	1
TAP	24	0	6
TAP	24	96	6
TAP	24	192	6
TAP	24	192	7
TAP	25	0	1
TAP	25	96	1
TAP	25	192	0
TAP	25	192	1
TAP	26	0	7
TAP	26	96	0
TAP	26	96	7
XTP	26	192	1
XTP	26	192	6
TAP	27	0	5
TAP	27	96	5
TAP	27	192	4
TAP	27	288	4
TAP	28	0	3
TAP	28	96	3
TAP	28	192	2
TAP	28	192	4
TAP	29	0	1
TAP	29	96	1
TAP	29	192	0
TAP	29	288	0
TAP	30	0	7
TAP	30	96	7
TAP	30	192	0
TAP	30	192	6
TAP	31	0	5
TAP	31	96	4
TAP	31	192	3
TAP	31	288	2
TAP	32	0	1
TAP	32	96	0
TAP	32	192	7
XTP	32	288	1
XTP	32	288	6
TAP	33	0	5
TAP	33	48	5
TAP	33	96	4
TAP	33	192	2
TAP	33	240	2
HLD	33	288	3	96
HLD	33	288	4	96
TTP	34	96	2	B	0	L1
TTP	34	96	5	B	0	L1
TTP	34	192	1	B	0	L1
TTP	34	192	6	B	0	L1
TTP	34	288	1	E	0	L1
TTP	34	288	7	E	0	L1
TTP	35	0	0	C	1	L1
XTP	35	288	0
XTP	35	288	7
BRK	36	0	6
TAP	36	96	6
TAP	36	96	7
TAP	36	192	6
TAP	36	288	0
TAP	36	288	5
HLD	37	0	1	96
HLD	37	96	0	96
HLD	37	192	7	96
TAP	37	288	6
BRK	38	0	5
TAP	38	96	4
TAP	38	96	5
TAP	38	192	5
TAP	38	288	3
TAP	38	288	6
TAP	39	0	4
TAP	39	0	5
TAP	39	96	2
TAP	39	96	3
TAP	39	192	0
TAP	39	192	1
TAP	39	288	6
TAP	39	288	7
BRK	40	0	1
TAP	40	96	0
TAP	40	96	1
TAP	40	192	1
TAP	40	288	2
TAP	40	288	7
XHO	41	0	6	96
HLD	41	96	7	96
HLD	41	192	0	96
TAP	41	288	1
BRK	42	0	2
TAP	42	96	2
TAP	42	96	3
TAP	42	192	2
TAP	42	288	1
TAP	42	288	4
TAP	43	0	2
TAP	43	0	3
TAP	43	96	4
TAP	43	96	5
TAP	43	192	6
TAP	43	192	7
XTP	43	288	0
XTP	43	288	7
TAP	44	0	1
TAP	44	96	0
TAP	44	96	1
TAP	44	192	2
TAP	44	288	2
TAP	44	288	3
TAP	45	0	5
TAP	45	96	4
TAP	45	96	5
TAP	45	192	3
TAP	45	192	6
TAP	46	0	6
TAP	46	96	6
TAP	46	96	7
TAP	46	192	5
TAP	46	288	3
TAP	46	288	4
TTP	47	0	1	B	0	L1
TTP	47	0	2	B	0	L1
TTP	47	192	5	B	0	L1
TTP	47	192	6	B	0	L1
TAP	48	0	2
TAP	48	96	2
TAP	48	96	3
TAP	48	192	1
TAP	48	288	0
TAP	48	288	1
STR	49	0	0
SCL	49	0	0	96	144	5
STR	49	0	1
SCR	49	0	1	96	144	4
TAP	50	0	5
TAP	50	96	4
TAP	50	96	5
TAP	50	192	6
TAP	50	288	6
TAP	50	288	7
TAP	51	0	0
TAP	51	0	7
TAP	51	96	1
TAP	51	96	6
BRK	51	192	2
BRK	51	192	5
HLD	52	0	1	96
TAP	52	96	0
HLD	52	192	6	96
TAP	52	288	7
HLD	53	0	4	48
HLD	53	0	5	48
TAP	53	96	4
TAP	53	96	5
TAP	53	192	6
TAP	53	240	6
TAP	53	288	7
HLD	54	0	1	96
TAP	54	96	0
HLD	54	192	6	96
TAP	54	288	7
STR	55	0	4
SI_	55	0	4	96	144	1
STR	55	0	5
SI_	55	0	5	96	144	0
HLD	56	0	2	96
TAP	56	96	3
HLD	56	192	5	96
TAP	56	288	4
HLD	57	0	6	48
HLD	57	0	7	48
TAP	57	96	6
TAP	57	96	7
TAP	57	192	5
TAP	57	240	5
TAP	57	288	4
HLD	58	0	2	96
TAP	58	96	3
HLD	58	192	5	96
TAP	58	288	4
TAP	59	0	4
TAP	59	0	5
TAP	59	96	2
TAP	59	96	3
TAP	59	192	0
TAP	59	192	1
BRK	59	288	2
BRK	59	288	7
TAP	60	0	6
TAP	60	96	6
TAP	60	96	7
TAP	60	192	1
TAP	60	288	0
TAP	60	288	1
HLD	61	0	6	96
HLD	61	96	7	96
HLD	61	192	0	96
BRK	61	288	1
TAP	62	0	2
TAP	62	96	2
TAP	62	96	3
TAP	62	192	5
TAP	62	288	4
TAP	62	288	5
HLD	63	0	2	96
HLD	63	96	3	96
HLD	63	192	4	96
XTP	63	288	5
TAP	64	0	6
TAP	64	96	6
TAP	64	96	7
TAP	64	192	1
TAP	64	288	0
TAP	64	288	1
HLD	65	0	6	96
HLD	65	96	7	96
HLD	65	192	0	96
BRK	65	288	1
TAP	66	0	2
TAP	66	96	2
TAP	66	96	3
TAP	66	192	5
TAP	66	288	4
TAP	66	288	5
TAP	67	0	6
TAP	67	0	7
TAP	67	96	0
TAP	67	96	1
TAP	67	192	2
TAP	67	192	3
TAP	67	288	1
TAP	67	288	4
STR	68	0	5
SI_	68	0	5	96	144	0
STR	69	0	1
SI_	69	0	1	96	144	5
STR	70	0	6
SI_	70	0	6	96	144	3
TAP	71	0	2
TAP	71	96	2
TAP	71	96	3
TAP	71	192	5
TAP	71	288	4
TAP	71	288	5
TAP	72	0	3
STR	72	0	6
SCL	72	0	6	96	144	3
STR	73	0	2
SCL	73	0	2	96	144	7
STR	74	0	6
SCL	74	0	6	96	144	3
STR	74	0	7
SCR	74	0	7	96	144	2
TTP	75	0	3	E	0	L1
TTP	75	192	5	E	0	L1
TTP	76	0	0	C	1	L1
TTP	77	312	0	C	1	L1

T_REC_TAP	197
T_REC_BRK	10
T_REC_XTP	9
T_REC_HLD	40
T_REC_XHO	2
T_REC_STR	17
T_REC_BST	0
T_REC_XST	0
T_REC_TTP	23
T_REC_THO	2
T_REC_SLD	17
T_REC_ALL	317
T_NUM_TAP	246
T_NUM_BRK	10
T_NUM_HLD	44
T_NUM_SLD	17
T_NUM_ALL	317
T_JUDGE_TAP	256
T_JUDGE_HLD	106
T_JUDGE_SLD	17
T_JUDGE_ALL	379
TTM_EACHPAIRS	71
TTM_SCR_TAP	123000
TTM_SCR_BRK	26000
TTM_SCR_HLD	44000
TTM_SCR_SLD	25500
TTM_SCR_ALL	218500
TTM_SCR_S	211000
TTM_SCR_SS	217500
TTM_RAT_ACV	10045

