VERSION	0.00.00	1.03.00
FES_MODE	0
BPM_DEF	128.000	128.000	128.000	128.000
MET_DEF	4	4
RESOLUTION	384
CLK_DEF	384
COMPATIBLE_CODE	MA2

BPM	0	0	128.000
MET	0	0	4	4

TAP	7	0	0
TAP	8	0	0
TAP	9	0	7
XTP	10	0	7
TAP	11	0	0
TAP	12	0	0
TAP	13	0	1
TAP	14	0	1
TAP	15	0	2
TAP	16	0	2
TAP	17	0	3
TAP	18	0	3
TAP	18	0	4
TAP	19	0	4
TAP	19	192	4
TAP	20	0	4
TAP	21	0	5
TAP	21	192	5
TAP	22	0	5
TAP	23	0	6
TAP	23	192	6
TAP	24	0	6
TAP	25	0	7
TAP	25	192	7
XTP	26	0	0
XTP	26	0	7
STR	27	0	7
SI_	27	0	7	96	288	4
STR	29	0	0
SI_	29	0	0	96	288	3
STR	31	0	4
SI_	31	0	4	96	288	7
TAP	33	0	0
XHO	34	0	0	384
XHO	34	0	7	384
BRK	36	0	7
TAP	36	192	7
TAP	37	0	6
TAP	37	96	6
TAP	37	192	6
XTP	38	0	5
TAP	38	192	5
TAP	39	0	4
TAP	39	96	4
TAP	39	192	4
BRK	40	0	3
TAP	40	192	3
TAP	41	0	2
TAP	41	96	2
TAP	41	192	2
XTP	42	0	1
TAP	42	192	1
TAP	43	0	0
TAP	43	96	0
TAP	43	192	0
TAP	43	192	7
TAP	44	0	0
TAP	44	192	0
TAP	45	0	0
TAP	45	0	1
TAP	45	192	0
TAP	45	192	1
TAP	46	0	2
TAP	46	192	2
TAP	47	0	2
TAP	47	0	3
TAP	47	192	2
TAP	47	192	3
TAP	48	0	4
TAP	48	192	4
TAP	49	0	4
TAP	49	0	5
TAP	49	192	4
TAP	49	192	5
TAP	50	0	6
TAP	50	192	6
TAP	51	0	0
TAP	51	0	7
XTP	51	192	0
XTP	51	192	7
HLD	52	0	7	192
HLD	53	0	6	192
HLD	54	0	5	192
TAP	55	0	4
TAP	55	192	3
TAP	55	192	4
HLD	56	0	3	192
HLD	57	0	2	192
HLD	58	0	1	192
TAP	59	0	0
XTP	59	192	0
XTP	59	192	7
TAP	60	0	0
TAP	60	96	0
TAP	60	192	0
TAP	61	0	1
TAP	61	96	1
TAP	61	192	1
TAP	62	0	2
TAP	62	96	2
TAP	62	192	2
TAP	63	0	3
TAP	63	96	3
TAP	63	192	3
TAP	63	192	4
TAP	64	0	4
TAP	64	96	4
TAP	64	192	4
TAP	65	0	5
TAP	65	96	5
TAP	65	192	5
TAP	66	0	6
TAP	66	96	6
TAP	66	192	6
TAP	67	0	7
TAP	67	96	7
TAP	67	192	0
TAP	67	192	7
TTP	68	0	7	B	0	L1
TTP	69	0	0	B	0	L1
TTP	70	0	6	B	0	L1
TTP	71	0	1	B	0	L1
TTP	72	0	5	B	0	L1
TTP	73	0	2	B	0	L1
THO	74	0	0	696	C	1	L1
TTP	77	312	0	C	1	L1

T_REC_TAP	93
T_REC_BRK	2
T_REC_XTP	9
T_REC_HLD	6
T_REC_XHO	2
T_REC_STR	3
T_REC_BST	0
T_REC_XST	0
T_REC_TTP	7
T_REC_THO	1
T_REC_SLD	3
T_REC_ALL	126
T_NUM_TAP	112
T_NUM_BRK	2
T_NUM_HLD	9
T_NUM_SLD	3
T_NUM_ALL	126
T_JUDGE_TAP	114
T_JUDGE_HLD	55
T_JUDGE_SLD	3
T_JUDGE_ALL	172
TTM_EACHPAIRS	16
TTM_SCR_TAP	56000
TTM_SCR_BRK	5200
TTM_SCR_HLD	9000
TTM_SCR_SLD	4500
TTM_SCR_ALL	74700
TTM_SCR_S	72300
TTM_SCR_SS	74500
TTM_RAT_ACV	10026

