VERSION	0.00.00	1.03.00
FES_MODE	0
BPM_DEF	190.000	190.000	190.000	190.000
MET_DEF	4	4
RESOLUTION	384
CLK_DEF	384
COMPATIBLE_CODE	MA2

BPM	0	0	190.000
MET	0	0	4	4

TAP	1	0	3
TAP	1	0	4
HLD	1	96	2	144
TAP	1	96	5
TAP	1	240	3
TAP	1	288	2
HLD	1	288	4	144
TAP	2	48	3
TAP	2	96	2
HLD	2	96	5	144
TAP	2	240	4
TAP	2	288	3
TAP	2	288	5
TAP	3	0	4
TAP	3	96	3
HLD	3	96	5	144
TAP	3	240	4
HLD	3	288	3	144
TAP	3	288	5
TAP	4	48	4
HLD	4	96	2	144
TAP	4	96	5
TAP	4	240	3
TAP	4	288	2
TAP	4	288	4
TAP	5	0	3
TAP	5	0	4
TAP	5	96	2
HLD	5	96	5	144
TAP	5	240	4
HLD	5	288	3	144
TAP	5	288	5
TAP	6	48	4
TAP	6	96	3
HLD	6	96	5	144
TAP	6	240	4
TAP	6	288	3
TAP	6	288	5
TAP	7	0	3
TAP	7	0	4
HLD	7	96	2	144
TAP	7	96	5
TAP	7	240	3
TAP	7	288	3
TAP	7	288	4
TAP	8	0	4
TAP	8	0	6
TAP	8	96	0
TAP	8	96	7
TAP	8	192	1
TAP	8	192	3
TAP	8	288	2
TAP	8	288	5
HLD	9	0	3	96
TAP	9	0	4
XTP	9	96	6
TAP	9	192	5
TAP	9	240	5
TAP	9	288	4
TAP	10	0	3
TAP	10	48	3
TAP	10	96	4
TAP	10	192	5
TAP	10	240	5
TAP	10	288	4
TAP	11	0	3
TAP	11	0	4
TAP	11	96	1
TAP	11	96	4
TAP	11	192	2
TAP	11	240	2
TAP	11	288	3
TAP	12	0	4
TAP	12	48	4
TAP	12	96	3
TAP	12	192	3
TAP	12	192	4
XTP	12	288	3
XTP	12	312	4
XTP	12	336	3
XTP	12	360	4
XTP	13	0	3
HLD	13	96	2	48
HLD	13	96	3	48
HLD	13	192	1	48
HLD	13	192	3	48
HLD	13	288	2	48
HLD	13	288	3	48
TAP	14	0	3
HLD	14	0	4	48
HLD	14	96	4	48
HLD	14	96	5	48
HLD	14	192	4	48
HLD	14	192	6	48
HLD	14	288	4	48
HLD	14	288	5	48
TAP	15	0	3
HLD	15	0	4	48
HLD	15	96	3	48
HLD	15	96	5	48
HLD	15	192	2	48
HLD	15	192	6	48
HLD	15	288	1	48
HLD	15	288	7	48
XTP	16	0	0
XTP	16	96	1
XHO	16	168	2	120
BRK	16	240	7
BRK	16	288	7
TAP	17	0	3
TAP	17	0	4
TAP	17	48	2
STR	17	96	1
SI_	17	96	1	96	48	6
TAP	17	96	3
STR	17	192	5
SI_	17	192	5	96	48	2
STR	17	288	1
SI_	17	288	1	96	48	6
STR	18	0	5
SV_	18	0	5	96	48	2
TAP	18	96	2
TAP	18	144	1
TAP	18	192	0
TAP	18	240	7
TAP	18	288	0
TAP	18	288	6
TAP	19	0	1
TAP	19	0	7
TAP	19	48	6
TAP	19	96	3
STR	19	96	5
SI_	19	96	5	96	48	2
STR	19	192	1
SI_	19	192	1	96	48	4
STR	19	288	5
SI_	19	288	5	96	48	0
STR	20	0	0
SF_	20	0	0	96	48	4
XTP	20	192	2
XTP	20	192	6
TAP	20	288	1
TAP	20	288	5
STR	21	0	2
SI_	21	0	2	96	48	5
STR	21	96	6
SI_	21	96	6	96	48	1
STR	21	192	2
SI_	21	192	2	96	48	5
STR	21	288	6
SV_	21	288	6	96	48	0
STR	22	0	2
SV_	22	0	2	96	48	4
XTP	22	96	7
TAP	22	144	7
TAP	22	192	7
TAP	22	288	3
TAP	22	288	6
STR	23	0	5
SV_	23	0	5	96	48	2
STR	23	96	1
SV_	23	96	1	96	48	6
TAP	23	192	5
TAP	23	288	4
TAP	24	0	3
TAP	24	24	4
TAP	24	48	3
TAP	24	72	4
TAP	24	96	3
TAP	24	144	5
TAP	24	168	4
TAP	24	216	2
TAP	24	240	3
TAP	24	288	1
TAP	24	288	4
XTP	25	0	3
XTP	25	0	5
STR	25	96	2
SI_	25	96	2	96	48	7
TAP	25	144	2
STR	25	192	6
SI_	25	192	6	96	48	3
TAP	25	240	6
STR	25	288	0
SV_	25	288	0	96	48	2
TAP	25	336	0
STR	26	0	5
SI_	26	0	5	96	48	0
TAP	26	48	5
TAP	26	96	1
TAP	26	144	1
TAP	26	192	2
TAP	26	192	7
TAP	26	288	4
TAP	26	288	5
XTP	27	0	3
XTP	27	0	4
STR	27	96	5
SI_	27	96	5	96	48	0
TAP	27	144	5
STR	27	192	1
SI_	27	192	1	96	48	4
TAP	27	240	1
STR	27	288	7
SV_	27	288	7	96	48	5
TAP	27	336	7
STR	28	0	2
SI_	28	0	2	96	48	7
TAP	28	48	2
TAP	28	96	6
TAP	28	144	6
TAP	28	192	0
TAP	28	192	6
TAP	28	288	3
TAP	28	288	4
XTP	29	0	2
XTP	29	0	5
STR	29	96	4
SI_	29	96	4	96	48	0
TAP	29	144	4
STR	29	192	1
SV_	29	192	1	96	48	3
TAP	29	240	1
STR	29	288	7
SV_	29	288	7	96	48	5
TAP	29	336	7
STR	30	0	4
SI_	30	0	4	96	48	0
TAP	30	48	4
XTP	30	96	6
TAP	30	144	6
TAP	30	192	1
TAP	30	192	6
TAP	30	288	2
TAP	30	288	5
TAP	31	0	4
TAP	31	0	6
TAP	31	48	5
TAP	31	96	3
TAP	31	96	4
TAP	31	144	2
TAP	31	192	1
TAP	31	192	4
TAP	31	240	2
TAP	31	288	2
TAP	31	288	6
TAP	31	336	5
STR	32	0	0
SI_	32	0	0	96	48	3
TAP	32	0	5
STR	32	96	4
SI_	32	96	4	96	48	7
STR	32	192	0
SCL	32	192	0	96	48	5
SCR	32	192	0	96	48	3
BRK	32	288	0
XTP	33	0	3
XTP	33	0	5
TAP	33	96	2
HLD	33	144	2	528
TAP	33	240	3
TAP	33	336	3
TAP	34	48	1
TAP	34	144	1
TAP	34	240	3
TAP	34	288	3
TAP	35	0	3
TAP	35	0	4
TAP	35	96	5
HLD	35	144	5	192
TAP	35	240	4
TAP	35	336	3
TAP	36	0	3
TAP	36	0	5
STR	36	96	4
SI_	36	96	4	96	96	1
SI_	36	96	4	96	96	7
BRK	37	0	0
TAP	37	96	1
TAP	37	120	3
TAP	37	144	1
TAP	37	168	3
TAP	37	192	2
TAP	37	216	4
TAP	37	240	2
TAP	37	264	4
TAP	37	288	3
TAP	37	312	5
TAP	37	336	3
TAP	37	360	5
HLD	38	0	4	96
TAP	38	96	6
TAP	38	120	4
TAP	38	144	6
TAP	38	168	4
TAP	38	192	5
TAP	38	216	3
TAP	38	240	5
TAP	38	264	3
TAP	38	288	4
TAP	38	312	2
TAP	38	336	4
TAP	38	360	2
HLD	39	0	3	96
TAP	39	96	1
TAP	39	120	4
TAP	39	144	1
TAP	39	168	4
TAP	39	192	2
TAP	39	216	5
TAP	39	240	2
TAP	39	264	5
TAP	39	288	3
TAP	39	312	6
TAP	39	336	3
TAP	39	360	6
THO	40	0	0	192	C	0	M1
STR	40	192	0
SF_	40	192	0	96	48	4
BRK	41	0	2
BRK	41	0	6
STR	41	96	1
SI_	41	96	1	96	48	3
STR	41	144	0
SI_	41	144	0	96	48	4
STR	41	192	1
SI_	41	192	1	96	48	5
STR	41	240	0
SI_	41	240	0	96	48	6
TAP	41	288	1
TAP	41	336	0
TAP	42	0	4
TAP	42	48	4
TAP	42	96	3
TAP	42	96	5
TAP	42	144	2
TAP	42	144	4
STR	42	192	1
SI_	42	192	1	96	48	4
STR	42	240	0
SI_	42	240	0	96	48	5
TAP	42	288	1
TAP	42	336	0
STR	43	0	3
SCR	43	0	3	96	48	6
TAP	43	48	2
TAP	43	96	1
TAP	43	96	3
STR	43	144	0
SCR	43	144	0	96	48	3
TAP	43	192	7
TAP	43	240	0
TAP	43	240	6
TAP	43	288	5
TAP	43	336	5
STR	44	0	4
SI_	44	0	4	96	48	1
STR	44	0	6
SI_	44	0	6	96	48	3
TAP	44	96	4
TAP	44	96	6
BRK	44	192	0
BRK	44	192	7
TAP	44	288	1
TAP	44	288	6
TAP	44	336	1
TAP	44	336	6
XTP	45	0	3
XTP	45	0	4
STR	45	96	1
SI_	45	96	1	96	48	4
STR	45	144	5
SI_	45	144	5	96	48	0
STR	45	192	1
SI_	45	192	1	96	48	6
STR	45	240	5
SI_	45	240	5	96	48	2
TAP	45	288	1
TAP	45	336	5
TAP	46	0	0
TAP	46	48	0
TAP	46	96	1
TAP	46	96	4
TAP	46	144	5
TAP	46	192	4
TAP	46	192	6
TAP	46	240	3
TAP	46	288	2
TAP	46	288	4
TAP	46	336	1
TAP	47	0	0
STR	47	0	7
SI_	47	0	7	96	48	3
TAP	47	48	6
TAP	47	96	5
TAP	47	96	7
STR	47	144	4
SI_	47	144	4	96	48	0
TAP	47	192	5
TAP	47	240	4
TAP	47	240	6
TAP	47	288	7
TAP	47	336	6
STR	48	0	3
SCR	48	0	3	96	48	6
TAP	48	0	5
TAP	48	96	1
STR	48	144	0
SI_	48	144	0	96	48	4
TAP	48	240	0
XTP	48	288	7
BRK	49	0	1
BRK	49	0	5
STR	49	96	6
SI_	49	96	6	96	48	4
STR	49	144	7
SI_	49	144	7	96	48	3
STR	49	192	6
SI_	49	192	6	96	48	2
STR	49	240	7
SI_	49	240	7	96	48	1
TAP	49	288	6
TAP	49	336	7
TAP	50	0	3
TAP	50	48	3
TAP	50	96	2
TAP	50	96	4
TAP	50	144	3
TAP	50	144	5
STR	50	192	6
SI_	50	192	6	96	48	3
STR	50	240	7
SI_	50	240	7	96	48	2
TAP	50	288	6
TAP	50	336	7
STR	51	0	4
SCL	51	0	4	96	48	1
TAP	51	48	5
TAP	51	96	4
TAP	51	96	6
STR	51	144	7
SCL	51	144	7	96	48	4
TAP	51	192	0
TAP	51	240	1
TAP	51	240	7
TAP	51	288	2
TAP	51	336	3
STR	52	0	4
SI_	52	0	4	96	48	0
STR	52	0	5
SI_	52	0	5	96	48	1
TAP	52	96	4
TAP	52	96	5
BRK	52	192	2
BRK	52	192	7
TAP	52	288	1
TAP	52	288	4
TAP	52	336	5
STR	53	0	6
SI_	53	0	6	96	48	4
TAP	53	48	3
TAP	53	96	6
STR	53	144	2
SI_	53	144	2	96	48	7
TAP	53	192	3
TAP	53	240	2
TAP	53	288	5
TAP	53	336	4
STR	54	0	6
SI_	54	0	6	96	48	0
TAP	54	48	3
TAP	54	96	6
STR	54	144	1
SI_	54	144	1	96	48	4
TAP	54	192	3
TAP	54	240	1
TAP	54	288	5
TAP	54	336	6
STR	55	0	7
SI_	55	0	7	96	48	3
TAP	55	48	5
TAP	55	96	7
STR	55	144	0
SI_	55	144	0	96	48	4
TAP	55	192	2
TAP	55	240	0
TAP	55	288	6
TAP	55	336	6
STR	56	0	5
SCL	56	0	5	96	48	3
STR	56	96	0
SV_	56	96	0	96	48	3
SV_	56	96	0	96	48	5
TAP	56	192	0
BRK	56	288	2
BRK	56	288	6
TAP	57	0	3
TAP	57	96	3
TAP	57	96	4
TAP	57	192	4
TAP	57	288	3
TAP	57	288	4
TAP	58	0	5
TTP	58	96	4	B	0	M1
TTP	58	96	5	B	0	M1
TAP	58	192	2
TTP	58	288	2	B	0	M1
TTP	58	288	3	B	0	M1
TAP	59	0	6
TTP	59	96	4	B	0	M1
TTP	59	96	6	B	0	M1
TAP	59	192	1
TTP	59	288	1	B	0	M1
TTP	59	288	3	B	0	M1
TAP	60	0	0
TAP	60	24	7
TAP	60	48	0
TAP	60	72	7
TAP	60	96	1
TAP	60	120	6
TAP	60	144	1
TAP	60	168	6
STR	60	192	0
SF_	60	192	0	96	48	4
XTP	61	0	2
XTP	61	0	6
HLD	61	96	4	48
HLD	61	96	5	48
HLD	61	192	3	48
HLD	61	192	4	48
HLD	61	288	2	48
HLD	61	288	3	48
XHO	62	0	1	48
XHO	62	0	2	48
HLD	62	96	0	48
HLD	62	96	1	48
HLD	62	192	0	48
HLD	62	192	7	48
HLD	62	288	6	48
HLD	62	288	7	48
TAP	63	0	5
TAP	63	24	4
TAP	63	48	5
TAP	63	72	4
TAP	63	96	6
TAP	63	120	3
TAP	63	144	6
TAP	63	168	3
TAP	63	192	7
TAP	63	216	2
TAP	63	240	7
TAP	63	264	2
TAP	63	288	0
TAP	63	312	1
TAP	63	336	0
TAP	63	360	1
BRK	64	0	0
TTP	64	96	1	B	0	M1
TTP	64	96	2	E	0	M1
TTP	64	96	7	B	0	M1
TTP	64	96	7	E	0	M1
TTP	64	192	3	B	0	M1
TTP	64	192	3	E	0	M1
TTP	64	192	5	B	0	M1
TTP	64	192	6	E	0	M1
STR	64	288	4
SUR	64	288	4	96	384	7
TTP	65	0	0	C	1	M1
XTP	66	0	0
XTP	66	96	1
XHO	66	168	2	120
BRK	66	240	7
BRK	66	288	7
XTP	67	0	1
XTP	67	0	5
STR	67	96	6
SI_	67	96	6	96	48	4
STR	67	144	2
SI_	67	144	2	96	48	5
STR	67	192	6
SI_	67	192	6	96	48	1
STR	67	240	2
SI_	67	240	2	96	48	7
STR	67	288	6
SI_	67	288	6	96	48	3
TAP	67	336	2
BST	68	0	6
SI_	68	0	6	96	192	1
SUL	68	0	6	96	288	3
STR	72	192	1
SI_	72	192	1	96	48	5
HLD	72	192	5	96
BST	73	0	3
SSR	73	0	3	96	504	7
BRK	73	0	7
HLD	74	216	5	936
TTP	75	0	0	C	1	M1
TTP	75	42	0	C	1	M1
TTP	75	78	0	C	1	M1
TTP	75	114	0	C	1	M1
TAP	77	0	0
TAP	77	96	1
TAP	77	192	2
BRK	77	288	0
BRK	77	288	4
TAP	78	0	2
STR	78	0	6
SI_	78	0	6	96	48	4
TAP	78	96	4
TAP	78	96	6
STR	78	192	2
SI_	78	192	2	96	48	4
TAP	78	192	6
TAP	78	288	2
TAP	78	288	4
STR	79	0	6
SI_	79	0	6	96	48	2
STR	79	96	2
SI_	79	96	2	96	48	6
TAP	79	192	5
TAP	79	288	3
STR	80	0	1
SI_	80	0	1	96	48	3
TAP	80	0	5
TAP	80	96	1
TAP	80	96	3
TAP	80	192	1
STR	80	192	5
SI_	80	192	5	96	48	3
TAP	80	288	3
TAP	80	288	5
STR	81	0	1
SI_	81	0	1	96	48	5
STR	81	96	5
SI_	81	96	5	96	48	1
TAP	81	192	2
TAP	81	288	4
STR	82	0	1
SI_	82	0	1	96	48	3
TAP	82	0	5
TTP	82	96	0	C	0	M1
TAP	82	96	1
TAP	82	192	1
STR	82	192	5
SI_	82	192	5	96	48	3
TTP	82	288	0	C	0	M1
TAP	82	288	5
STR	83	0	1
SI_	83	0	1	96	48	5
STR	83	96	5
SI_	83	96	5	96	48	1
TAP	83	192	2
TTP	83	288	3	B	0	M1
TTP	83	288	4	B	0	M1
TTP	83	288	4	E	0	M1
STR	84	0	2
SI_	84	0	2	96	48	4
STR	84	0	5
SI_	84	0	5	96	48	3
TAP	84	96	2
TAP	84	96	5
TAP	84	192	1
TAP	84	192	6
TAP	84	288	3
TAP	84	288	4
TAP	85	0	4
TAP	85	24	3
TAP	85	48	4
TAP	85	72	3
TAP	85	96	4
TAP	85	144	2
TAP	85	168	3
TAP	85	216	5
TAP	85	240	4
TAP	85	288	3
TAP	85	288	6
STR	86	0	1
SV_	86	0	1	96	48	3
TAP	86	0	4
TTP	86	96	0	C	0	M1
TAP	86	96	1
TAP	86	192	2
STR	86	192	5
SV_	86	192	5	96	48	3
TTP	86	288	0	C	0	M1
TAP	86	288	5
STR	87	0	1
SI_	87	0	1	96	48	5
STR	87	96	5
SV_	87	96	5	96	48	3
TAP	87	192	4
TAP	87	288	6
TAP	88	0	3
STR	88	0	6
SV_	88	0	6	96	48	4
TTP	88	96	0	C	0	M1
TAP	88	96	6
STR	88	192	2
SV_	88	192	2	96	48	4
TAP	88	192	5
TTP	88	288	0	C	0	M1
TAP	88	288	2
STR	89	0	6
SI_	89	0	6	96	48	2
STR	89	96	2
SV_	89	96	2	96	48	4
TAP	89	192	3
TAP	89	288	1
STR	90	0	0
SCR	90	0	0	96	192	4
TAP	90	0	4
TTP	90	96	3	B	0	M1
TTP	90	192	2	E	0	M1
TTP	90	288	0	B	0	M1
TAP	91	0	3
STR	91	0	7
SCL	91	0	7	96	192	3
TTP	91	96	4	B	0	M1
TTP	91	192	6	E	0	M1
TTP	91	288	7	B	0	M1
HLD	92	0	0	288
TAP	92	0	4
TAP	92	96	5
TAP	92	192	6
TAP	92	288	7
TAP	93	0	0
TAP	93	24	7
TAP	93	48	0
TAP	93	96	1
TAP	93	96	6
TAP	93	144	2
TAP	93	168	3
TAP	93	216	5
TAP	93	240	4
BRK	93	288	2
BRK	93	288	7
STR	94	0	6
SCL	94	0	6	96	48	3
STR	94	48	7
SV_	94	48	7	96	48	2
STR	94	96	6
SCR	94	96	6	96	48	1
TAP	94	144	7
XTP	94	192	6
TAP	94	288	2
STR	94	288	4
SI_	94	288	4	96	48	1
TAP	94	336	3
TAP	94	336	5
BST	95	0	4
SI_	95	0	4	96	48	7
TAP	95	0	6
XTP	95	96	2
BST	95	96	4
SI_	95	96	4	96	48	0
BRK	95	192	4
XTP	95	192	6
XTP	95	288	1
TAP	95	288	5
TAP	96	0	3
STR	96	0	6
SI_	96	0	6	96	48	2
TAP	96	48	3
TAP	96	96	3
TAP	96	96	6
TAP	96	144	3
STR	96	192	0
SI_	96	192	0	96	48	4
TAP	96	192	3
TAP	96	240	3
TAP	96	288	0
TAP	96	288	3
TAP	96	336	3
BRK	97	0	1
BRK	97	0	5
TTP	97	96	1	B	0	M1
TTP	97	96	2	E	0	M1
TTP	97	120	5	E	0	M1
TTP	97	144	3	B	0	M1
TTP	97	144	4	E	0	M1
TTP	97	168	6	B	0	M1
TTP	97	192	0	B	0	M1
TTP	97	192	1	E	0	M1
TTP	97	216	5	B	0	M1
TTP	97	240	2	B	0	M1
TTP	97	240	3	E	0	M1
TTP	97	264	6	E	0	M1
TTP	97	288	0	C	1	M1
TAP	98	0	0
TAP	98	0	7
TAP	98	48	1
TAP	98	48	6
STR	98	96	2
SI_	98	96	2	96	48	7
STR	98	96	5
SI_	98	96	5	96	48	1
TAP	98	192	2
TAP	98	192	5
TAP	98	288	0
TAP	98	312	6
TAP	98	336	1
TAP	98	360	5
HLD	99	0	2	48
TAP	99	48	3
TAP	99	72	1
HLD	99	96	5	48
TAP	99	144	4
TAP	99	168	6
HLD	99	192	1	48
TAP	99	240	0
TAP	99	264	2
STR	99	288	7
SI_	99	288	7	96	48	3
TAP	99	336	0
TAP	99	336	6
BRK	100	0	7
TAP	100	96	2
TAP	100	96	4
TAP	100	144	1
TAP	100	192	0
TAP	100	192	7
TAP	100	240	6
TAP	100	288	3
HLD	100	288	5	96
TAP	101	0	4
TAP	101	24	6
TAP	101	48	4
TAP	101	72	6
TAP	101	96	4
TAP	101	144	7
TAP	101	168	0
TAP	101	216	2
TAP	101	240	3
BRK	101	288	0
BRK	101	288	6
STR	102	0	1
SCR	102	0	1	96	48	4
STR	102	48	0
SV_	102	48	0	96	48	5
STR	102	96	1
SCL	102	96	1	96	48	6
TAP	102	144	0
XTP	102	192	1
STR	102	288	3
SI_	102	288	3	96	48	6
TAP	102	288	5
TAP	102	336	2
TAP	102	336	4
TAP	103	0	1
BST	103	0	3
SI_	103	0	3	96	48	0
BST	103	96	3
SI_	103	96	3	96	48	7
XTP	103	96	5
XTP	103	192	1
BRK	103	192	3
TAP	103	288	0
XTP	103	288	6
TAP	104	0	3
STR	104	0	5
SI_	104	0	5	96	48	1
TAP	104	48	3
TAP	104	96	3
TAP	104	96	5
TAP	104	144	3
TAP	104	192	3
STR	104	192	7
SI_	104	192	7	96	48	4
TAP	104	240	3
TAP	104	288	3
TAP	104	288	7
TAP	104	336	3
STR	105	0	1
SI_	105	0	1	96	48	5
TAP	105	0	3
TAP	105	48	3
TAP	105	96	1
TAP	105	96	3
TAP	105	144	3
STR	105	192	1
SV_	105	192	1	96	48	3
XST	105	192	5
SV_	105	192	5	96	48	7
BRK	105	288	1
BRK	105	288	5
XST	106	0	2
SI_	106	0	2	96	48	7
XST	106	0	6
SI_	106	0	6	96	48	3
BRK	106	96	2
BRK	106	96	6
TAP	106	192	1
TAP	106	192	5
TAP	106	288	4
TAP	106	288	6
TAP	106	336	3
TAP	106	336	7
BST	107	0	0
SCL	107	0	0	96	48	5
SCR	107	0	0	96	48	3
TAP	107	0	2
BST	107	96	0
SF_	107	96	0	96	48	4
BRK	107	192	0
BRK	107	288	1
BRK	107	288	7
TAP	108	0	0
TAP	108	24	4
TAP	108	48	0
TAP	108	72	4
TAP	108	96	1
TAP	108	120	5
TAP	108	144	1
TAP	108	168	5
TAP	108	192	2
TAP	108	216	6
TAP	108	240	2
TAP	108	264	6
TAP	108	288	3
TAP	108	300	4
TAP	108	312	5
TAP	108	324	6
TAP	108	336	7
TAP	108	348	0
TAP	108	360	1
TAP	108	372	2
XTP	109	0	3
XHO	109	0	7	288
BRK	109	288	0
TAP	110	0	4
TAP	110	48	3
STR	110	96	2
SI_	110	96	2	96	48	6
TAP	110	96	5
STR	110	192	4
SV_	110	192	4	96	48	2
TAP	110	288	3
STR	111	0	1
SLR	111	0	1	96	96	5
STR	111	96	5
SSL	111	96	5	96	96	1
TAP	111	192	6
XTP	111	288	7
TAP	112	0	2
STR	112	0	6
SI_	112	0	6	96	48	2
STR	112	96	3
SV_	112	96	3	96	48	6
STR	112	192	5
SI_	112	192	5	96	48	3
STR	112	288	1
SLL	112	288	1	96	96	3
STR	113	0	5
SLL	113	0	5	96	96	7
XHO	113	192	2	96
TAP	113	288	7
XTP	114	0	3
XTP	114	0	6
HLD	114	96	4	48
HLD	114	96	5	48
HLD	114	192	2	48
HLD	114	192	3	48
HLD	114	288	4	48
HLD	114	288	5	48
HLD	115	0	2	48
HLD	115	0	3	48
HLD	115	96	3	48
HLD	115	96	4	48
HLD	115	192	4	48
HLD	115	192	5	48
XHO	115	288	3	48
XHO	115	288	4	48
XTP	116	0	3
XTP	116	0	4
TAP	116	96	2
TAP	116	120	5
TAP	116	144	3
TAP	116	168	4
TAP	116	192	2
TAP	116	216	5
TAP	116	240	3
TAP	116	264	4
TAP	116	288	2
TAP	116	312	5
TAP	116	336	3
TAP	116	360	4
HLD	117	0	2	72
TTP	117	72	2	E	0	M1
TTP	117	72	3	E	0	M1
HLD	117	144	5	72
TTP	117	216	5	E	0	M1
TTP	117	216	6	E	0	M1
XST	117	288	1
SI_	117	288	1	96	24	4
XST	117	288	6
SI_	117	288	6	96	24	3
TTP	118	0	0	C	0	M1
TTP	118	0	3	B	0	M1
TTP	118	0	4	B	0	M1
TTP	118	0	4	E	0	M1

T_REC_TAP	503
T_REC_BRK	37
T_REC_XTP	43
T_REC_HLD	68
T_REC_XHO	8
T_REC_STR	126
T_REC_BST	8
T_REC_XST	5
T_REC_TTP	57
T_REC_THO	1
T_REC_SLD	144
T_REC_ALL	1000
T_NUM_TAP	734
T_NUM_BRK	45
T_NUM_HLD	77
T_NUM_SLD	144
T_NUM_ALL	1000
T_JUDGE_TAP	779
T_JUDGE_HLD	154
T_JUDGE_SLD	144
T_JUDGE_ALL	1077
TTM_EACHPAIRS	182
TTM_SCR_TAP	367000
TTM_SCR_BRK	117000
TTM_SCR_HLD	77000
TTM_SCR_SLD	216000
TTM_SCR_ALL	777000
TTM_SCR_S	749350
TTM_SCR_SS	772500
TTM_RAT_ACV	10058

