VERSION	0.00.00	1.03.00
FES_MODE	0
BPM_DEF	190.000	190.000	190.000	190.000
MET_DEF	4	4
RESOLUTION	384
CLK_DEF	384
COMPATIBLE_CODE	MA2

BPM	0	0	190.000
MET	0	0	4	4

TAP	1	0	3
TAP	1	0	4
TAP	1	96	2
TAP	1	96	5
TAP	1	240	5
TAP	1	288	4
TAP	1	288	5
TAP	2	48	3
TAP	2	96	3
TAP	2	96	4
TAP	2	240	3
TAP	2	240	5
TAP	2	288	3
TAP	2	288	5
TAP	3	0	3
TAP	3	0	4
TAP	3	96	2
TAP	3	96	5
TAP	3	240	2
TAP	3	288	2
TAP	3	288	3
TAP	4	48	4
TAP	4	96	3
TAP	4	96	4
TAP	4	240	2
TAP	4	240	4
TAP	4	288	2
TAP	4	288	4
TAP	5	0	3
TAP	5	0	4
TAP	5	96	2
TAP	5	96	5
TAP	5	240	5
TAP	5	288	4
TAP	5	288	5
TAP	6	48	2
TAP	6	96	2
TAP	6	96	3
TAP	6	240	1
TAP	6	240	6
TAP	6	288	1
TAP	6	288	6
TAP	7	0	3
TAP	7	0	4
TAP	7	96	2
HLD	7	96	5	144
TAP	7	240	3
HLD	7	288	3	384
XTP	8	0	1
XTP	8	96	1
XTP	8	192	1
BRK	8	288	7
HLD	9	0	2	48
HLD	9	0	5	48
TTP	9	96	1	B	0	M1
TTP	9	192	4	B	0	M1
TTP	9	288	6	B	0	M1
TTP	10	0	2	B	0	M1
TTP	10	96	4	E	0	M1
TTP	10	192	6	B	0	M1
TTP	10	288	1	B	0	M1
TTP	11	0	3	B	0	M1
TTP	11	0	5	B	0	M1
TTP	11	96	0	B	0	M1
TTP	11	192	6	B	0	M1
TTP	11	288	3	B	0	M1
TTP	12	0	5	B	0	M1
TTP	12	96	2	E	0	M1
TTP	12	192	7	B	0	M1
TTP	12	288	2	B	0	M1
TTP	13	0	0	B	0	M1
TTP	13	0	4	B	0	M1
TTP	13	96	6	E	0	M1
TTP	13	192	2	B	0	M1
TTP	13	288	5	E	0	M1
TTP	14	0	3	B	0	M1
TTP	14	0	7	B	0	M1
TTP	14	96	1	B	0	M1
TTP	14	192	6	E	0	M1
TTP	14	288	7	E	0	M1
TTP	15	0	2	E	0	M1
TTP	15	0	3	B	0	M1
TTP	15	96	0	E	0	M1
TTP	15	192	4	B	0	M1
TTP	15	192	6	E	0	M1
TTP	15	288	0	C	0	M1
XTP	16	0	0
XTP	16	96	1
XTP	16	168	2
XTP	16	240	7
XTP	16	288	7
TAP	17	0	0
STR	17	0	6
SI_	17	0	6	96	48	4
TAP	17	96	0
TAP	17	192	0
STR	17	192	6
SI_	17	192	6	96	48	2
TAP	17	288	0
TAP	18	0	0
STR	18	0	6
SI_	18	0	6	96	48	0
TAP	18	96	1
TAP	18	192	2
TAP	18	240	2
TAP	18	288	3
TAP	18	288	4
STR	19	0	1
SI_	19	0	1	96	48	3
TAP	19	0	7
TAP	19	96	7
STR	19	192	1
SI_	19	192	1	96	48	5
TAP	19	192	7
TAP	19	288	7
HLD	20	0	4	48
HLD	20	0	6	48
HLD	20	96	3	48
HLD	20	96	5	48
HLD	20	192	2	48
HLD	20	192	4	48
TAP	20	288	1
TAP	20	288	3
TAP	21	0	0
STR	21	0	5
SI_	21	0	5	96	48	3
TAP	21	96	0
TAP	21	192	0
STR	21	192	5
SI_	21	192	5	96	48	2
TAP	21	288	0
TAP	22	0	0
STR	22	0	5
SI_	22	0	5	96	48	7
TAP	22	96	1
TAP	22	192	2
TAP	22	240	2
TAP	22	288	3
TAP	22	288	4
STR	23	0	2
SI_	23	0	2	96	48	4
TAP	23	0	7
TAP	23	96	7
STR	23	192	2
SI_	23	192	2	96	48	5
TAP	23	192	7
TAP	23	288	7
TAP	24	0	6
TAP	24	48	4
TAP	24	96	5
TAP	24	144	1
TAP	24	192	3
TAP	24	240	2
BRK	24	288	7
STR	25	0	1
SI_	25	0	1	96	48	3
STR	25	96	6
SI_	25	96	6	96	48	0
STR	25	192	1
SI_	25	192	1	96	48	3
STR	25	288	6
SI_	25	288	6	96	48	0
STR	26	0	1
SI_	26	0	1	96	48	3
STR	26	96	6
SI_	26	96	6	96	48	0
STR	26	192	1
SI_	26	192	1	96	48	5
XTP	26	288	7
STR	27	0	6
SI_	27	0	6	96	48	4
STR	27	96	1
SI_	27	96	1	96	48	7
STR	27	192	6
SI_	27	192	6	96	48	4
STR	27	288	1
SI_	27	288	1	96	48	7
STR	28	0	6
SI_	28	0	6	96	48	4
STR	28	96	1
SI_	28	96	1	96	48	7
STR	28	192	6
SI_	28	192	6	96	48	2
XTP	28	288	0
HLD	29	0	1	192
TAP	29	96	3
HLD	29	192	6	192
TAP	29	288	4
HLD	30	0	0	192
TAP	30	96	2
HLD	30	192	7	192
TAP	30	288	5
TAP	31	0	1
TAP	31	48	1
TAP	31	96	3
TAP	31	144	3
TAP	31	192	5
TAP	31	240	5
TAP	31	288	7
TAP	31	336	7
TAP	32	0	1
TAP	32	0	6
STR	32	96	3
SI_	32	96	3	96	48	0
STR	32	96	4
SI_	32	96	4	96	48	7
TAP	33	0	2
STR	33	0	5
SXL	33	0	5	96	528	2
STR	35	0	2
SXR	35	0	2	96	528	5
TAP	35	0	5
XTP	36	192	7
XTP	36	288	7
TAP	37	0	6
TAP	37	48	6
TAP	37	96	5
TAP	37	144	5
TAP	37	192	4
TAP	37	240	4
TAP	37	288	3
TAP	37	336	3
TAP	38	0	2
TAP	38	48	2
TAP	38	96	1
TAP	38	144	1
TAP	38	192	0
TAP	38	240	0
TAP	38	288	7
TAP	38	336	7
TAP	39	0	0
TAP	39	48	1
TAP	39	96	2
TAP	39	144	3
TAP	39	192	4
TAP	39	240	5
TAP	39	288	6
TAP	39	336	7
HLD	40	0	0	288
XTP	40	96	4
XTP	40	192	2
BRK	40	288	7
TAP	41	0	1
STR	41	0	6
SI_	41	0	6	96	48	3
TAP	41	96	0
STR	41	192	1
SI_	41	192	1	96	48	4
TAP	41	192	6
TAP	41	288	7
TAP	42	0	6
TAP	42	0	7
TAP	42	96	0
TAP	42	96	7
TAP	42	192	0
TAP	42	192	1
TAP	42	240	0
TAP	42	240	1
TAP	42	288	2
TAP	42	288	7
STR	43	0	1
SI_	43	0	1	96	48	4
TAP	43	0	6
TAP	43	96	7
TAP	43	192	1
STR	43	192	6
SI_	43	192	6	96	48	3
TAP	43	288	0
XTP	44	0	0
XTP	44	0	1
XTP	44	96	2
XTP	44	96	3
XTP	44	192	4
XTP	44	192	5
XTP	44	288	6
XTP	44	288	7
STR	45	0	2
SI_	45	0	2	96	48	7
TAP	45	0	5
TAP	45	96	4
TAP	45	192	2
STR	45	192	5
SI_	45	192	5	96	48	0
TAP	45	288	3
TAP	46	0	2
TAP	46	0	3
TAP	46	96	0
TAP	46	96	1
TAP	46	192	6
TAP	46	192	7
TAP	46	240	6
TAP	46	240	7
TAP	46	288	0
TAP	46	288	5
TAP	47	0	2
STR	47	0	5
SI_	47	0	5	96	48	0
TAP	47	96	3
STR	47	192	2
SI_	47	192	2	96	48	7
TAP	47	192	5
TAP	47	288	4
TAP	48	0	3
TAP	48	0	5
STR	48	96	1
SI_	48	96	1	96	48	4
STR	48	96	7
SI_	48	96	7	96	48	4
BRK	48	288	2
BRK	48	288	6
TAP	49	0	1
STR	49	0	6
SCL	49	0	6	96	48	3
TAP	49	96	0
STR	49	192	1
SCR	49	192	1	96	48	4
TAP	49	192	6
TAP	49	288	7
TAP	50	0	6
TAP	50	0	7
TAP	50	96	0
TAP	50	96	7
TAP	50	192	0
TAP	50	192	1
TAP	50	240	0
TAP	50	240	1
TAP	50	288	2
TAP	50	288	7
STR	51	0	1
SCR	51	0	1	96	48	4
TAP	51	0	6
TAP	51	96	7
TAP	51	192	1
STR	51	192	6
SCL	51	192	6	96	48	3
TAP	51	288	0
TAP	52	0	0
TAP	52	0	1
TAP	52	96	2
TAP	52	96	3
TAP	52	192	7
TAP	52	240	6
TAP	52	288	3
TAP	52	288	5
STR	53	0	2
SCL	53	0	2	96	48	7
TAP	53	0	6
TAP	53	96	4
TAP	53	192	2
STR	53	192	5
SCR	53	192	5	96	48	0
TAP	53	288	3
TAP	54	0	2
TAP	54	0	3
TAP	54	96	3
TAP	54	96	4
TAP	54	192	4
TAP	54	192	5
TAP	54	240	4
TAP	54	240	5
TAP	54	288	3
TAP	54	288	6
TAP	55	0	2
STR	55	0	5
SCR	55	0	5	96	48	0
TAP	55	96	3
STR	55	192	2
SCL	55	192	2	96	48	7
TAP	55	192	5
TAP	55	288	4
TAP	56	0	4
TAP	56	0	6
TAP	56	96	1
TAP	56	96	3
TAP	56	192	2
TAP	56	192	5
BRK	56	288	0
BRK	56	288	7
STR	57	0	2
SCL	57	0	2	96	528	5
TAP	57	0	5
TAP	59	0	1
STR	59	0	6
SCL	59	0	6	96	528	1
STR	61	0	0
SCR	61	0	0	96	192	3
STR	62	0	4
SCR	62	0	4	96	192	7
TAP	63	0	3
TAP	63	48	3
TAP	63	96	4
TAP	63	144	4
TAP	63	192	1
TAP	63	240	1
TAP	63	288	6
TAP	63	336	6
HLD	64	0	0	48
HLD	64	0	7	48
HLD	64	96	1	48
HLD	64	96	6	48
HLD	64	192	2	48
HLD	64	192	5	48
HLD	64	288	3	48
HLD	64	288	4	48
STR	65	0	2
SCL	65	0	2	96	288	5
TAP	65	0	5
XTP	66	0	0
XTP	66	96	1
XHO	66	168	2	120
XTP	66	240	7
XTP	66	288	7
STR	67	0	0
SI_	67	0	0	96	48	4
STR	67	96	6
SI_	67	96	6	96	48	1
STR	67	192	3
SI_	67	192	3	96	48	6
STR	67	288	7
SI_	67	288	7	96	384	3
BRK	68	0	0
HLD	72	216	3	96
HLD	72	216	4	96
TTP	73	0	0	C	1	M1
THO	75	0	0	120	C	1	M1
TTP	75	0	2	B	0	M1
TTP	75	0	5	B	0	M1
TAP	77	0	0
TAP	77	96	1
HLD	77	192	2	96
BRK	77	288	7
TAP	78	0	2
HLD	78	0	5	720
HLD	78	96	3	48
HLD	78	192	4	48
HLD	78	288	3	48
HLD	79	0	2	48
HLD	79	96	3	48
HLD	79	192	4	48
HLD	79	288	3	48
HLD	80	0	2	720
TAP	80	0	4
HLD	80	96	3	48
HLD	80	192	4	48
HLD	80	288	5	48
HLD	81	0	4	48
HLD	81	96	3	48
HLD	81	192	4	48
HLD	81	288	5	48
TAP	82	0	3
TAP	82	0	4
HLD	82	96	4	48
HLD	82	96	5	48
HLD	82	192	3	48
HLD	82	192	4	48
HLD	82	288	2	48
HLD	82	288	3	48
HLD	83	0	3	48
HLD	83	0	4	48
HLD	83	96	4	48
HLD	83	96	5	48
HLD	83	192	3	48
HLD	83	192	4	48
HLD	83	288	2	48
HLD	83	288	3	48
TAP	84	0	3
TAP	84	0	4
HLD	84	96	4	48
HLD	84	96	6	48
HLD	84	192	3	48
HLD	84	192	4	48
HLD	84	288	1	48
HLD	84	288	3	48
TAP	85	0	3
TAP	85	0	4
TAP	85	96	2
TAP	85	144	2
TAP	85	192	6
TAP	85	240	6
BRK	85	288	0
TAP	86	0	1
HLD	86	0	7	192
TTP	86	96	2	B	0	M1
TTP	86	96	3	B	0	M1
HLD	86	192	0	192
TTP	86	288	4	B	0	M1
TTP	86	288	5	B	0	M1
HLD	87	0	6	192
TTP	87	96	2	B	0	M1
TTP	87	96	3	B	0	M1
HLD	87	192	1	192
TTP	87	288	4	B	0	M1
TTP	87	288	5	B	0	M1
HLD	88	0	7	192
TTP	88	96	2	B	0	M1
TTP	88	96	3	B	0	M1
HLD	88	192	0	192
TTP	88	288	4	B	0	M1
TTP	88	288	5	B	0	M1
HLD	89	0	6	96
HLD	89	96	3	96
HLD	89	192	2	96
BRK	89	288	0
STR	90	0	4
SCR	90	0	4	96	240	0
TAP	90	96	0
TAP	90	192	1
TAP	90	288	2
STR	91	0	3
SCL	91	0	3	96	240	7
TAP	91	96	7
TAP	91	192	6
TAP	91	288	5
STR	92	0	4
SCR	92	0	4	96	72	6
TAP	92	96	0
STR	92	192	3
SCL	92	192	3	96	72	1
TAP	92	288	7
STR	93	0	4
SI_	93	0	4	96	96	1
SI_	93	0	4	96	96	7
BRK	93	288	1
BRK	93	288	7
TAP	94	0	0
STR	94	0	6
SI_	94	0	6	96	48	3
TAP	94	96	4
STR	94	192	1
SI_	94	192	1	96	48	4
TAP	94	192	7
TAP	94	288	3
TAP	95	0	0
TAP	95	0	6
TAP	95	96	3
TAP	95	96	7
TAP	95	192	3
TAP	95	192	7
TAP	95	240	2
TAP	95	240	6
TAP	95	288	1
TAP	95	288	5
TAP	96	0	0
STR	96	0	5
SI_	96	0	5	96	48	1
TAP	96	96	4
STR	96	192	2
SI_	96	192	2	96	48	5
TAP	96	192	7
TAP	96	288	3
TAP	97	0	6
TAP	97	48	6
TAP	97	96	4
TAP	97	144	4
TAP	97	192	2
TAP	97	240	2
BRK	97	288	0
TAP	98	0	0
STR	98	0	6
SI_	98	0	6	96	48	2
TAP	98	96	3
TAP	98	192	0
STR	98	192	4
SI_	98	192	4	96	48	7
TAP	98	288	3
TAP	99	0	0
TAP	99	48	1
TAP	99	96	2
TAP	99	96	6
TAP	99	192	2
TAP	99	192	6
TAP	99	240	1
TAP	99	240	5
TAP	99	288	0
TAP	99	288	4
TAP	100	0	0
STR	100	0	6
SI_	100	0	6	96	48	2
TAP	100	96	3
TAP	100	192	0
STR	100	192	4
SI_	100	192	4	96	48	7
TAP	100	288	3
TAP	101	0	2
TAP	101	48	2
TAP	101	96	6
TAP	101	144	6
TAP	101	192	0
TAP	101	216	7
TAP	101	240	0
TAP	101	264	7
BRK	101	288	0
STR	102	0	0
SI_	102	0	0	96	48	5
STR	102	96	6
SI_	102	96	6	96	48	2
STR	102	192	3
SI_	102	192	3	96	48	0
XTP	102	288	5
TAP	103	0	7
TAP	103	48	6
TAP	103	96	4
TAP	103	96	5
TAP	103	192	2
TAP	103	192	6
TAP	103	240	1
TAP	103	240	5
TAP	103	288	0
TAP	103	288	4
STR	104	0	0
SI_	104	0	0	96	48	5
STR	104	96	6
SI_	104	96	6	96	48	2
STR	104	192	3
SI_	104	192	3	96	48	0
XTP	104	288	5
TAP	105	0	7
TAP	105	48	6
STR	105	96	1
SI_	105	96	1	96	48	4
STR	105	96	5
SI_	105	96	5	96	48	0
XTP	105	288	2
XTP	105	288	6
TAP	106	0	0
STR	106	0	4
SI_	106	0	4	96	48	1
STR	106	96	2
SI_	106	96	2	96	48	6
STR	106	192	7
SI_	106	192	7	96	48	4
XTP	106	288	1
TAP	107	0	0
TAP	107	48	1
TAP	107	96	2
TAP	107	96	3
TAP	107	192	1
TAP	107	192	5
TAP	107	240	2
TAP	107	240	6
TAP	107	288	3
TAP	107	288	7
STR	108	0	3
SI_	108	0	3	96	48	6
STR	108	96	5
SI_	108	96	5	96	48	1
STR	108	192	0
SI_	108	192	0	96	48	4
XST	108	288	7
SCR	108	288	7	96	192	5
XTP	109	192	0
BRK	109	288	1
BRK	109	288	6
TAP	110	0	2
TAP	110	0	3
TAP	110	48	3
TAP	110	48	4
HLD	110	96	4	48
HLD	110	96	5	48
HLD	110	192	3	48
HLD	110	192	4	48
HLD	110	288	2	48
HLD	110	288	3	48
HLD	111	0	3	48
HLD	111	0	4	48
HLD	111	96	4	48
HLD	111	96	5	48
TAP	111	192	3
TAP	111	192	4
TAP	111	240	3
TAP	111	240	4
TAP	111	288	2
TAP	111	288	5
TAP	112	0	0
TAP	112	48	1
HLD	112	96	2	48
HLD	112	96	7	48
HLD	112	192	0	48
HLD	112	192	5	48
HLD	112	288	3	48
HLD	112	288	6	48
HLD	113	0	1	48
HLD	113	0	4	48
TAP	113	96	7
TAP	113	144	7
TAP	113	192	0
TAP	113	240	0
TAP	113	288	1
TAP	113	288	6
TAP	114	0	0
TAP	114	48	0
HLD	114	96	0	48
HLD	114	96	4	48
HLD	114	192	4	48
HLD	114	192	7	48
HLD	114	288	1	48
HLD	114	288	4	48
HLD	115	0	4	48
HLD	115	0	6	48
HLD	115	96	2	48
HLD	115	96	4	48
HLD	115	192	4	48
HLD	115	192	5	48
TAP	115	288	3
TAP	115	288	4
TAP	116	0	2
TAP	116	48	2
TAP	116	96	3
TAP	116	144	3
TAP	116	192	4
TAP	116	240	4
TAP	116	288	5
TAP	116	336	5
STR	117	0	3
SI_	117	0	3	96	96	0
STR	117	0	4
SI_	117	0	4	96	96	7
BST	117	288	1
SI_	117	288	1	96	24	4
BST	117	288	6
SI_	117	288	6	96	24	3

T_REC_TAP	347
T_REC_BRK	17
T_REC_XTP	32
T_REC_HLD	101
T_REC_XHO	1
T_REC_STR	84
T_REC_BST	2
T_REC_XST	1
T_REC_TTP	47
T_REC_THO	1
T_REC_SLD	88
T_REC_ALL	721
T_NUM_TAP	511
T_NUM_BRK	19
T_NUM_HLD	103
T_NUM_SLD	88
T_NUM_ALL	721
T_JUDGE_TAP	530
T_JUDGE_HLD	185
T_JUDGE_SLD	88
T_JUDGE_ALL	803
TTM_EACHPAIRS	169
TTM_SCR_TAP	255500
TTM_SCR_BRK	49400
TTM_SCR_HLD	103000
TTM_SCR_SLD	132000
TTM_SCR_ALL	539900
TTM_SCR_S	521900
TTM_SCR_SS	538000
TTM_RAT_ACV	10035

