VERSION	0.00.00	1.03.00
FES_MODE	0
BPM_DEF	190.000	190.000	190.000	190.000
MET_DEF	4	4
RESOLUTION	384
CLK_DEF	384
COMPATIBLE_CODE	MA2

BPM	0	0	190.000
MET	0	0	4	4

XHO	1	0	6	384
HLD	2	0	7	384
HLD	3	0	0	384
TAP	4	0	1
TAP	4	192	2
TAP	4	192	3
HLD	5	0	5	192
TAP	5	192	4
HLD	6	0	2	192
TAP	6	192	3
HLD	7	0	5	192
TAP	7	192	4
TAP	8	0	3
TAP	8	96	3
XTP	8	192	2
XTP	8	192	4
STR	9	0	1
SI_	9	0	1	96	192	5
STR	10	0	6
SI_	10	0	6	96	192	3
STR	11	0	2
SI_	11	0	2	96	192	7
TAP	12	0	6
TAP	12	192	6
TAP	12	192	7
STR	13	0	6
SI_	13	0	6	96	192	2
STR	14	0	1
SI_	14	0	1	96	192	4
STR	15	0	5
SI_	15	0	5	96	192	1
TAP	16	0	0
TAP	16	96	1
TAP	16	192	2
BRK	16	288	3
BRK	16	288	4
TTP	17	0	5	B	0	L1
TTP	17	96	6	B	0	L1
TTP	17	192	7	B	0	L1
TTP	17	288	0	B	0	L1
TTP	18	0	1	B	0	L1
TTP	18	96	2	B	0	L1
TTP	18	192	3	B	0	L1
TTP	19	0	6	B	0	L1
TTP	19	96	5	B	0	L1
TTP	19	192	4	B	0	L1
TTP	19	288	3	B	0	L1
TTP	20	0	2	B	0	L1
TTP	20	96	1	B	0	L1
TTP	20	192	0	B	0	L1
TTP	21	0	5	E	0	L1
TTP	21	96	6	E	0	L1
TTP	21	192	7	B	0	L1
TTP	21	192	7	E	0	L1
TTP	22	0	3	E	0	L1
TTP	22	96	2	E	0	L1
TTP	22	192	0	B	0	L1
TTP	22	192	1	E	0	L1
TTP	23	0	4	E	0	L1
TTP	23	96	0	C	0	L1
TTP	23	192	2	E	0	L1
TTP	23	192	6	E	0	L1
XTP	24	0	0
XTP	24	0	7
TAP	24	96	0
TAP	24	96	7
BRK	24	192	1
BRK	24	192	6
TAP	25	0	5
TAP	25	96	5
TAP	25	192	4
TAP	25	288	4
TAP	26	0	3
TAP	26	96	3
TAP	26	192	2
TAP	26	192	4
TAP	27	0	1
TAP	27	96	1
TAP	27	192	0
TAP	27	288	0
TAP	28	0	7
TAP	28	96	7
XTP	28	192	0
XTP	28	192	7
TAP	29	0	6
TAP	29	96	6
TAP	29	192	7
TAP	29	288	7
TAP	30	0	0
TAP	30	96	0
TAP	30	192	1
TAP	30	192	7
TAP	31	0	2
TAP	31	96	2
TAP	31	192	3
TAP	31	288	3
TAP	32	0	3
TAP	32	0	4
TAP	32	96	3
TAP	32	96	4
XTP	32	192	2
XTP	32	192	5
STR	33	0	6
SXL	33	0	6	96	528	3
STR	35	0	2
SXL	35	0	2	96	528	7
TAP	37	0	6
TAP	37	96	7
TAP	37	192	0
TAP	37	288	1
TAP	38	0	2
TAP	38	96	3
TAP	38	192	4
TAP	38	288	5
TAP	39	0	6
TAP	39	48	6
TAP	39	96	6
TAP	39	192	7
TAP	39	240	7
TAP	39	288	7
TAP	40	0	0
TAP	40	0	7
TAP	40	96	1
TAP	40	96	6
TAP	40	192	2
TAP	40	192	5
BRK	40	288	3
BRK	40	288	4
TAP	41	0	5
TAP	41	96	5
TAP	41	192	4
TAP	41	192	5
TAP	41	288	4
TAP	41	288	5
TAP	42	0	2
TAP	42	96	2
TAP	42	192	2
TAP	42	192	3
TAP	42	288	2
TAP	42	288	3
TAP	43	0	1
TAP	43	96	1
TAP	43	192	0
TAP	43	288	0
TAP	44	0	7
TAP	44	96	7
TAP	44	192	0
TAP	44	192	6
TAP	45	0	1
TAP	45	96	1
TAP	45	192	0
TAP	45	192	1
TAP	45	288	0
TAP	45	288	1
TAP	46	0	6
TAP	46	96	6
TAP	46	192	6
TAP	46	192	7
TAP	46	288	6
TAP	46	288	7
TAP	47	0	5
TAP	47	96	5
TAP	47	192	4
TAP	47	288	4
TAP	48	0	3
TAP	48	0	4
TAP	48	96	3
TAP	48	96	4
XTP	48	192	2
XTP	48	192	5
TAP	49	0	1
TAP	49	96	0
TAP	49	96	1
TAP	49	192	1
TAP	49	288	0
TAP	49	288	1
TAP	50	0	2
TAP	50	96	2
TAP	50	96	3
TAP	50	192	2
TAP	50	288	2
TAP	50	288	3
TAP	51	0	4
TAP	51	96	4
TAP	51	192	5
TAP	51	288	5
TAP	52	0	6
TAP	52	96	6
TAP	52	192	0
TAP	52	192	7
TAP	53	0	6
TAP	53	96	6
TAP	53	96	7
TAP	53	192	6
TAP	53	288	6
TAP	53	288	7
TAP	54	0	5
TAP	54	96	4
TAP	54	96	5
TAP	54	192	5
TAP	54	288	4
TAP	54	288	5
TAP	55	0	3
TAP	55	96	3
TAP	55	192	2
TAP	55	288	2
TAP	56	0	1
TAP	56	96	0
TAP	56	96	7
BRK	56	192	1
BRK	56	192	6
HLD	57	0	5	192
HLD	57	192	4	192
HLD	58	0	3	192
TAP	58	192	2
HLD	59	0	1	192
HLD	59	192	0	192
XHO	60	0	7	192
TAP	60	192	6
XTP	61	0	5
TAP	61	96	4
TAP	61	192	3
TAP	61	288	2
XTP	62	0	1
TAP	62	96	0
TAP	62	192	7
TAP	62	288	6
TAP	63	0	5
TAP	63	48	5
TAP	63	96	5
TAP	63	192	3
TAP	63	240	3
TAP	63	288	3
BST	64	0	2
SI_	64	0	2	96	192	7
BST	64	0	4
SI_	64	0	4	96	192	7
TTP	65	0	0	C	1	L1
TTP	66	0	0	B	0	L1
TTP	66	96	1	B	0	L1
TTP	66	192	2	B	0	L1
XTP	67	0	0
XTP	67	0	7
XTP	67	96	0
XTP	67	96	7
XTP	67	192	1
XTP	67	192	6
STR	68	0	0
SSL	68	0	0	96	480	4
TAP	68	0	7
TTP	73	0	0	C	1	L1
TTP	75	0	0	C	1	L1
TTP	75	0	1	B	0	L1
TTP	75	0	6	B	0	L1
TAP	76	0	6
TAP	76	0	7
TAP	76	192	0
TAP	76	192	1
TAP	77	0	0
TAP	77	0	7
TAP	77	96	1
TAP	77	96	6
TAP	77	192	2
TAP	77	192	5
TAP	77	288	3
TAP	77	288	4
TAP	78	0	2
TAP	78	96	2
TAP	78	192	3
TAP	78	288	3
TAP	79	0	4
TAP	79	96	4
TAP	79	192	3
TAP	79	192	5
TAP	80	0	6
TAP	80	96	6
TAP	80	192	7
TAP	80	288	7
TAP	81	0	0
TAP	81	96	0
XTP	81	192	0
XTP	81	192	7
TAP	82	0	1
TAP	82	96	1
TAP	82	192	0
TAP	82	288	0
TAP	83	0	7
TAP	83	96	7
TAP	83	192	0
TAP	83	192	6
TAP	84	0	5
TAP	84	96	5
TAP	84	192	4
TAP	84	288	4
XTP	85	0	3
XTP	85	0	4
XTP	85	96	2
XTP	85	96	5
BRK	85	192	1
BRK	85	192	6
HLD	86	0	5	192
TAP	86	192	4
TAP	86	288	4
TAP	87	0	3
TAP	87	96	3
TAP	87	192	2
TAP	87	192	4
HLD	88	0	1	96
TAP	88	96	0
TAP	88	192	0
TAP	88	192	1
HLD	89	0	6	96
TAP	89	96	7
TAP	89	192	6
TAP	89	192	7
STR	90	0	5
SCR	90	0	5	96	192	0
STR	91	0	1
SCR	91	0	1	96	192	4
STR	92	0	5
SCR	92	0	5	96	192	0
TAP	93	0	1
TAP	93	96	0
TAP	93	96	7
BRK	93	192	1
BRK	93	192	6
TAP	94	0	5
TAP	94	96	5
TAP	94	192	4
TAP	94	192	5
TAP	94	288	3
TAP	94	288	6
TAP	95	0	2
TAP	95	96	2
TAP	95	192	2
TAP	95	192	3
TAP	95	288	1
TAP	95	288	4
TAP	96	0	0
TAP	96	96	1
TAP	96	192	0
TAP	96	192	1
TAP	96	288	2
TAP	96	288	7
TAP	97	0	6
TAP	97	96	6
TAP	97	96	7
TAP	97	192	0
TAP	97	192	5
TAP	98	0	1
TAP	98	96	1
TAP	98	192	0
TAP	98	192	1
TAP	98	288	2
TAP	98	288	7
TAP	99	0	6
TAP	99	96	6
TAP	99	192	6
TAP	99	192	7
TAP	99	288	0
TAP	99	288	5
TAP	100	0	4
TAP	100	96	5
TAP	100	192	4
TAP	100	192	5
TAP	100	288	3
TAP	100	288	6
TAP	101	0	2
TAP	101	96	3
TAP	101	96	4
BRK	101	192	2
BRK	101	192	5
TAP	102	0	6
TAP	102	96	6
TAP	102	192	6
TAP	102	192	7
TAP	102	288	0
TAP	102	288	5
TAP	103	0	1
TAP	103	48	1
TAP	103	96	1
TAP	103	192	0
TAP	103	192	1
TAP	103	288	2
TAP	103	288	7
TAP	104	0	3
TAP	104	96	2
TAP	104	192	2
TAP	104	192	3
TAP	104	288	1
TAP	104	288	4
TAP	105	0	5
TAP	105	96	4
TAP	105	96	5
TAP	105	192	3
TAP	105	192	6
TAP	106	0	2
TAP	106	96	2
TAP	106	192	2
TAP	106	192	3
TAP	106	288	1
TAP	106	288	4
TAP	107	0	5
TAP	107	48	5
TAP	107	96	5
TAP	107	192	4
TAP	107	192	5
TAP	107	288	3
TAP	107	288	6
TAP	108	0	7
TAP	108	96	6
TAP	108	192	6
TAP	108	192	7
TAP	108	288	0
TAP	108	288	5
TAP	109	0	1
TAP	109	96	0
BRK	109	192	0
BRK	109	192	7
XTP	110	0	6
XTP	110	96	6
TAP	110	192	6
TAP	110	192	7
TAP	110	288	6
TAP	110	288	7
TAP	111	0	6
TAP	111	0	7
TAP	111	96	6
TAP	111	96	7
TAP	111	192	6
TAP	111	192	7
TAP	112	0	1
TAP	112	96	1
TAP	112	192	0
TAP	112	192	1
TAP	112	288	0
TAP	112	288	1
TAP	113	0	0
TAP	113	0	1
TAP	113	96	0
TAP	113	96	1
TAP	113	192	0
TAP	113	192	1
HLD	114	0	2	96
TAP	114	96	3
TAP	114	192	2
TAP	114	192	3
HLD	115	0	5	96
TAP	115	96	4
TAP	115	192	4
TAP	115	192	5
TAP	116	0	3
TAP	116	48	3
TAP	116	96	3
TAP	116	192	4
TAP	116	240	4
TAP	116	288	4
STR	117	0	3
SCL	117	0	3	96	192	0
STR	117	0	4
SCR	117	0	4	96	192	7
TTP	118	0	0	C	0	L1

T_REC_TAP	336
T_REC_BRK	16
T_REC_XTP	26
T_REC_HLD	15
T_REC_XHO	2
T_REC_STR	14
T_REC_BST	2
T_REC_XST	0
T_REC_TTP	35
T_REC_THO	0
T_REC_SLD	16
T_REC_ALL	462
T_NUM_TAP	411
T_NUM_BRK	18
T_NUM_HLD	17
T_NUM_SLD	16
T_NUM_ALL	462
T_JUDGE_TAP	429
T_JUDGE_HLD	72
T_JUDGE_SLD	16
T_JUDGE_ALL	517
TTM_EACHPAIRS	106
TTM_SCR_TAP	205500
TTM_SCR_BRK	46800
TTM_SCR_HLD	17000
TTM_SCR_SLD	24000
TTM_SCR_ALL	293300
TTM_SCR_S	282800
TTM_SCR_SS	291500
TTM_RAT_ACV	10061

