VERSION	0.00.00	1.03.00
FES_MODE	0
BPM_DEF	190.000	190.000	190.000	190.000
MET_DEF	4	4
RESOLUTION	384
CLK_DEF	384
COMPATIBLE_CODE	MA2

BPM	0	0	190.000
MET	0	0	4	4

TAP	9	0	7
TAP	11	0	7
TAP	13	0	0
HLD	15	0	0	384
TAP	17	0	7
TAP	18	0	7
TAP	19	0	6
TAP	20	0	6
TAP	21	0	5
TAP	22	0	5
TAP	23	0	4
XTP	24	0	3
XTP	24	0	4
TAP	25	0	3
TAP	26	0	3
TAP	27	0	2
TAP	28	0	2
TAP	29	0	1
TAP	30	0	1
TAP	31	0	0
XTP	32	0	0
XTP	32	0	7
STR	33	0	7
SI_	33	0	7	96	672	4
STR	37	0	3
SI_	37	0	3	96	672	0
BRK	40	0	7
TAP	41	0	0
TAP	41	192	0
TAP	42	0	0
TAP	43	0	1
TAP	43	192	1
TAP	44	0	1
TAP	45	0	2
TAP	45	192	2
TAP	46	0	2
TAP	47	0	3
TAP	47	192	3
TAP	48	0	3
TAP	48	0	4
TAP	49	0	4
TAP	49	192	4
TAP	50	0	4
TAP	51	0	5
TAP	51	192	5
TAP	52	0	5
TAP	53	0	6
TAP	53	192	6
TAP	54	0	6
TAP	55	0	7
TAP	55	192	7
XTP	56	0	0
XTP	56	0	7
TTP	57	0	0	B	0	L1
TTP	58	0	7	B	0	L1
TTP	59	0	1	B	0	L1
TTP	60	0	6	B	0	L1
TTP	61	0	2	B	0	L1
TTP	62	0	5	B	0	L1
THO	63	0	0	384	C	0	L1
TAP	65	0	0
TAP	65	0	7
TAP	65	192	0
TAP	65	192	7
XTP	66	0	0
XTP	66	0	7
TAP	67	0	0
TAP	67	192	0
STR	68	0	0
SI_	68	0	0	96	288	3
STR	68	0	7
SI_	68	0	7	96	288	4
TTP	73	0	0	C	1	L1
THO	75	0	0	384	C	0	L1
XTP	77	0	0
HLD	78	0	6	384
HLD	78	0	7	384
HLD	80	0	4	384
HLD	80	0	5	384
HLD	82	0	2	384
HLD	82	0	3	384
HLD	84	0	0	384
HLD	84	0	1	384
TAP	86	0	0
TAP	86	0	1
TAP	86	192	0
TAP	86	192	1
TAP	87	0	0
TAP	87	0	1
TAP	88	0	2
TAP	88	0	3
TAP	88	192	2
TAP	88	192	3
TAP	89	0	2
TAP	89	0	3
TAP	90	0	4
TAP	90	0	5
TAP	90	192	4
TAP	90	192	5
TAP	91	0	4
TAP	91	0	5
TAP	92	0	6
TAP	92	0	7
TAP	92	192	6
TAP	92	192	7
BRK	93	0	6
BRK	93	0	7
TAP	94	0	7
TAP	94	96	7
TAP	94	192	7
TAP	95	0	6
TAP	95	192	6
TAP	96	0	5
TAP	96	96	5
TAP	96	192	5
TAP	97	0	3
TAP	97	0	4
TAP	97	192	3
TAP	97	192	4
TAP	98	0	3
TAP	98	96	3
TAP	98	192	3
TAP	99	0	2
TAP	99	192	2
TAP	100	0	1
TAP	100	96	1
TAP	100	192	1
XTP	101	0	0
XTP	101	0	7
TAP	102	0	0
TAP	102	96	0
TAP	102	192	0
TAP	103	0	1
TAP	103	96	1
TAP	103	192	1
TAP	104	0	2
TAP	104	96	2
TAP	104	192	2
TAP	105	0	3
TAP	105	96	3
TAP	105	192	3
TAP	105	192	4
TAP	106	0	4
TAP	106	96	4
TAP	106	192	4
TAP	107	0	5
TAP	107	96	5
TAP	107	192	5
TAP	108	0	6
TAP	108	96	6
TAP	108	192	6
TAP	109	0	0
TAP	109	0	7
HLD	110	0	7	192
TAP	111	0	7
TAP	111	192	7
HLD	112	0	6	192
TAP	113	0	6
TAP	113	192	6
HLD	114	0	5	192
TAP	115	0	5
TAP	115	192	4
TAP	115	192	5
HLD	116	0	3	192
TAP	117	0	3
TAP	117	192	3
TAP	117	192	4
BRK	118	0	3
BRK	118	0	4

T_REC_TAP	123
T_REC_BRK	5
T_REC_XTP	11
T_REC_HLD	13
T_REC_XHO	0
T_REC_STR	4
T_REC_BST	0
T_REC_XST	0
T_REC_TTP	7
T_REC_THO	2
T_REC_SLD	4
T_REC_ALL	169
T_NUM_TAP	145
T_NUM_BRK	5
T_NUM_HLD	15
T_NUM_SLD	4
T_NUM_ALL	169
T_JUDGE_TAP	150
T_JUDGE_HLD	104
T_JUDGE_SLD	4
T_JUDGE_ALL	258
TTM_EACHPAIRS	32
TTM_SCR_TAP	72500
TTM_SCR_BRK	13000
TTM_SCR_HLD	15000
TTM_SCR_SLD	6000
TTM_SCR_ALL	106500
TTM_SCR_S	102850
TTM_SCR_SS	106000
TTM_RAT_ACV	10047

