VERSION	0.00.00	1.03.00
FES_MODE	0
BPM_DEF	110.000	110.000	110.000	110.000
MET_DEF	4	4
RESOLUTION	384
CLK_DEF	384
COMPATIBLE_CODE	MA2

BPM	0	0	110.000
MET	0	0	4	4

TAP	1	0	3
TAP	1	0	4
TAP	1	32	3
TAP	1	32	4
TAP	1	80	2
TAP	1	96	3
TAP	1	144	1
TAP	1	144	4
TAP	1	176	1
TAP	1	176	4
TAP	1	224	2
TAP	1	240	3
TAP	1	288	3
TAP	1	288	4
TAP	1	320	3
TAP	1	320	4
TAP	1	368	5
TAP	2	0	4
TAP	2	32	4
TAP	2	48	5
TAP	2	80	5
TAP	2	96	4
TAP	2	144	3
TAP	2	144	6
TAP	2	192	5
TAP	2	224	5
TAP	2	240	4
TAP	2	288	3
TAP	2	288	6
TAP	3	0	3
TAP	3	0	4
TAP	3	32	3
TAP	3	32	4
TAP	3	80	2
TAP	3	96	3
TAP	3	144	1
TAP	3	144	4
TAP	3	176	1
TAP	3	176	4
TAP	3	224	2
TAP	3	240	3
TAP	3	288	3
TAP	3	288	4
TAP	3	320	3
TAP	3	320	4
TAP	3	368	3
TAP	4	0	4
TAP	4	48	2
TAP	4	64	3
TAP	4	80	2
TAP	4	96	3
TAP	4	144	5
TAP	4	160	4
TAP	4	176	5
TAP	4	192	4
TAP	4	240	0
TAP	4	256	7
TAP	4	272	0
TAP	4	288	7
XTP	4	336	1
XTP	4	336	6
TAP	5	0	3
TAP	5	0	4
TAP	5	80	1
TAP	5	96	0
TAP	5	144	2
TAP	5	144	7
TAP	5	176	2
TAP	5	176	7
TAP	5	224	1
TAP	5	272	1
TAP	5	288	0
TAP	5	336	1
TAP	5	336	7
TAP	6	0	0
TAP	6	0	7
TAP	6	80	6
TAP	6	96	7
TAP	6	144	0
TAP	6	144	5
TAP	6	176	0
TAP	6	176	5
TAP	6	224	6
TAP	6	272	6
TAP	6	288	7
TAP	6	336	0
TAP	6	336	6
TAP	7	0	0
TAP	7	0	7
TAP	7	80	1
TAP	7	96	0
TAP	7	144	2
TAP	7	144	7
TAP	7	176	2
TAP	7	176	7
TAP	7	224	1
TAP	7	272	1
TAP	7	288	0
TAP	7	336	1
TAP	7	336	7
TTP	8	0	3	E	0	M1
BRK	8	0	6
BRK	8	64	0
TTP	8	64	5	E	0	M1
TTP	8	128	3	B	0	M1
TTP	8	128	3	E	0	M1
BRK	8	128	7
BRK	8	192	1
TTP	8	192	4	B	0	M1
TTP	8	192	5	E	0	M1
BRK	8	256	0
BRK	8	256	7
BST	9	0	0
TTP	9	0	0	C	1	M1
SUL	9	0	0	96	192	7
TAP	10	0	5
HLD	10	32	5	48
TAP	10	80	4
TAP	10	96	4
TAP	10	144	3
TAP	10	144	5
TAP	10	176	3
TAP	10	176	5
TAP	10	224	3
TAP	10	240	4
TAP	10	272	4
TAP	10	288	2
TAP	10	336	1
TAP	10	336	3
TAP	11	0	2
HLD	11	32	2	48
TAP	11	80	3
TAP	11	96	3
TAP	11	144	2
STR	11	144	4
SI_	11	144	4	96	48	7
TAP	11	176	2
TAP	11	176	4
TTP	11	224	0	C	1	M1
TAP	11	336	1
TAP	11	336	6
TAP	12	0	5
HLD	12	32	5	48
TAP	12	80	4
TAP	12	96	4
TAP	12	144	3
TAP	12	144	5
TAP	12	176	3
TAP	12	176	5
TAP	12	224	3
TAP	12	240	4
TAP	12	272	4
TAP	12	288	2
TAP	12	336	1
TAP	12	336	3
TAP	13	0	2
TAP	13	32	2
TAP	13	48	3
TAP	13	80	3
TAP	13	96	4
TAP	13	128	4
STR	13	144	5
SCR	13	144	5	96	96	2
TAP	13	176	5
TAP	13	192	3
TTP	13	240	0	C	1	M1
TAP	14	0	1
HLD	14	32	1	48
TAP	14	80	3
TAP	14	96	3
TAP	14	144	2
TAP	14	144	4
TAP	14	176	2
TAP	14	176	4
TAP	14	224	4
TAP	14	240	3
TAP	14	272	3
TAP	14	288	5
TAP	14	336	4
TAP	14	336	6
TAP	15	0	5
HLD	15	32	5	48
TAP	15	80	4
TAP	15	96	4
TAP	15	144	3
TAP	15	144	5
TAP	15	192	1
TAP	15	192	4
TAP	15	224	2
TAP	15	240	3
TAP	15	256	1
TAP	15	272	5
HLD	15	288	4	32
HLD	15	320	7	48
TTP	15	368	0	C	1	M1
TAP	16	96	0
TAP	16	144	1
TAP	16	144	7
TAP	16	176	1
TAP	16	176	7
TAP	16	224	5
TAP	16	240	4
TAP	16	272	4
TAP	16	288	5
TAP	16	336	3
TAP	16	336	6
TAP	17	0	1
TAP	17	16	0
TAP	17	64	6
TAP	17	64	7
TAP	17	112	4
TAP	17	112	5
TAP	17	160	2
TAP	17	160	3
TAP	17	208	1
TAP	17	224	0
TAP	17	256	6
TAP	17	272	7
TAP	17	304	4
TAP	17	304	5
STR	17	320	4
SXR	17	320	4	96	256	1
STR	17	320	5
SXL	17	320	5	96	256	0
TAP	17	352	3
TAP	17	352	6
BRK	18	32	4
BRK	18	32	5
TAP	19	0	2
TAP	19	0	5
TAP	19	48	0
HLD	19	48	7	96
TAP	19	144	2
HLD	19	176	2	48
TAP	19	224	0
TAP	19	240	1
TAP	19	256	7
TAP	19	272	0
TAP	19	288	6
TAP	19	320	6
TAP	19	336	7
TAP	19	368	0
TAP	19	368	5
TAP	20	32	6
TAP	20	48	7
TAP	20	80	1
TAP	20	96	0
TAP	20	128	2
HLD	20	128	7	48
TAP	20	176	0
TAP	20	192	1
TAP	20	208	2
TAP	20	224	3
TAP	20	240	5
TAP	20	272	5
TAP	20	288	4
TAP	20	320	4
TAP	20	336	3
TAP	20	336	6
TAP	21	0	4
TAP	21	0	5
HLD	21	48	3	8
HLD	21	56	4	8
TAP	21	128	2
TAP	21	144	3
TAP	21	176	3
HLD	21	192	1	80
TAP	21	272	0
TAP	21	288	1
TAP	21	320	6
TAP	21	336	7
HLD	21	368	0	80
TAP	21	368	5
TAP	22	48	4
TAP	22	64	5
TAP	22	80	6
TAP	22	96	1
TAP	22	112	2
TAP	22	128	3
TAP	22	144	7
TAP	22	160	6
TAP	22	176	5
TAP	22	192	3
TAP	22	208	2
TAP	22	224	1
HLD	22	240	0	32
TAP	22	272	4
XTP	22	320	1
XTP	22	320	6
TAP	22	368	2
TAP	23	0	3
TAP	23	48	1
TAP	23	48	3
TAP	23	96	4
TAP	23	96	6
TAP	23	144	4
TAP	23	144	5
TAP	23	192	1
TAP	23	192	3
TAP	23	240	2
TAP	23	240	3
HLD	23	288	4	48
TAP	23	288	6
TAP	23	320	5
TAP	23	336	5
TAP	24	0	2
TAP	24	0	3
TAP	24	48	1
TAP	24	48	3
TAP	24	96	4
TAP	24	96	5
HLD	24	144	4	48
TAP	24	144	6
TAP	24	176	5
TAP	24	192	5
TAP	24	240	3
TAP	24	240	6
TAP	24	272	5
TAP	24	288	4
TAP	24	304	6
TAP	24	320	0
TAP	24	336	7
TAP	24	368	7
HLD	25	0	2	32
TAP	25	32	0
HLD	25	48	1	32
TAP	25	80	7
HLD	25	96	0	32
TAP	25	128	6
HLD	25	144	7	32
TAP	25	176	5
TAP	25	192	2
TAP	25	208	3
TAP	25	224	2
TAP	25	240	5
TAP	25	256	4
TAP	25	272	5
TAP	25	288	1
TAP	25	304	3
TAP	25	320	2
TAP	25	336	6
TAP	25	352	4
TAP	25	368	5
BST	26	0	0
SSL	26	0	0	96	144	4
BST	26	288	1
SSR	26	288	1	96	64	5
BST	26	288	6
SSL	26	288	6	96	64	2
BRK	26	336	0
BRK	26	336	7
TAP	27	96	0
HLD	27	96	4	96
TAP	27	144	5
STR	27	192	1
SCL	27	192	1	96	48	6
STR	27	240	6
SCR	27	240	6	96	48	1
HLD	27	288	4	48
STR	28	0	5
SCL	28	0	5	96	48	2
STR	28	48	2
SCR	28	48	2	96	48	5
HLD	28	96	0	48
TAP	28	192	0
TAP	28	240	1
TAP	28	240	7
TAP	28	288	2
TAP	28	288	6
TAP	28	336	3
TAP	28	352	4
TAP	28	368	2
STR	29	0	3
SI_	29	0	3	96	48	7
STR	29	48	7
SI_	29	48	7	96	48	3
HLD	29	96	0	48
TAP	29	192	1
TAP	29	224	1
TAP	29	240	2
TAP	29	272	2
TAP	29	288	3
TAP	29	320	3
TAP	29	336	4
TAP	29	368	4
STR	30	0	5
SUL	30	0	5	96	48	7
TAP	30	48	7
STR	30	96	6
SI_	30	96	6	96	48	3
STR	30	144	6
SI_	30	144	6	96	48	1
STR	30	192	6
SI_	30	192	6	96	48	2
STR	30	240	6
SLR	30	240	6	96	80	4
TAP	30	288	6
TAP	30	336	6
XTP	31	0	5
XTP	31	48	5
HLD	31	96	3	96
TAP	31	96	7
TAP	31	144	2
STR	31	192	6
SCR	31	192	6	96	48	1
STR	31	240	1
SCL	31	240	1	96	48	6
HLD	31	288	3	48
STR	32	0	2
SCR	32	0	2	96	48	5
STR	32	48	5
SCL	32	48	5	96	48	2
HLD	32	96	7	48
TAP	32	192	7
TAP	32	240	0
TAP	32	240	6
TAP	32	288	1
TAP	32	288	5
TAP	32	336	4
TAP	32	352	3
TAP	32	368	5
STR	33	0	4
SI_	33	0	4	96	48	0
STR	33	48	0
SI_	33	48	0	96	48	4
HLD	33	96	7	48
TAP	33	192	6
TAP	33	224	6
TAP	33	240	5
TAP	33	272	5
TAP	33	288	4
TAP	33	320	4
TAP	33	336	3
TAP	33	368	3
TAP	34	0	2
TAP	34	32	0
TAP	34	48	7
TAP	34	80	1
TAP	34	96	6
TAP	34	128	2
TAP	34	144	5
TAP	34	176	3
TAP	34	192	4
TAP	34	224	3
TAP	34	240	4
STR	34	272	0
SSR	34	272	0	96	80	4
BST	34	288	7
SSL	34	288	7	96	64	3
TAP	34	320	0
TAP	34	336	7
STR	35	96	7
SI_	35	96	7	96	48	2
STR	35	144	2
SI_	35	144	2	96	48	7
STR	35	192	7
SI_	35	192	7	96	48	4
STR	35	240	4
SCR	35	240	4	96	96	2
TAP	35	288	3
TTP	35	336	0	C	1	M1
STR	36	96	0
SI_	36	96	0	96	48	5
STR	36	144	5
SI_	36	144	5	96	48	0
STR	36	192	0
SI_	36	192	0	96	48	3
STR	36	240	3
SCL	36	240	3	96	32	1
STR	36	288	4
SI_	36	288	4	96	48	7
TAP	36	336	4
BRK	37	0	4
STR	37	96	6
SI_	37	96	6	96	48	3
STR	37	144	3
SI_	37	144	3	96	48	6
STR	37	192	6
SI_	37	192	6	96	48	1
STR	37	240	1
SCL	37	240	1	96	96	3
TAP	37	288	2
TTP	37	336	0	C	1	M1
TAP	38	96	0
TAP	38	144	0
TAP	38	144	5
TAP	38	192	2
TAP	38	192	7
TAP	38	224	5
TAP	38	240	4
TAP	38	272	2
TAP	38	288	3
TAP	38	336	0
TAP	38	336	6
TAP	39	0	2
TAP	39	0	4
TAP	39	48	1
TAP	39	48	7
STR	39	96	0
SI_	39	96	0	96	48	5
STR	39	144	5
SI_	39	144	5	96	48	0
STR	39	192	0
SI_	39	192	0	96	48	3
STR	39	240	3
SCL	39	240	3	96	96	5
TAP	39	288	4
TTP	39	336	0	C	1	M1
STR	40	96	7
SI_	40	96	7	96	48	2
STR	40	144	2
SI_	40	144	2	96	48	7
STR	40	192	7
SI_	40	192	7	96	48	4
STR	40	240	4
SCR	40	240	4	96	32	6
STR	40	288	3
SI_	40	288	3	96	48	0
TAP	40	336	3
BRK	41	0	3
STR	41	96	1
SI_	41	96	1	96	48	4
STR	41	144	4
SI_	41	144	4	96	48	1
STR	41	192	1
SI_	41	192	1	96	48	6
STR	41	240	6
SCR	41	240	6	96	96	4
TAP	41	288	5
TTP	41	336	0	C	1	M1
TAP	42	80	6
TAP	42	96	6
TAP	42	176	1
TAP	42	192	1
TAP	42	224	7
TAP	42	240	0
TAP	42	272	7
TAP	42	288	0
BRK	42	336	1
BRK	42	336	6
HLD	43	0	3	32
HLD	43	0	4	32
TAP	43	80	2
TAP	43	96	3
TAP	43	144	1
TAP	43	144	4
STR	43	192	3
SCR	43	192	3	96	48	5
TAP	43	240	2
TAP	43	288	1
HLD	44	0	3	32
HLD	44	0	4	32
TAP	44	80	2
TAP	44	96	3
TAP	44	144	1
TAP	44	144	4
STR	44	192	3
SCR	44	192	3	96	48	5
TAP	44	240	2
TAP	44	288	1
HLD	45	0	3	32
HLD	45	0	4	32
TAP	45	80	5
TAP	45	96	4
TAP	45	144	3
TAP	45	144	6
STR	45	192	4
SCL	45	192	4	96	48	2
TAP	45	240	5
TAP	45	288	6
TAP	46	0	1
TAP	46	32	1
TAP	46	48	0
TAP	46	80	0
TAP	46	96	7
TAP	46	128	7
TAP	46	144	6
TAP	46	176	6
TAP	46	192	5
TAP	46	224	5
TAP	46	240	4
TAP	46	272	4
TAP	46	288	3
TAP	46	336	2
TAP	46	336	5
HLD	47	0	3	32
HLD	47	0	4	32
TAP	47	80	5
TAP	47	96	4
TAP	47	144	3
TAP	47	144	6
STR	47	192	4
SI_	47	192	4	96	48	1
TAP	47	240	5
TAP	47	288	6
HLD	48	0	3	32
HLD	48	0	4	32
TAP	48	80	5
TAP	48	96	4
TAP	48	144	3
TAP	48	144	6
STR	48	192	4
SI_	48	192	4	96	48	1
TAP	48	240	5
TAP	48	288	6
HLD	49	0	3	32
HLD	49	0	4	32
TAP	49	80	2
TAP	49	96	3
TAP	49	144	1
TAP	49	144	4
STR	49	192	3
SI_	49	192	3	96	48	6
TAP	49	240	2
TAP	49	288	1
TAP	50	0	5
TAP	50	32	5
TAP	50	48	4
TAP	50	80	4
TAP	50	96	7
TAP	50	128	7
TAP	50	144	2
TAP	50	176	2
TAP	50	192	3
TAP	50	224	3
TAP	50	240	0
STR	50	288	1
SV_	50	288	1	96	48	4
STR	50	288	6
SI_	50	288	6	96	48	3
TAP	50	336	0
TAP	50	336	7
BRK	51	0	1
BRK	51	0	6
STR	51	96	1
SCL	51	96	1	96	48	6
TAP	51	96	5
TAP	51	128	2
TAP	51	144	3
TAP	51	176	3
STR	51	192	1
SCR	51	192	1	96	48	4
TAP	51	240	5
TAP	51	288	1
STR	51	288	7
SUL	51	288	7	96	48	3
TAP	51	336	0
TAP	52	0	2
TAP	52	0	7
TAP	52	48	1
STR	52	96	0
SI_	52	96	0	96	48	3
TAP	52	96	5
TAP	52	128	7
TAP	52	144	6
TAP	52	176	6
TAP	52	192	0
TAP	52	240	7
STR	52	288	2
SI_	52	288	2	96	48	7
STR	52	288	6
SI_	52	288	6	96	48	3
TAP	52	336	1
TAP	52	336	5
TAP	53	0	2
TAP	53	0	6
TAP	53	96	1
STR	53	96	5
SV_	53	96	5	96	48	0
TAP	53	128	6
TAP	53	144	7
TAP	53	176	7
STR	53	192	5
SCL	53	192	5	96	48	2
TAP	53	240	3
TAP	53	288	1
TAP	53	288	5
TAP	53	336	0
TAP	54	0	2
HLD	54	0	6	32
TAP	54	12	3
TAP	54	24	4
TAP	54	64	2
HLD	54	64	7	32
TAP	54	76	3
TAP	54	88	4
HLD	54	128	0	32
TAP	54	128	2
TAP	54	140	3
TAP	54	152	4
BRK	54	224	0
BRK	54	224	7
STR	54	288	2
SCL	54	288	2	96	48	0
STR	54	288	5
SCR	54	288	5	96	48	7
TAP	54	320	3
TAP	54	336	4
TAP	54	368	4
BRK	55	0	2
BRK	55	0	5
TAP	55	96	2
STR	55	96	6
SCR	55	96	6	96	48	1
TAP	55	128	5
TAP	55	144	4
TAP	55	176	4
STR	55	192	6
SCL	55	192	6	96	48	3
TAP	55	240	2
STR	55	288	0
SUR	55	288	0	96	48	4
TAP	55	288	6
TAP	55	336	7
TAP	56	0	0
TAP	56	0	5
TAP	56	48	6
TAP	56	96	2
STR	56	96	7
SI_	56	96	7	96	48	4
TAP	56	128	0
TAP	56	144	1
TAP	56	176	1
TAP	56	192	7
TAP	56	240	0
STR	56	288	1
SI_	56	288	1	96	48	4
STR	56	288	5
SI_	56	288	5	96	48	0
TAP	56	336	2
TAP	56	336	6
TAP	57	0	1
TAP	57	0	5
STR	57	96	2
SI_	57	96	2	96	48	7
TAP	57	96	6
TAP	57	128	1
TAP	57	144	0
TAP	57	176	0
STR	57	192	2
SV_	57	192	2	96	48	5
TAP	57	240	4
TAP	57	288	2
STR	57	288	6
SCL	57	288	6	96	144	7
TAP	57	336	7
TAP	58	0	0
TAP	58	0	6
TTP	58	48	0	C	1	M1
TAP	58	192	0
TAP	58	240	3
TAP	58	240	4
BST	58	288	1
SI_	58	288	1	96	48	4
BST	58	288	6
SV_	58	288	6	96	48	3
BRK	59	0	1
BRK	59	0	6
TAP	59	96	2
STR	59	96	6
SXL	59	96	6	96	48	7
TAP	59	128	5
TAP	59	144	4
TAP	59	176	4
STR	59	192	6
SCL	59	192	6	96	48	3
TAP	59	240	2
STR	59	288	0
SLR	59	288	0	96	48	4
TAP	59	288	6
TAP	59	336	7
TAP	60	0	0
TAP	60	0	5
TAP	60	48	6
TAP	60	96	2
STR	60	96	7
SI_	60	96	7	96	48	3
TAP	60	128	0
TAP	60	144	1
TAP	60	176	1
TAP	60	192	7
TAP	60	240	0
STR	60	288	1
SI_	60	288	1	96	48	4
STR	60	288	5
SI_	60	288	5	96	48	0
TAP	60	336	3
TAP	60	336	7
TAP	61	0	1
TAP	61	0	5
STR	61	96	2
SXR	61	96	2	96	48	1
TAP	61	96	6
TAP	61	128	1
TAP	61	144	0
TAP	61	176	0
STR	61	192	2
SCR	61	192	2	96	48	5
TAP	61	240	4
TAP	61	288	2
TAP	61	288	6
TAP	61	336	7
BRK	62	0	5
HLD	62	0	7	32
TAP	62	12	4
TAP	62	24	3
HLD	62	64	1	32
BRK	62	64	6
TAP	62	76	5
TAP	62	88	4
HLD	62	128	3	32
BRK	62	128	7
TAP	62	140	6
TAP	62	152	5
BRK	62	224	0
BRK	62	224	7
STR	62	288	2
SCL	62	288	2	96	48	0
STR	62	288	5
SCR	62	288	5	96	48	7
TAP	62	320	4
TAP	62	336	3
TAP	62	368	3
BRK	63	0	2
BRK	63	0	5
STR	63	96	1
SXR	63	96	1	96	48	0
TAP	63	96	5
TAP	63	128	2
TAP	63	144	3
TAP	63	176	3
STR	63	192	1
SCR	63	192	1	96	48	4
TAP	63	240	5
TAP	63	288	1
STR	63	288	7
SLL	63	288	7	96	48	3
TAP	63	336	0
TAP	64	0	2
TAP	64	0	7
TAP	64	48	1
STR	64	96	0
SSR	64	96	0	96	48	4
TAP	64	96	5
TAP	64	128	7
TAP	64	144	6
TAP	64	176	6
TAP	64	192	0
TAP	64	240	7
STR	64	288	2
SV_	64	288	2	96	48	7
STR	64	288	6
SI_	64	288	6	96	48	3
TAP	64	336	0
TAP	64	336	4
TAP	65	0	2
TAP	65	0	6
TAP	65	96	1
TAP	65	96	5
TAP	65	128	0
STR	65	144	7
SI_	65	144	7	96	48	5
TAP	65	176	7
STR	65	192	2
SI_	65	192	2	96	48	6
STR	65	240	7
SI_	65	240	7	96	48	3
STR	65	288	2
SI_	65	288	2	96	48	0
STR	65	336	7
SCL	65	336	7	96	144	1
TAP	66	0	2
TTP	66	48	0	C	1	M1
HLD	66	192	0	48
TAP	66	240	1
TAP	66	256	2
TAP	66	272	3
STR	66	288	4
SI_	66	288	4	96	32	7
TAP	66	304	5
TAP	66	320	6
HLD	66	336	4	48

T_REC_TAP	574
T_REC_BRK	29
T_REC_XTP	6
T_REC_HLD	49
T_REC_XHO	0
T_REC_STR	97
T_REC_BST	7
T_REC_XST	0
T_REC_TTP	16
T_REC_THO	0
T_REC_SLD	104
T_REC_ALL	882
T_NUM_TAP	693
T_NUM_BRK	36
T_NUM_HLD	49
T_NUM_SLD	104
T_NUM_ALL	882
T_JUDGE_TAP	729
T_JUDGE_HLD	106
T_JUDGE_SLD	104
T_JUDGE_ALL	939
TTM_EACHPAIRS	152
TTM_SCR_TAP	346500
TTM_SCR_BRK	93600
TTM_SCR_HLD	49000
TTM_SCR_SLD	156000
TTM_SCR_ALL	645100
TTM_SCR_S	622300
TTM_SCR_SS	641500
TTM_RAT_ACV	10056

