VERSION	0.00.00	1.03.00
FES_MODE	0
BPM_DEF	110.000	110.000	110.000	110.000
MET_DEF	4	4
RESOLUTION	384
CLK_DEF	384
COMPATIBLE_CODE	MA2

BPM	0	0	110.000
MET	0	0	4	4

HLD	1	0	4	96
TAP	1	80	3
HLD	1	96	3	96
HLD	1	192	4	96
TAP	1	240	2
HLD	1	288	3	96
TAP	1	336	5
HLD	2	0	4	96
TAP	2	80	3
HLD	2	96	3	96
HLD	2	192	4	96
TAP	2	240	2
TAP	2	288	3
HLD	3	0	3	96
TAP	3	80	4
HLD	3	96	4	96
HLD	3	192	3	96
TAP	3	240	5
HLD	3	288	4	96
TAP	3	336	2
HLD	4	0	3	96
TAP	4	80	4
HLD	4	96	4	96
HLD	4	192	3	96
TAP	4	240	5
TAP	4	288	4
HLD	5	0	5	288
TAP	5	80	3
TAP	5	96	3
XTP	5	176	4
XTP	5	224	3
XTP	5	272	2
XTP	5	288	2
HLD	6	0	2	288
TAP	6	80	4
TAP	6	96	4
XTP	6	176	3
XTP	6	224	4
XTP	6	272	5
XTP	6	288	5
HLD	7	0	5	288
TAP	7	80	3
TAP	7	96	3
XTP	7	176	4
XTP	7	224	3
XTP	7	272	2
XTP	7	288	2
HLD	8	0	1	64
HLD	8	64	3	64
HLD	8	128	4	64
HLD	8	192	6	64
STR	8	256	0
SCR	8	256	0	96	224	7
TTP	9	0	0	C	1	M1
TAP	10	0	2
TAP	10	0	4
TAP	10	48	1
TAP	10	96	0
TAP	10	96	3
TAP	10	144	4
TAP	10	192	3
TAP	10	192	5
TAP	10	240	6
TAP	10	288	4
TAP	10	288	7
TAP	10	336	3
TAP	11	0	2
TAP	11	0	4
TAP	11	48	1
TAP	11	96	0
TAP	11	96	3
TAP	11	144	4
TAP	11	192	3
TAP	11	192	5
TAP	11	240	6
TAP	11	288	4
TAP	11	288	7
TAP	11	336	3
TAP	12	0	2
TAP	12	0	4
TAP	12	48	1
TAP	12	96	0
TAP	12	96	3
TAP	12	144	4
TAP	12	192	3
TAP	12	192	5
TAP	12	240	6
TAP	12	288	4
TAP	12	288	7
TAP	12	336	3
TAP	13	0	2
TAP	13	0	4
TAP	13	48	1
TAP	13	96	0
TAP	13	96	3
HLD	13	144	4	96
TTP	13	240	0	C	1	M1
TAP	14	0	6
TAP	14	48	6
TAP	14	96	4
TAP	14	144	4
TAP	14	192	3
TAP	14	240	3
XTP	14	288	2
XTP	14	288	4
XTP	14	320	2
XTP	14	320	4
XTP	14	352	2
XTP	14	352	4
XST	15	0	2
SI_	15	0	2	96	48	5
XTP	15	0	4
TAP	15	192	7
TAP	15	240	6
TAP	15	288	5
TAP	15	336	4
TAP	16	0	2
TAP	16	48	2
TAP	16	96	3
TAP	16	144	3
TAP	16	192	4
TAP	16	240	4
TAP	16	288	3
TAP	16	288	5
TAP	16	336	3
TAP	16	336	5
TAP	17	0	2
HLD	17	0	6	64
TAP	17	64	4
TAP	17	112	4
TAP	17	112	6
TAP	17	160	3
TAP	17	160	5
TAP	17	208	2
TAP	17	208	4
TAP	17	256	1
TAP	17	256	3
TAP	17	304	1
TAP	17	304	3
STR	17	352	2
SCL	17	352	2	96	176	3
TAP	17	352	4
TTP	18	32	0	C	1	M1
TAP	19	0	5
HLD	19	48	5	336
TAP	19	96	4
TAP	19	144	4
TAP	19	192	3
TAP	19	240	3
TAP	19	288	4
TAP	19	336	3
TAP	20	0	2
HLD	20	48	2	336
TAP	20	96	3
TAP	20	144	3
TAP	20	192	4
TAP	20	240	4
TAP	20	288	3
TAP	20	336	5
TAP	21	0	6
HLD	21	48	6	336
TAP	21	96	4
TAP	21	144	4
TAP	21	192	3
TAP	21	240	3
TAP	21	288	4
TAP	21	336	2
TAP	22	0	1
HLD	22	48	1	240
TAP	22	96	3
TAP	22	144	3
TAP	22	192	4
TAP	22	240	4
TAP	22	288	3
TAP	22	336	4
TAP	23	0	3
TAP	23	0	4
TAP	23	48	5
TAP	23	96	6
TAP	23	144	7
TAP	23	192	0
TAP	23	240	1
TAP	23	288	2
XTP	23	320	4
XTP	23	336	3
TAP	24	0	5
TAP	24	48	5
TAP	24	96	6
TAP	24	144	6
XTP	24	176	0
XTP	24	192	7
TAP	24	240	1
TAP	24	288	2
XTP	24	320	4
XTP	24	336	3
HLD	25	0	5	48
HLD	25	48	6	48
HLD	25	96	7	48
HLD	25	144	0	48
HLD	25	192	1	48
HLD	25	240	2	48
TAP	25	288	3
TAP	25	336	4
STR	26	0	5
SI_	26	0	5	96	24	7
STR	26	96	1
SI_	26	96	1	96	24	3
TAP	26	192	4
BRK	26	288	2
BRK	26	288	5
BRK	26	336	2
BRK	26	336	5
TAP	27	0	3
HLD	27	0	4	240
TAP	27	48	3
STR	27	96	0
SLL	27	96	0	96	96	3
TAP	27	144	0
XTP	27	336	5
HLD	28	0	3	240
TAP	28	0	4
TAP	28	48	4
STR	28	96	7
SLR	28	96	7	96	96	4
TAP	28	144	7
XTP	28	336	2
TAP	29	0	3
HLD	29	0	4	240
TAP	29	48	3
TAP	29	96	7
TAP	29	144	7
XTP	29	192	0
XTP	29	240	6
XTP	29	288	2
XTP	29	336	3
HLD	30	0	3	240
TAP	30	0	4
TAP	30	48	4
TAP	30	96	7
TAP	30	144	7
XTP	30	192	0
XTP	30	240	2
XTP	30	288	7
XTP	30	336	4
TAP	31	0	3
HLD	31	0	4	240
TAP	31	48	3
STR	31	96	0
SLL	31	96	0	96	96	3
TAP	31	144	0
XTP	31	336	5
HLD	32	0	3	240
TAP	32	0	4
TAP	32	48	4
STR	32	96	7
SLR	32	96	7	96	96	4
TAP	32	144	7
XTP	32	336	2
TAP	33	0	3
HLD	33	0	4	240
TAP	33	48	3
TAP	33	96	7
TAP	33	144	7
XTP	33	192	0
XTP	33	240	6
XTP	33	288	2
XTP	33	336	3
HLD	34	0	2	144
HLD	34	96	5	96
HLD	34	192	2	48
TAP	34	240	5
TAP	34	288	1
TAP	34	288	6
STR	35	0	0
SCR	35	0	0	96	48	2
STR	35	0	7
SCL	35	0	7	96	48	5
TAP	35	48	0
TAP	35	48	7
TTP	35	192	2	B	0	M1
TTP	35	192	5	B	0	M1
TTP	35	240	1	E	0	M1
TTP	35	240	7	E	0	M1
TTP	35	288	3	E	0	M1
TTP	35	288	5	E	0	M1
TTP	35	336	2	E	0	M1
TTP	35	336	6	E	0	M1
STR	36	0	3
SCL	36	0	3	96	48	1
STR	36	0	7
SCL	36	0	7	96	48	5
TAP	36	48	3
TAP	36	48	7
TTP	36	192	2	B	0	M1
TTP	36	192	5	B	0	M1
TTP	36	240	1	E	0	M1
TTP	36	240	7	E	0	M1
TTP	36	288	3	E	0	M1
TTP	36	288	5	E	0	M1
TTP	36	336	2	E	0	M1
TTP	36	336	6	E	0	M1
STR	37	0	0
SCR	37	0	0	96	48	2
STR	37	0	4
SCR	37	0	4	96	48	6
TAP	37	48	0
TAP	37	48	4
TTP	37	192	2	B	0	M1
TTP	37	192	5	B	0	M1
TTP	37	240	1	E	0	M1
TTP	37	240	7	E	0	M1
TTP	37	288	3	E	0	M1
TTP	37	288	5	E	0	M1
TTP	37	336	2	E	0	M1
TTP	37	336	6	E	0	M1
STR	38	0	3
SCL	38	0	3	96	48	1
STR	38	0	4
SCR	38	0	4	96	48	6
TAP	38	48	3
TAP	38	48	4
TTP	38	192	2	B	0	M1
TTP	38	192	5	B	0	M1
TTP	38	240	1	E	0	M1
TTP	38	240	7	E	0	M1
TTP	38	288	0	C	1	M1
TTP	38	288	3	B	0	M1
TTP	38	288	4	B	0	M1
STR	39	0	0
SCR	39	0	0	96	48	2
STR	39	0	6
SCL	39	0	6	96	48	4
TAP	39	48	0
TAP	39	48	6
TTP	39	192	1	B	0	M1
TTP	39	192	5	B	0	M1
TTP	39	240	0	E	0	M1
TTP	39	240	7	E	0	M1
TTP	39	288	2	B	0	M1
TTP	39	288	4	B	0	M1
TTP	39	336	1	E	0	M1
TTP	39	336	6	E	0	M1
STR	40	0	1
SCR	40	0	1	96	48	3
STR	40	0	7
SCL	40	0	7	96	48	5
TAP	40	48	1
TAP	40	48	7
TTP	40	192	2	B	0	M1
TTP	40	192	6	B	0	M1
TTP	40	240	0	E	0	M1
TTP	40	240	1	E	0	M1
TTP	40	288	3	B	0	M1
TTP	40	288	5	B	0	M1
TTP	40	336	2	E	0	M1
TTP	40	336	7	E	0	M1
STR	41	0	0
SCR	41	0	0	96	48	2
STR	41	0	4
SCR	41	0	4	96	48	6
TAP	41	48	0
TAP	41	48	4
TTP	41	192	1	B	0	M1
TTP	41	192	5	B	0	M1
TTP	41	240	0	E	0	M1
TTP	41	240	7	E	0	M1
TTP	41	288	2	B	0	M1
TTP	41	288	4	B	0	M1
TTP	41	336	1	E	0	M1
TTP	41	336	6	E	0	M1
STR	42	0	3
SCL	42	0	3	96	48	0
STR	42	0	7
SCL	42	0	7	96	48	4
XTP	42	192	0
XTP	42	192	4
XTP	42	240	1
XTP	42	240	5
XST	42	288	2
SXR	42	288	2	96	240	5
XTP	42	288	6
TAP	43	288	7
HLD	43	336	7	144
TAP	44	0	4
TAP	44	96	0
HLD	44	144	0	144
TAP	44	192	3
STR	44	288	5
SXL	44	288	5	96	240	2
TAP	44	336	5
TAP	45	288	0
TAP	46	0	4
TAP	46	0	6
TAP	46	48	5
TAP	46	96	1
TAP	46	96	3
TAP	46	144	2
TAP	46	192	4
TAP	46	192	6
TAP	46	240	5
XST	46	288	2
SXR	46	288	2	96	240	5
TAP	46	288	4
TAP	47	288	7
HLD	47	336	7	144
TAP	48	0	4
TAP	48	96	0
HLD	48	144	0	144
TAP	48	192	3
STR	48	288	5
SXL	48	288	5	96	240	2
TAP	48	336	5
TAP	49	288	0
TAP	50	0	4
TAP	50	0	6
TAP	50	48	5
TAP	50	96	1
TAP	50	96	3
TAP	50	144	2
TAP	50	192	4
TAP	50	192	6
TAP	50	240	5
TAP	50	288	2
TAP	50	288	4
HLD	51	0	0	96
TAP	51	96	7
TAP	51	144	5
TAP	51	144	6
TAP	51	192	3
TAP	51	192	4
TAP	51	240	1
TAP	51	240	2
STR	51	288	0
SCR	51	288	0	96	48	3
STR	52	0	7
SCL	52	0	7	96	48	4
STR	52	96	0
SSL	52	96	0	96	96	4
XTP	52	192	7
XTP	52	288	7
HLD	53	0	7	96
TAP	53	96	0
TAP	53	144	1
TAP	53	144	2
TAP	53	192	3
TAP	53	192	4
TAP	53	240	5
TAP	53	240	6
HLD	53	288	0	96
TAP	53	288	7
XTP	54	0	7
XTP	54	64	4
XTP	54	64	6
XST	54	128	1
SCR	54	128	1	96	64	6
XTP	54	128	3
TTP	54	224	0	C	1	M1
HLD	55	0	7	96
TAP	55	96	0
TAP	55	144	1
TAP	55	144	2
TAP	55	192	3
TAP	55	192	4
TAP	55	240	5
TAP	55	240	6
STR	55	288	7
SCL	55	288	7	96	48	4
STR	56	0	0
SCR	56	0	0	96	48	3
STR	56	96	7
SSR	56	96	7	96	96	3
XTP	56	192	0
XTP	56	288	0
HLD	57	0	0	96
TAP	57	96	7
TAP	57	144	5
TAP	57	144	6
TAP	57	192	3
TAP	57	192	4
TAP	57	240	1
TAP	57	240	2
TAP	57	288	0
HLD	57	288	7	96
STR	58	0	0
SUR	58	0	0	96	48	4
BRK	58	192	5
BRK	58	240	6
BRK	58	288	7
HLD	59	0	2	96
TAP	59	96	3
TAP	59	144	0
TAP	59	144	1
TAP	59	192	6
TAP	59	192	7
TAP	59	240	4
TAP	59	240	5
STR	59	288	3
SCL	59	288	3	96	48	0
STR	60	0	4
SCR	60	0	4	96	48	7
STR	60	96	3
SSR	60	96	3	96	96	7
XTP	60	192	4
XTP	60	288	4
HLD	61	0	5	96
TAP	61	96	4
TAP	61	144	6
TAP	61	144	7
TAP	61	192	0
TAP	61	192	1
TAP	61	240	2
TAP	61	240	3
TAP	61	288	4
HLD	61	288	6	96
XTP	62	0	4
XTP	62	64	0
XTP	62	64	7
XTP	62	128	1
XST	62	128	3
SCR	62	128	3	96	64	0
TTP	62	224	0	C	1	M1
HLD	63	0	2	96
TAP	63	96	3
TAP	63	144	0
TAP	63	144	1
TAP	63	192	6
TAP	63	192	7
TAP	63	240	4
TAP	63	240	5
STR	63	288	3
SCL	63	288	3	96	48	0
STR	64	0	4
SCR	64	0	4	96	48	7
STR	64	96	3
SXL	64	96	3	96	144	0
XTP	64	192	7
XTP	64	288	7
HLD	65	0	5	96
TAP	65	96	4
TAP	65	144	6
TAP	65	144	7
TAP	65	192	0
TAP	65	192	1
TAP	65	240	2
TAP	65	240	3
TAP	65	288	4
HLD	65	288	5	96
STR	66	0	7
SUL	66	0	7	96	48	3
BRK	66	192	7
BRK	66	240	6
BST	66	288	3
SI_	66	288	3	96	48	0
BRK	66	288	5
TTP	67	0	0	C	1	M1

T_REC_TAP	271
T_REC_BRK	10
T_REC_XTP	62
T_REC_HLD	59
T_REC_XHO	0
T_REC_STR	40
T_REC_BST	1
T_REC_XST	5
T_REC_TTP	61
T_REC_THO	0
T_REC_SLD	46
T_REC_ALL	555
T_NUM_TAP	439
T_NUM_BRK	11
T_NUM_HLD	59
T_NUM_SLD	46
T_NUM_ALL	555
T_JUDGE_TAP	450
T_JUDGE_HLD	329
T_JUDGE_SLD	46
T_JUDGE_ALL	825
TTM_EACHPAIRS	97
TTM_SCR_TAP	219500
TTM_SCR_BRK	28600
TTM_SCR_HLD	59000
TTM_SCR_SLD	69000
TTM_SCR_ALL	376100
TTM_SCR_S	363750
TTM_SCR_SS	375000
TTM_RAT_ACV	10029

