VERSION	0.00.00	1.03.00
FES_MODE	0
BPM_DEF	110.000	110.000	110.000	110.000
MET_DEF	4	4
RESOLUTION	384
CLK_DEF	384
COMPATIBLE_CODE	MA2

BPM	0	0	110.000
MET	0	0	4	4

HLD	1	0	2	192
HLD	1	192	3	192
HLD	2	0	4	192
TAP	2	192	5
TAP	2	288	4
TAP	2	288	5
HLD	3	0	6	192
HLD	3	192	7	192
HLD	4	0	0	192
TAP	4	192	1
XTP	4	288	0
XTP	4	288	7
HLD	5	0	6	96
TAP	5	96	7
HLD	5	192	1	96
TAP	5	288	0
HLD	6	0	6	96
TAP	6	96	7
TAP	6	192	0
TAP	6	192	7
TAP	6	288	1
TAP	6	288	6
HLD	7	0	2	96
TAP	7	96	3
HLD	7	192	5	96
TAP	7	288	4
STR	8	0	3
SCL	8	0	3	96	96	0
STR	8	0	4
SCR	8	0	4	96	96	7
THO	9	0	0	192	C	0	L1
XTP	10	0	6
XTP	10	48	6
XTP	10	96	7
TAP	10	192	1
TAP	10	240	1
TAP	10	288	0
TAP	11	0	6
TAP	11	48	6
TAP	11	96	7
HLD	11	192	0	48
HLD	11	192	1	48
TAP	11	288	0
TAP	11	288	1
TAP	12	0	2
TAP	12	48	2
TAP	12	96	3
TAP	12	192	5
TAP	12	240	5
TAP	12	288	4
TAP	13	0	3
TAP	13	48	3
STR	13	96	5
SCL	13	96	5	96	96	2
XHO	14	0	1	96
TAP	14	96	0
TAP	14	192	7
TAP	14	240	7
TAP	14	288	0
HLD	15	0	6	96
TAP	15	96	7
TAP	15	192	0
TAP	15	240	0
TAP	15	288	7
HLD	16	0	1	96
TAP	16	96	0
TAP	16	192	7
TAP	16	240	7
TAP	16	288	0
TAP	16	288	6
STR	17	0	2
SLL	17	0	2	96	240	3
STR	17	0	5
SLR	17	0	5	96	240	4
TTP	18	48	0	C	1	L1
TTP	19	0	6	B	0	L1
TTP	19	0	7	E	0	L1
TTP	19	96	4	B	0	L1
TTP	19	96	5	E	0	L1
TTP	19	192	3	E	0	L1
TTP	19	240	2	B	0	L1
TTP	19	288	1	B	0	L1
TTP	20	0	7	B	0	L1
TTP	20	0	7	E	0	L1
TTP	20	96	5	B	0	L1
TTP	20	96	5	E	0	L1
TTP	20	192	1	B	0	L1
TTP	20	240	2	B	0	L1
TTP	20	288	3	E	0	L1
TTP	21	0	6	B	0	L1
TTP	21	0	7	B	0	L1
TTP	21	96	0	B	0	L1
TTP	21	96	1	B	0	L1
TTP	21	192	3	E	0	L1
TTP	21	240	4	E	0	L1
TTP	21	288	5	E	0	L1
TTP	22	0	5	B	0	L1
TTP	22	0	6	B	0	L1
TTP	22	96	1	B	0	L1
TTP	22	96	2	B	0	L1
TTP	22	192	0	C	1	L1
XTP	23	0	6
TAP	23	48	6
TAP	23	96	6
TAP	23	96	7
TAP	23	192	1
TAP	23	240	1
TAP	23	288	0
TAP	23	288	1
TAP	24	0	2
TAP	24	48	2
TAP	24	96	2
TAP	24	96	3
TAP	24	192	5
TAP	24	240	5
TAP	24	288	4
TAP	24	288	6
TAP	25	0	7
TAP	25	48	7
TAP	25	96	0
TAP	25	144	0
TAP	25	192	1
TAP	25	240	1
TAP	25	288	2
TAP	25	336	2
STR	26	0	3
SI_	26	0	3	96	96	0
STR	26	0	4
SI_	26	0	4	96	96	7
BRK	26	288	1
BRK	26	288	6
STR	27	0	5
SI_	27	0	5	96	96	0
TAP	27	192	1
TAP	27	288	0
TAP	27	288	1
STR	28	0	2
SI_	28	0	2	96	96	7
TAP	28	192	6
TAP	28	288	6
TAP	28	288	7
STR	29	0	5
SCR	29	0	5	96	96	0
TAP	29	192	1
TAP	29	288	0
TAP	29	288	1
STR	30	0	2
SCL	30	0	2	96	96	7
TAP	30	192	6
TAP	30	288	0
TAP	30	288	7
STR	31	0	6
SV_	31	0	6	96	96	3
TAP	31	192	2
TAP	31	288	2
TAP	31	288	3
STR	32	0	1
SV_	32	0	1	96	96	4
TAP	32	192	5
TAP	32	288	4
TAP	32	288	5
STR	33	0	6
SV_	33	0	6	96	96	3
TAP	33	192	2
TAP	33	288	2
TAP	33	288	3
TAP	34	0	0
TAP	34	0	1
TAP	34	96	6
TAP	34	96	7
TAP	34	192	4
TAP	34	192	5
BRK	34	288	3
BRK	34	288	6
TAP	35	0	6
TAP	35	0	7
TAP	35	96	0
TAP	35	96	5
TTP	35	192	5	E	0	L1
TTP	35	240	4	E	0	L1
TTP	35	288	3	E	0	L1
XTP	36	0	0
XTP	36	0	1
TAP	36	96	2
TAP	36	96	7
TTP	36	192	3	E	0	L1
TTP	36	240	4	E	0	L1
TTP	36	288	5	E	0	L1
XTP	37	0	6
XTP	37	0	7
TAP	37	96	0
TAP	37	96	5
TTP	37	192	5	E	0	L1
TTP	37	240	4	E	0	L1
TTP	37	288	3	E	0	L1
XTP	38	0	0
XTP	38	0	1
TAP	38	96	2
TAP	38	96	7
TTP	38	192	3	E	0	L1
TTP	38	240	4	E	0	L1
TTP	38	288	5	E	0	L1
XTP	39	0	6
XTP	39	0	7
TAP	39	96	4
TAP	39	96	5
TTP	39	192	6	E	0	L1
TTP	39	240	0	C	0	L1
TTP	39	288	2	E	0	L1
XTP	40	0	0
XTP	40	0	1
TAP	40	96	2
TAP	40	96	3
TTP	40	192	2	E	0	L1
TTP	40	240	0	C	0	L1
TTP	40	288	6	E	0	L1
XTP	41	0	6
XTP	41	0	7
TAP	41	96	4
TAP	41	96	5
TTP	41	192	6	E	0	L1
TTP	41	240	0	C	0	L1
TTP	41	288	2	E	0	L1
XTP	42	0	0
XTP	42	0	1
TAP	42	96	6
TAP	42	96	7
TAP	42	192	0
TAP	42	192	7
BRK	42	288	1
BRK	42	288	6
HLD	43	0	2	192
HLD	43	192	3	192
HLD	44	0	4	192
TAP	44	192	5
HLD	45	0	6	192
HLD	45	192	7	192
HLD	46	0	0	192
TAP	46	192	1
STR	47	0	1
SSR	47	0	1	96	192	5
STR	48	0	6
SSL	48	0	6	96	192	2
STR	49	0	1
SSR	49	0	1	96	192	5
TAP	50	0	6
TAP	50	96	6
TAP	50	96	7
TAP	50	192	0
TAP	50	192	7
BRK	50	288	1
BRK	50	288	6
TAP	51	0	5
TAP	51	48	5
TAP	51	96	4
TAP	51	96	5
TAP	51	192	2
TAP	51	240	2
TAP	51	288	2
TAP	51	288	3
TAP	52	0	5
TAP	52	48	5
TAP	52	96	4
TAP	52	144	4
TAP	52	192	3
TAP	52	240	3
TAP	52	288	2
TAP	52	288	4
TAP	53	0	1
TAP	53	48	1
TAP	53	96	0
TAP	53	96	1
TAP	53	192	6
TAP	53	240	6
TAP	53	288	6
TAP	53	288	7
XTP	54	0	0
XTP	54	0	7
XTP	54	72	0
XTP	54	72	7
XTP	54	144	0
XST	54	144	7
SUL	54	144	7	96	96	3
TAP	55	0	2
TAP	55	48	2
TAP	55	96	2
TAP	55	96	3
TAP	55	192	5
TAP	55	240	5
TAP	55	288	4
TAP	55	288	5
TAP	56	0	2
TAP	56	48	2
TAP	56	96	3
TAP	56	144	3
TAP	56	192	4
TAP	56	240	4
TAP	56	288	3
TAP	56	288	5
TAP	57	0	6
TAP	57	48	6
TAP	57	96	6
TAP	57	96	7
TAP	57	192	1
TAP	57	240	1
TAP	57	288	0
TAP	57	288	1
TAP	58	0	6
TAP	58	0	7
TAP	58	96	0
TAP	58	96	1
TAP	58	192	0
TAP	58	192	7
TAP	58	240	0
TAP	58	240	7
BRK	58	288	1
BRK	58	288	6
TAP	59	0	1
TAP	59	48	1
TAP	59	96	0
TAP	59	96	1
TAP	59	192	6
TAP	59	240	6
TAP	59	288	6
TAP	59	288	7
TAP	60	0	1
TAP	60	48	1
TAP	60	96	0
TAP	60	144	0
TAP	60	192	7
TAP	60	240	7
TAP	60	288	0
TAP	60	288	6
TAP	61	0	5
TAP	61	48	5
TAP	61	96	4
TAP	61	96	5
TAP	61	192	2
TAP	61	240	2
TAP	61	288	2
TAP	61	288	3
XTP	62	0	3
XTP	62	0	4
XTP	62	72	3
XTP	62	72	4
XST	62	144	3
SUL	62	144	3	96	96	7
XTP	62	144	4
TAP	63	0	6
TAP	63	48	6
TAP	63	96	6
TAP	63	96	7
TAP	63	192	1
TAP	63	240	1
TAP	63	288	0
TAP	63	288	1
TAP	64	0	6
TAP	64	48	6
TAP	64	96	7
TAP	64	144	7
TAP	64	192	0
TAP	64	240	0
TAP	64	288	1
TAP	64	288	7
TAP	65	0	2
TAP	65	48	2
TAP	65	96	2
TAP	65	96	3
TAP	65	192	5
TAP	65	240	5
TAP	65	288	4
TAP	65	288	5
TAP	66	0	2
TAP	66	0	3
TAP	66	96	4
TAP	66	96	5
HLD	66	192	1	96
HLD	66	192	6	96
TTP	67	0	0	C	1	L1

T_REC_TAP	227
T_REC_BRK	10
T_REC_XTP	30
T_REC_HLD	23
T_REC_XHO	1
T_REC_STR	17
T_REC_BST	0
T_REC_XST	2
T_REC_TTP	49
T_REC_THO	1
T_REC_SLD	19
T_REC_ALL	379
T_NUM_TAP	325
T_NUM_BRK	10
T_NUM_HLD	25
T_NUM_SLD	19
T_NUM_ALL	379
T_JUDGE_TAP	335
T_JUDGE_HLD	148
T_JUDGE_SLD	19
T_JUDGE_ALL	502
TTM_EACHPAIRS	81
TTM_SCR_TAP	162500
TTM_SCR_BRK	26000
TTM_SCR_HLD	25000
TTM_SCR_SLD	28500
TTM_SCR_ALL	242000
TTM_SCR_S	233800
TTM_SCR_SS	241000
TTM_RAT_ACV	10041

