VERSION	0.00.00	1.03.00
FES_MODE	0
BPM_DEF	110.000	110.000	110.000	110.000
MET_DEF	4	4
RESOLUTION	384
CLK_DEF	384
COMPATIBLE_CODE	MA2

BPM	0	0	110.000
MET	0	0	4	4

TAP	5	0	0
TAP	6	0	0
TAP	7	0	7
XHO	8	0	7	384
TAP	10	0	0
TAP	10	192	0
TAP	11	0	0
TAP	12	0	1
TAP	12	192	1
TAP	13	0	1
TAP	14	0	2
TAP	14	192	2
TAP	15	0	2
TAP	16	0	3
TAP	16	192	3
XHO	17	0	3	416
HLD	19	0	4	384
HLD	21	0	5	384
TAP	23	0	6
TAP	23	192	6
TAP	24	0	6
TAP	25	0	7
TAP	25	192	7
XTP	26	0	0
XTP	26	0	7
BRK	27	0	7
TAP	27	96	7
TAP	27	192	7
TAP	28	0	6
TAP	28	192	6
TAP	29	0	5
TAP	29	96	5
TAP	29	192	5
TAP	30	0	3
TAP	30	0	4
TAP	30	192	3
TAP	30	192	4
TAP	31	0	3
TAP	31	96	3
TAP	31	192	3
TAP	32	0	2
TAP	32	192	2
TAP	33	0	1
TAP	33	96	1
TAP	33	192	1
TAP	34	0	0
TAP	34	0	7
XTP	34	192	0
XTP	34	192	7
TAP	35	0	0
TAP	35	96	0
TAP	35	192	0
TAP	36	0	0
TAP	36	0	1
TAP	36	192	0
TAP	36	192	1
TAP	37	0	2
TAP	37	96	2
TAP	37	192	2
TAP	38	0	2
TAP	38	0	3
TAP	38	192	2
TAP	38	192	3
TAP	39	0	4
TAP	39	96	4
TAP	39	192	4
TAP	40	0	4
TAP	40	0	5
TAP	40	192	4
TAP	40	192	5
TAP	41	0	6
TAP	41	96	6
TAP	41	192	6
TAP	42	0	0
TAP	42	0	7
XTP	42	192	0
XTP	42	192	7
STR	43	0	7
SI_	43	0	7	96	288	4
STR	45	0	0
SI_	45	0	0	96	288	3
STR	47	0	7
SI_	47	0	7	96	288	3
STR	49	0	0
SI_	49	0	0	96	288	4
TAP	51	0	7
TAP	51	96	7
TAP	51	192	7
TAP	52	0	6
TAP	52	96	6
TAP	52	192	6
TAP	53	0	5
TAP	53	96	5
TAP	53	192	5
HLD	54	0	3	192
HLD	54	0	4	192
TAP	55	0	3
TAP	55	96	3
TAP	55	192	3
TAP	56	0	2
TAP	56	96	2
TAP	56	192	2
TAP	57	0	1
TAP	57	96	1
TAP	57	192	1
TAP	58	0	0
TAP	58	0	7
XTP	58	192	0
XTP	58	192	7
TAP	59	0	1
TAP	59	96	1
TAP	59	192	0
TAP	59	192	1
TAP	60	0	2
TAP	60	96	2
TAP	60	192	2
TAP	60	192	3
TAP	61	0	5
TAP	61	96	5
TAP	61	192	4
TAP	61	192	5
HLD	62	0	3	192
HLD	62	0	4	192
TTP	63	0	5	E	0	L1
TTP	63	192	6	E	0	L1
TTP	64	0	7	E	0	L1
TTP	64	192	0	E	0	L1
TTP	65	0	1	E	0	L1
TTP	65	192	2	E	0	L1
TTP	66	0	3	E	0	L1
THO	66	192	0	192	C	1	L1

T_REC_TAP	98
T_REC_BRK	1
T_REC_XTP	8
T_REC_HLD	6
T_REC_XHO	2
T_REC_STR	4
T_REC_BST	0
T_REC_XST	0
T_REC_TTP	7
T_REC_THO	1
T_REC_SLD	4
T_REC_ALL	131
T_NUM_TAP	117
T_NUM_BRK	1
T_NUM_HLD	9
T_NUM_SLD	4
T_NUM_ALL	131
T_JUDGE_TAP	118
T_JUDGE_HLD	106
T_JUDGE_SLD	4
T_JUDGE_ALL	228
TTM_EACHPAIRS	20
TTM_SCR_TAP	58500
TTM_SCR_BRK	2600
TTM_SCR_HLD	9000
TTM_SCR_SLD	6000
TTM_SCR_ALL	76100
TTM_SCR_S	73750
TTM_SCR_SS	76000
TTM_RAT_ACV	10013

