VERSION	0.00.00	1.03.00
FES_MODE	0
BPM_DEF	160.000	160.000	160.000	160.000
MET_DEF	4	4
RESOLUTION	384
CLK_DEF	384
COMPATIBLE_CODE	MA2

BPM	0	0	160.000
MET	0	0	4	4

STR	1	0	2
SI_	1	0	2	96	48	0
TAP	1	0	4
TAP	1	96	2
STR	1	96	5
SI_	1	96	5	96	48	7
STR	1	192	2
SI_	1	192	2	96	48	0
TAP	1	192	5
TAP	1	288	2
STR	1	288	5
SI_	1	288	5	96	48	7
STR	2	0	2
SI_	2	0	2	96	48	0
TAP	2	0	5
TAP	2	96	2
TAP	2	96	5
XTP	2	144	4
TAP	2	192	2
TAP	2	192	5
XTP	2	240	3
STR	2	288	2
SCL	2	288	2	96	48	0
STR	2	288	5
SCR	2	288	5	96	48	7
XTP	3	0	2
XTP	3	0	5
TAP	3	96	3
STR	3	96	5
SI_	3	96	5	96	48	7
STR	3	192	2
SI_	3	192	2	96	48	0
TAP	3	192	5
TAP	3	288	2
STR	3	288	5
SI_	3	288	5	96	48	7
STR	4	0	2
SI_	4	0	2	96	48	0
TAP	4	0	5
TAP	4	96	2
TAP	4	96	5
XTP	4	144	4
TAP	4	192	2
TAP	4	192	5
XTP	4	240	3
STR	4	288	2
SCL	4	288	2	96	48	0
STR	4	288	5
SCR	4	288	5	96	48	7
XTP	5	0	2
XTP	5	0	5
STR	5	96	2
SI_	5	96	2	96	48	0
TAP	5	96	4
TAP	5	192	2
STR	5	192	5
SI_	5	192	5	96	48	7
STR	5	288	2
SI_	5	288	2	96	48	0
TAP	5	288	5
TAP	6	0	2
STR	6	0	5
SI_	6	0	5	96	48	7
TAP	6	96	2
TAP	6	96	5
XTP	6	144	3
TAP	6	192	2
TAP	6	192	5
XTP	6	240	4
STR	6	288	2
SCL	6	288	2	96	48	0
STR	6	288	5
SCR	6	288	5	96	48	7
XTP	7	0	2
XTP	7	0	5
TAP	7	96	3
STR	7	96	5
SCR	7	96	5	96	48	7
TAP	7	192	2
TAP	7	192	5
TAP	7	288	2
TAP	7	288	4
TAP	8	0	5
TAP	8	24	5
TAP	8	48	3
TAP	8	72	3
TAP	8	96	4
TAP	8	120	4
TAP	8	144	2
TAP	8	192	3
STR	8	192	5
SI_	8	192	5	96	48	1
TAP	8	240	3
TAP	8	240	5
TTP	8	300	5	B	0	M1
TTP	8	312	0	C	1	M1
TTP	8	324	1	B	0	M1
XTP	9	0	0
XTP	9	48	0
TAP	9	96	7
TAP	9	144	7
TAP	9	192	4
TAP	9	192	6
TAP	9	240	3
TAP	9	240	4
TAP	9	288	1
TAP	9	288	3
TAP	9	336	0
TAP	10	0	7
TAP	10	48	6
TAP	10	96	0
TAP	10	144	0
TAP	10	192	1
TAP	10	192	3
TAP	10	240	3
TAP	10	240	4
TAP	10	288	4
TAP	10	288	6
TAP	10	336	0
TAP	10	336	7
STR	11	0	6
SCL	11	0	6	96	48	3
TAP	11	48	6
STR	11	96	7
SV_	11	96	7	96	48	2
TAP	11	144	7
STR	11	192	6
SCL	11	192	6	96	48	3
TAP	11	240	6
STR	11	288	7
SV_	11	288	7	96	48	2
TAP	11	336	7
STR	12	0	6
SCL	12	0	6	96	48	3
TAP	12	48	6
STR	12	96	7
SV_	12	96	7	96	48	2
TAP	12	144	7
TAP	12	192	6
TAP	12	240	6
BRK	12	288	0
STR	13	0	4
SI_	13	0	4	96	48	7
TAP	13	48	4
STR	13	96	3
SI_	13	96	3	96	48	0
TAP	13	144	3
STR	13	192	4
SI_	13	192	4	96	48	7
TAP	13	240	4
STR	13	288	3
SI_	13	288	3	96	48	0
TAP	13	336	3
STR	14	0	4
SI_	14	0	4	96	48	7
TAP	14	48	5
STR	14	96	3
SI_	14	96	3	96	48	0
TAP	14	144	2
STR	14	192	4
SI_	14	192	4	96	48	7
TAP	14	240	5
TAP	14	288	2
TAP	14	336	1
STR	15	0	0
SI_	15	0	0	96	48	4
STR	15	48	7
SI_	15	48	7	96	48	3
STR	15	96	0
SI_	15	96	0	96	48	2
STR	15	144	7
SI_	15	144	7	96	48	5
TAP	15	192	0
TAP	15	240	7
TAP	15	288	0
TAP	15	336	6
BRK	16	0	3
BRK	16	0	4
BRK	16	48	3
BRK	16	48	4
BST	16	96	3
SLR	16	96	3	96	48	7
BST	16	96	4
SLL	16	96	4	96	48	0
BRK	16	144	3
BRK	16	144	4
XTP	16	288	1
XTP	16	288	6
TAP	17	0	1
TAP	17	0	6
TAP	17	96	0
TAP	17	144	6
TAP	17	168	4
TAP	17	192	5
TAP	17	240	2
TAP	17	264	3
TAP	17	288	1
TAP	17	336	5
TAP	17	360	4
TAP	18	0	7
TAP	18	48	2
TAP	18	72	3
TAP	18	96	0
TAP	18	144	5
TAP	18	168	4
TAP	18	192	6
XTP	18	240	2
XTP	18	256	3
XTP	18	272	4
XST	18	288	5
SUL	18	288	5	96	48	1
TAP	19	0	7
TAP	19	96	0
TAP	19	96	6
TAP	19	144	2
TAP	19	168	3
TAP	19	192	1
TAP	19	240	5
TAP	19	264	4
TAP	19	288	6
TAP	19	336	2
TAP	19	360	3
TAP	20	0	2
TAP	20	48	6
TAP	20	72	7
TAP	20	96	6
TAP	20	144	5
TAP	20	168	4
HLD	20	192	6	48
HLD	20	240	4	48
HLD	20	288	3	48
TAP	20	336	1
TAP	21	0	0
TAP	21	96	7
TAP	21	144	1
TAP	21	168	3
TAP	21	192	2
TAP	21	240	5
TAP	21	264	4
TAP	21	288	6
TAP	21	336	2
TAP	21	360	3
TAP	22	0	0
TAP	22	48	5
TAP	22	72	4
TAP	22	96	7
TAP	22	144	2
TAP	22	168	3
TAP	22	192	1
XTP	22	240	5
XTP	22	256	4
XTP	22	272	3
XST	22	288	2
SUR	22	288	2	96	48	6
TAP	23	0	0
TAP	23	96	1
TAP	23	96	7
TAP	23	144	5
TAP	23	168	4
TAP	23	192	6
TAP	23	240	2
TAP	23	264	3
TAP	23	288	1
TAP	23	336	5
HLD	23	360	4	120
TAP	24	0	5
TAP	24	48	6
TAP	24	96	6
TAP	24	144	5
TAP	24	168	4
TAP	24	216	2
TAP	24	240	3
TAP	24	288	1
TAP	24	288	4
TAP	25	0	5
TAP	25	0	7
TAP	25	72	1
TAP	25	72	3
TAP	25	144	0
TAP	25	144	4
STR	25	192	5
SI_	25	192	5	96	48	7
STR	25	240	5
SLL	25	240	5	96	48	1
TAP	25	288	5
STR	26	0	6
SXR	26	0	6	96	96	6
TAP	26	48	6
STR	26	96	0
SXR	26	96	0	96	144	3
TAP	26	144	0
TAP	26	288	4
TAP	26	336	4
HLD	27	0	4	96
STR	27	96	3
SI_	27	96	3	96	48	1
STR	27	144	3
SLR	27	144	3	96	96	7
STR	27	288	1
SI_	27	288	1	96	48	5
TAP	27	336	1
STR	28	0	7
SLL	28	0	7	96	48	3
TAP	28	48	7
TAP	28	192	0
TTP	28	240	6	B	0	M1
TTP	28	264	0	C	0	M1
TTP	28	288	2	B	0	M1
TAP	28	336	7
TAP	29	0	0
TAP	29	0	7
TAP	29	48	6
TAP	29	72	4
TAP	29	96	5
TAP	29	144	1
HLD	29	168	3	168
TAP	29	192	2
TAP	29	240	1
TAP	29	264	1
TAP	29	312	0
TAP	29	336	0
TAP	30	0	4
TAP	30	48	1
TAP	30	72	3
TAP	30	96	2
TAP	30	144	6
HLD	30	168	4	168
TAP	30	192	5
TAP	30	240	6
TAP	30	264	6
TAP	30	312	7
TAP	30	336	7
TAP	31	0	3
TAP	31	48	2
TAP	31	48	4
TAP	31	96	1
TAP	31	96	5
TAP	31	144	0
TAP	31	144	6
TAP	31	192	4
TAP	31	240	3
TAP	31	240	5
TAP	31	288	2
TAP	31	288	6
BRK	31	336	7
TAP	32	0	1
TAP	32	0	6
TAP	32	48	2
TAP	32	48	5
STR	32	96	0
SI_	32	96	0	96	48	5
STR	32	96	7
SI_	32	96	7	96	48	2
STR	32	144	2
SCR	32	144	2	96	96	7
STR	32	144	5
SCL	32	144	5	96	96	0
HLD	33	0	2	96
BRK	33	96	7
TAP	33	108	6
TAP	33	120	5
TAP	33	132	4
HLD	33	192	5	96
BRK	33	288	0
TAP	33	300	1
TAP	33	312	2
TAP	33	324	3
TAP	34	0	1
TAP	34	0	6
TAP	34	96	3
TAP	34	96	4
TAP	34	144	1
TAP	34	144	6
TAP	34	192	2
TAP	34	192	5
BRK	34	288	0
BRK	34	288	7
TAP	34	300	1
TAP	34	300	6
TAP	34	312	2
TAP	34	312	5
TAP	34	324	3
TAP	34	324	4
TAP	35	0	1
TAP	35	0	3
TAP	35	48	5
STR	35	96	5
SI_	35	96	5	96	48	2
STR	35	96	6
SI_	35	96	6	96	48	1
TTP	35	204	6	E	0	M1
TTP	35	216	0	C	1	M1
TTP	35	228	2	E	0	M1
XTP	35	288	0
TAP	36	0	7
TAP	36	48	7
TAP	36	96	0
TAP	36	144	0
TAP	36	192	1
TAP	36	192	3
TAP	36	240	3
TAP	36	240	4
TAP	36	288	4
HLD	36	288	6	768
TAP	37	0	0
TTP	37	96	7	B	0	M1
TTP	37	108	6	B	0	M1
TTP	37	120	6	E	0	M1
TTP	37	192	2	E	0	M1
TTP	37	204	2	B	0	M1
TTP	37	216	3	B	0	M1
TTP	37	288	0	E	0	M1
TTP	37	300	7	B	0	M1
TTP	37	312	6	B	0	M1
TTP	38	0	4	E	0	M1
TTP	38	12	2	B	0	M1
TTP	38	24	3	B	0	M1
TTP	38	96	7	B	0	M1
TTP	38	108	6	B	0	M1
TTP	38	120	6	E	0	M1
TTP	38	192	2	E	0	M1
TTP	38	204	2	B	0	M1
TTP	38	216	3	B	0	M1
TTP	38	288	0	E	0	M1
TTP	38	300	7	B	0	M1
TTP	38	312	6	B	0	M1
TAP	39	0	0
TAP	39	48	0
TAP	39	96	1
TAP	39	96	7
TAP	39	144	2
TAP	39	144	6
STR	39	192	1
SCR	39	192	1	96	48	4
STR	39	192	7
SCL	39	192	7	96	48	4
TAP	39	240	2
TAP	39	240	6
TAP	39	288	1
TAP	39	288	7
TAP	40	0	7
TAP	40	48	7
TAP	40	96	0
TAP	40	96	6
TAP	40	144	1
TAP	40	144	5
STR	40	192	0
SCR	40	192	0	96	48	3
STR	40	192	6
SCL	40	192	6	96	48	3
TAP	40	240	1
TAP	40	240	5
TAP	40	288	0
TAP	40	288	6
TAP	41	0	2
STR	41	0	3
SI_	41	0	3	96	480	0
TAP	41	48	2
TAP	41	96	2
TAP	41	144	2
TAP	41	192	1
TAP	41	240	1
TAP	41	288	1
TAP	41	336	1
TAP	42	0	2
TAP	42	48	2
TAP	42	96	2
TAP	42	144	2
HLD	42	192	1	96
BRK	42	288	3
STR	43	0	4
SI_	43	0	4	96	480	7
TAP	43	0	5
TAP	43	48	5
TAP	43	96	5
TAP	43	144	5
TAP	43	192	6
TAP	43	240	6
TAP	43	288	6
TAP	43	336	6
TAP	44	0	5
TAP	44	48	5
TAP	44	96	5
TAP	44	144	5
HLD	44	192	6	96
TTP	44	288	0	C	1	M1
TAP	45	0	7
TAP	45	48	7
TAP	45	96	6
TAP	45	144	6
TAP	45	192	5
TAP	45	240	5
TAP	45	288	4
TAP	45	336	4
TAP	46	0	3
TAP	46	48	3
TAP	46	96	2
TAP	46	144	2
TAP	46	192	1
TAP	46	240	1
TAP	46	288	0
TAP	46	336	0
TAP	47	0	1
TAP	47	24	1
TAP	47	48	2
TAP	47	72	2
TAP	47	96	3
TAP	47	120	3
TAP	47	144	4
TAP	47	168	4
TAP	47	192	5
TAP	47	216	5
TAP	47	240	6
TAP	47	264	6
TAP	47	288	7
TAP	47	312	7
TAP	47	336	0
TAP	47	360	0
TAP	48	0	7
TAP	48	12	6
TAP	48	24	5
TAP	48	36	4
TAP	48	48	3
TAP	48	60	2
TAP	48	72	1
TAP	48	84	0
TAP	48	96	7
TAP	48	108	6
TAP	48	120	5
TAP	48	132	4
TAP	48	144	3
TAP	48	156	2
TAP	48	168	1
TAP	48	180	0
TAP	48	192	7
TAP	48	204	6
TAP	48	216	5
TAP	48	228	4
TAP	48	240	3
TAP	48	252	2
TAP	48	264	1
TAP	48	276	0
XST	48	288	7
SCR	48	288	7	96	48	2
XST	48	300	6
SV_	48	300	6	96	36	3
XTP	48	312	5
XTP	48	324	4
XTP	48	336	3
BRK	49	0	6
BRK	49	0	7
TTP	49	12	0	E	0	M1
TTP	49	24	0	C	1	M1
TTP	49	24	1	E	0	M1
TTP	49	36	2	E	0	M1
TAP	50	0	2
TAP	50	24	2
TAP	50	48	3
TAP	50	96	1
TAP	50	96	4
TAP	50	144	5
TAP	50	168	5
STR	50	192	4
SI_	50	192	4	96	48	1
SI_	50	192	4	96	48	7
TAP	50	240	3
TAP	50	240	6
XTP	50	288	4
STR	51	0	1
SCR	51	0	1	96	48	4
TAP	51	72	5
STR	51	96	1
SXL	51	96	1	96	96	1
XTP	51	96	5
TAP	51	144	6
TAP	51	192	7
TAP	51	240	7
XTP	51	288	7
STR	52	0	4
SCL	52	0	4	96	48	1
TAP	52	72	5
STR	52	96	4
SXR	52	96	4	96	96	4
XTP	52	96	5
TAP	52	144	6
TAP	52	192	7
TAP	52	240	7
XTP	52	288	7
STR	53	0	0
SCR	53	0	0	96	48	3
TAP	53	72	5
STR	53	96	0
SXL	53	96	0	96	96	0
XTP	53	96	5
TAP	53	144	6
TAP	53	192	7
TAP	53	240	7
XTP	53	288	7
TAP	54	0	2
TAP	54	0	6
TAP	54	72	3
TAP	54	72	7
XTP	54	96	3
XTP	54	96	7
TAP	54	144	2
TAP	54	144	6
TAP	54	192	2
TAP	54	192	6
TAP	54	240	1
TAP	54	240	5
TAP	54	288	1
TAP	54	288	5
TAP	54	336	0
TAP	54	336	4
XST	55	0	3
SCR	55	0	3	96	96	7
XST	55	0	7
SCR	55	0	7	96	96	3
XST	55	96	3
SLR	55	96	3	96	96	2
XST	55	96	7
SLR	55	96	7	96	96	6
STR	56	0	6
SCL	56	0	6	96	48	3
TAP	56	72	2
XTP	56	96	2
STR	56	96	6
SXR	56	96	6	96	96	6
TAP	56	144	1
TAP	56	192	0
TAP	56	240	0
XTP	56	288	0
STR	57	0	3
SCR	57	0	3	96	48	6
TAP	57	72	2
XTP	57	96	2
STR	57	96	3
SXL	57	96	3	96	96	3
TAP	57	144	1
TAP	57	192	0
TAP	57	240	0
XTP	57	288	0
STR	58	0	7
SCL	58	0	7	96	48	4
TAP	58	72	0
XTP	58	96	0
STR	58	96	7
SXR	58	96	7	96	96	7
TAP	58	144	1
TAP	58	192	2
TAP	58	240	2
BRK	58	288	2
XHO	59	0	3	48
XHO	59	0	7	48
XTP	59	64	2
XTP	59	64	6
XTP	59	80	1
XTP	59	80	5
XHO	59	96	0	48
XHO	59	96	4	48
XTP	59	160	1
XTP	59	160	5
XTP	59	176	2
XTP	59	176	6
XHO	59	192	3	48
XHO	59	192	7	48
XTP	59	256	2
XTP	59	256	6
XTP	59	272	1
XTP	59	272	5
XHO	59	288	0	48
XHO	59	288	4	48
XTP	59	352	1
XTP	59	352	5
XTP	59	368	2
XTP	59	368	6
XHO	60	0	3	48
XHO	60	0	7	48
XTP	60	64	2
XTP	60	64	6
XTP	60	80	1
XTP	60	80	5
XHO	60	96	0	48
XHO	60	96	4	48
XTP	60	160	1
XTP	60	160	5
XTP	60	176	2
XTP	60	176	6
XHO	60	192	3	48
XHO	60	192	7	48
XTP	60	256	2
XTP	60	256	6
XTP	60	272	1
XTP	60	272	5
XHO	60	288	0	48
XHO	60	288	4	48
XTP	60	352	1
XTP	60	352	5
XTP	60	368	2
XTP	60	368	6
XHO	61	0	3	48
XHO	61	0	7	48
XTP	61	64	2
XTP	61	64	6
XTP	61	80	1
XTP	61	80	5
XHO	61	96	0	48
XHO	61	96	4	48
XTP	61	160	1
XTP	61	160	5
XTP	61	176	2
XTP	61	176	6
XHO	61	192	3	48
XHO	61	192	7	48
XTP	61	256	2
XTP	61	256	6
XTP	61	272	1
XTP	61	272	5
XHO	61	288	0	48
XHO	61	288	4	48
XTP	61	352	1
XTP	61	352	5
XTP	61	368	2
XTP	61	368	6
XHO	62	0	3	48
XHO	62	0	7	48
XTP	62	64	2
XTP	62	64	6
XTP	62	80	1
XTP	62	80	5
XHO	62	96	0	48
XHO	62	96	4	48
XTP	62	160	1
XTP	62	160	5
XTP	62	176	2
XTP	62	176	6
XHO	62	192	3	48
XHO	62	192	7	48
XTP	62	256	2
XTP	62	256	6
XTP	62	272	1
XTP	62	272	5
XTP	62	288	0
XTP	62	288	4
STR	63	0	1
SCR	63	0	1	96	48	4
STR	63	0	5
SI_	63	0	5	96	48	7
STR	63	96	1
SXL	63	96	1	96	96	1
XTP	63	96	5
STR	63	192	5
SI_	63	192	5	96	48	7
XTP	63	288	5
STR	64	0	4
SCL	64	0	4	96	48	1
STR	64	0	5
SI_	64	0	5	96	48	7
STR	64	96	4
SXR	64	96	4	96	96	4
XTP	64	96	5
STR	64	192	5
SI_	64	192	5	96	48	7
XTP	64	288	5
STR	65	0	2
SI_	65	0	2	96	48	0
STR	65	0	6
SCL	65	0	6	96	48	3
XTP	65	96	2
STR	65	96	6
SXR	65	96	6	96	96	6
STR	65	192	2
SI_	65	192	2	96	48	0
XTP	65	288	2
STR	66	0	2
SI_	66	0	2	96	48	0
STR	66	0	3
SCR	66	0	3	96	48	6
XTP	66	96	2
STR	66	96	3
SXL	66	96	3	96	96	3
STR	66	192	2
SI_	66	192	2	96	48	0
XTP	66	288	2
HLD	67	0	5	96
TAP	67	96	0
STR	67	144	0
SI_	67	144	0	96	48	2
STR	67	192	4
SI_	67	192	4	96	48	6
TAP	67	240	0
TAP	67	288	4
HLD	68	0	0	96
TAP	68	96	7
STR	68	144	7
SI_	68	144	7	96	48	5
STR	68	192	3
SI_	68	192	3	96	48	1
TAP	68	240	7
TAP	68	288	3
XTP	68	336	4
XHO	69	0	4	96
TAP	69	96	3
STR	69	144	3
SI_	69	144	3	96	48	1
STR	69	192	7
SI_	69	192	7	96	48	5
TAP	69	240	3
TAP	69	288	7
XHO	70	0	3	96
TAP	70	96	4
STR	70	144	4
SI_	70	144	4	96	48	6
STR	70	192	0
SI_	70	192	0	96	48	2
TAP	70	240	4
TAP	70	288	0
XTP	70	336	7
XHO	71	0	7	96
TAP	71	96	2
STR	71	144	2
SI_	71	144	2	96	48	4
STR	71	192	6
SI_	71	192	6	96	48	0
TAP	71	240	2
TAP	71	288	6
HLD	72	0	2	96
TAP	72	96	5
STR	72	144	5
SI_	72	144	5	96	48	3
STR	72	192	1
SI_	72	192	1	96	48	7
TAP	72	240	5
TAP	72	288	1
XTP	72	336	2
XTP	73	0	2
TAP	73	96	3
TAP	73	96	5
TAP	73	144	4
TAP	73	192	4
TAP	73	240	3
TAP	73	288	2
TAP	73	288	5
XTP	74	0	0
TAP	74	24	7
TAP	74	48	0
TAP	74	72	7
XTP	74	96	1
TAP	74	120	7
TAP	74	144	2
TAP	74	168	7
XST	74	192	3
SI_	74	192	3	96	48	0
TAP	74	216	7
TAP	74	240	3
TAP	74	264	7
XTP	74	288	3

T_REC_TAP	420
T_REC_BRK	16
T_REC_XTP	117
T_REC_HLD	15
T_REC_XHO	33
T_REC_STR	99
T_REC_BST	2
T_REC_XST	9
T_REC_TTP	35
T_REC_THO	0
T_REC_SLD	111
T_REC_ALL	857
T_NUM_TAP	680
T_NUM_BRK	18
T_NUM_HLD	48
T_NUM_SLD	111
T_NUM_ALL	857
T_JUDGE_TAP	698
T_JUDGE_HLD	82
T_JUDGE_SLD	111
T_JUDGE_ALL	891
TTM_EACHPAIRS	159
TTM_SCR_TAP	340000
TTM_SCR_BRK	46800
TTM_SCR_HLD	48000
TTM_SCR_SLD	166500
TTM_SCR_ALL	601300
TTM_SCR_S	581550
TTM_SCR_SS	599500
TTM_RAT_ACV	10030

