VERSION	0.00.00	1.03.00
FES_MODE	0
BPM_DEF	160.000	160.000	160.000	160.000
MET_DEF	4	4
RESOLUTION	384
CLK_DEF	384
COMPATIBLE_CODE	MA2

BPM	0	0	160.000
MET	0	0	4	4

TAP	1	0	2
TAP	1	0	5
TAP	1	96	2
TAP	1	96	5
TAP	1	192	2
TAP	1	192	5
TAP	1	288	2
TAP	1	288	5
TAP	2	0	2
TAP	2	0	5
TAP	2	96	2
TAP	2	96	5
XTP	2	144	3
XTP	2	144	4
TAP	2	192	2
TAP	2	192	5
XTP	2	240	3
XTP	2	240	4
TAP	2	288	2
TAP	2	288	5
BRK	3	0	2
BRK	3	0	5
TAP	3	96	1
TAP	3	96	6
TAP	3	192	1
TAP	3	192	6
TAP	3	288	1
TAP	3	288	6
TAP	4	0	1
TAP	4	0	6
TAP	4	96	1
TAP	4	96	6
XTP	4	144	2
XTP	4	144	5
TAP	4	192	1
TAP	4	192	6
XTP	4	240	2
XTP	4	240	5
TAP	4	288	1
TAP	4	288	6
BRK	5	0	1
BRK	5	0	6
TAP	5	96	0
TAP	5	96	7
TAP	5	192	0
TAP	5	192	7
TAP	5	288	0
TAP	5	288	7
TAP	6	0	0
TAP	6	0	7
TAP	6	96	0
TAP	6	96	7
XTP	6	144	1
XTP	6	144	6
TAP	6	192	0
TAP	6	192	7
XTP	6	240	1
XTP	6	240	6
TAP	6	288	0
TAP	6	288	7
BRK	7	0	0
BRK	7	0	7
TAP	7	96	0
TAP	7	96	7
TAP	7	192	1
TAP	7	192	6
TAP	7	288	1
TAP	7	288	6
TTP	8	0	0	E	0	M1
TTP	8	96	1	E	0	M1
TTP	8	96	7	E	0	M1
TTP	8	192	0	C	0	M1
TTP	8	192	2	E	0	M1
TTP	8	192	6	E	0	M1
TTP	8	288	3	B	0	M1
TTP	8	288	3	E	0	M1
TTP	8	288	4	B	0	M1
TTP	8	288	5	E	0	M1
XTP	9	0	0
XTP	9	96	0
HLD	9	192	1	96
HLD	9	288	2	96
HLD	10	0	3	96
HLD	10	96	4	96
HLD	10	192	5	96
HLD	10	288	6	96
HLD	11	0	7	96
HLD	11	96	0	96
HLD	11	192	1	96
HLD	11	288	2	96
HLD	12	0	3	96
TAP	12	96	4
TAP	12	192	2
TAP	12	192	5
TAP	12	240	2
TAP	12	240	5
TAP	12	288	2
TAP	12	288	5
STR	13	0	3
SI_	13	0	3	96	96	0
STR	13	192	4
SI_	13	192	4	96	96	7
STR	14	0	3
SI_	14	0	3	96	96	0
STR	14	192	4
SI_	14	192	4	96	96	7
STR	15	0	0
SI_	15	0	0	96	96	3
TAP	15	48	0
STR	15	192	7
SI_	15	192	7	96	96	4
TAP	15	240	7
TAP	16	0	3
TAP	16	48	3
TAP	16	96	3
TAP	16	144	3
HLD	16	192	3	96
TTP	16	288	4	E	0	M1
HLD	17	0	5	96
TAP	17	96	2
TAP	17	144	2
TAP	17	192	4
TAP	17	240	4
TAP	17	288	3
TAP	17	336	3
TAP	18	0	5
TAP	18	48	5
TAP	18	96	4
TAP	18	144	6
TAP	18	192	3
TAP	18	240	5
TAP	18	288	1
TAP	18	288	4
HLD	19	0	2	96
TAP	19	96	5
TAP	19	144	5
TAP	19	192	3
TAP	19	240	3
TAP	19	288	4
TAP	19	336	4
TAP	20	0	2
TAP	20	48	2
TAP	20	96	3
TAP	20	144	1
XTP	20	192	7
XTP	20	240	7
XTP	20	288	7
XTP	20	336	7
HLD	21	0	2	96
TAP	21	96	5
TAP	21	144	5
TAP	21	192	3
TAP	21	240	3
TAP	21	288	4
TAP	21	336	4
TAP	22	0	2
TAP	22	48	2
TAP	22	96	3
TAP	22	144	1
TAP	22	192	4
TAP	22	240	2
TAP	22	288	3
TAP	22	288	6
HLD	23	0	5	96
TAP	23	96	2
TAP	23	144	2
TAP	23	192	4
TAP	23	240	4
TAP	23	288	3
TAP	23	336	3
TAP	24	0	5
TAP	24	48	5
TAP	24	96	4
TAP	24	144	6
TAP	24	192	3
TAP	24	240	4
TAP	24	288	2
TAP	24	288	5
XTP	25	0	0
XTP	25	0	7
XTP	25	72	1
XTP	25	72	6
XTP	25	144	2
XTP	25	144	5
XHO	25	192	3	96
XTP	25	192	4
XHO	25	240	4	192
TAP	25	336	3
HLD	26	0	3	192
TAP	26	96	4
HLD	26	144	4	240
TAP	26	240	3
HLD	26	288	3	96
TAP	27	96	2
HLD	27	96	5	96
HLD	27	144	2	192
TAP	27	240	5
HLD	27	288	5	192
TAP	28	0	2
HLD	28	48	2	144
TAP	28	144	5
TAP	28	192	5
TAP	28	240	3
TAP	28	240	4
TAP	28	288	2
TAP	28	288	5
TAP	28	336	1
TAP	28	336	6
TAP	29	0	7
TAP	29	48	7
TAP	29	96	6
TAP	29	144	6
HLD	29	192	3	48
HLD	29	192	5	48
HLD	29	264	2	48
HLD	29	264	4	48
TAP	29	336	1
TAP	29	336	3
TAP	30	0	0
TAP	30	48	0
TAP	30	96	1
TAP	30	144	1
HLD	30	192	2	48
HLD	30	192	4	48
HLD	30	264	3	48
HLD	30	264	5	48
TAP	30	336	4
TAP	30	336	6
TAP	31	0	7
TAP	31	48	7
TAP	31	96	0
TAP	31	144	0
TAP	31	192	1
TAP	31	192	6
TAP	31	240	1
TAP	31	240	6
TAP	31	288	1
TAP	31	288	6
TAP	31	336	1
TAP	31	336	6
XHO	32	0	0	24
XHO	32	48	0	24
XHO	32	96	0	24
XHO	32	144	0	24
STR	32	192	0
SI_	32	192	0	96	48	4
HLD	33	0	6	192
TAP	33	96	4
TAP	33	192	3
TAP	33	240	4
BRK	33	288	5
BRK	33	288	6
TAP	34	0	3
TAP	34	0	4
BRK	34	96	1
BRK	34	96	2
HLD	34	192	0	96
TAP	34	192	3
TAP	34	288	3
TAP	35	0	3
TAP	35	0	4
STR	35	96	5
SI_	35	96	5	96	96	2
STR	35	96	6
SI_	35	96	6	96	96	1
TAP	36	0	0
HLD	36	96	0	192
BRK	36	192	4
BRK	36	288	4
TAP	37	0	4
HLD	37	0	6	768
TAP	37	96	3
TAP	37	192	5
TAP	37	240	4
TAP	37	288	3
TAP	38	0	5
TAP	38	96	3
TAP	38	192	5
TAP	38	240	4
TAP	38	288	3
HLD	39	0	1	768
TAP	39	96	4
TAP	39	192	2
TAP	39	240	3
TAP	39	288	4
TAP	40	0	2
TAP	40	96	4
TAP	40	192	2
TAP	40	240	3
TAP	40	288	4
TTP	41	0	5	E	0	M1
TTP	41	96	3	E	0	M1
TTP	41	96	4	E	0	M1
TTP	41	192	2	E	0	M1
TTP	41	288	1	E	0	M1
TTP	41	288	6	E	0	M1
TAP	42	0	7
TAP	42	48	7
TAP	42	96	0
TAP	42	144	0
HLD	42	192	6	96
TAP	42	288	4
TTP	43	0	3	E	0	M1
TTP	43	96	4	E	0	M1
TTP	43	96	5	E	0	M1
TTP	43	192	6	E	0	M1
TTP	43	288	2	E	0	M1
TTP	43	288	7	E	0	M1
TAP	44	0	0
TAP	44	48	0
TAP	44	96	7
TAP	44	144	7
STR	44	192	1
SI_	44	192	1	96	96	5
TAP	45	0	7
HLD	45	48	7	48
TAP	45	96	0
HLD	45	144	0	48
TAP	45	192	1
HLD	45	240	1	48
TAP	45	288	2
HLD	45	336	2	48
TAP	46	0	3
HLD	46	48	3	48
TAP	46	96	4
HLD	46	144	4	48
TAP	46	192	5
HLD	46	240	5	48
TAP	46	288	6
HLD	46	336	6	48
TAP	47	0	7
TAP	47	48	7
TAP	47	96	7
TAP	47	144	7
TAP	47	192	1
TAP	47	192	6
TAP	47	240	1
TAP	47	240	6
TAP	47	288	1
TAP	47	288	6
TAP	47	336	1
TAP	47	336	6
HLD	48	0	2	24
HLD	48	0	5	24
HLD	48	48	2	24
HLD	48	48	5	24
HLD	48	96	2	24
HLD	48	96	5	24
HLD	48	144	2	24
HLD	48	144	5	24
HLD	48	192	1	24
HLD	48	192	6	24
HLD	48	240	1	24
HLD	48	240	6	24
STR	48	288	0
SI_	48	288	0	96	48	2
STR	48	288	7
SI_	48	288	7	96	48	3
XTP	48	336	0
XTP	48	336	7
TAP	50	0	0
TAP	50	48	0
TAP	50	96	7
TAP	50	144	7
TAP	50	192	1
TAP	50	192	6
TAP	50	240	3
TAP	50	240	4
BRK	50	288	2
BRK	50	288	5
HLD	51	0	7	768
TAP	51	96	2
TAP	51	192	5
TAP	51	288	2
TAP	52	0	6
TAP	52	96	1
TAP	52	192	6
TAP	52	240	4
TAP	52	288	2
HLD	53	0	0	768
TAP	53	96	5
TAP	53	192	2
TAP	53	288	5
TAP	54	0	1
TAP	54	96	6
TAP	54	192	1
TAP	54	240	3
TAP	54	288	5
HLD	55	0	6	768
TAP	55	96	1
TAP	55	192	5
TAP	55	288	1
TAP	56	0	5
TAP	56	96	2
TAP	56	192	7
TAP	56	240	5
TAP	56	288	3
HLD	57	0	1	672
TAP	57	96	6
TAP	57	192	2
TAP	57	288	6
TAP	58	0	2
TAP	58	96	5
TAP	58	192	0
TAP	58	240	2
TAP	58	288	4
TAP	59	0	2
TAP	59	0	7
TAP	59	96	0
TAP	59	96	5
TAP	59	192	2
TAP	59	192	7
TAP	59	288	0
TAP	59	288	5
TAP	60	0	2
TAP	60	0	7
TAP	60	96	0
TAP	60	96	5
TAP	60	192	2
TAP	60	192	6
TAP	60	288	1
TAP	60	288	5
TAP	61	0	2
TAP	61	0	7
TAP	61	96	0
TAP	61	96	5
TAP	61	192	2
TAP	61	192	7
TAP	61	288	0
TAP	61	288	5
TAP	62	0	2
TAP	62	0	7
TAP	62	96	0
TAP	62	96	5
TAP	62	192	2
TAP	62	192	6
TAP	62	288	1
TAP	62	288	5
TAP	63	0	2
TAP	63	0	7
TAP	63	96	0
TAP	63	96	5
TTP	63	192	3	B	0	M1
TTP	63	192	3	E	0	M1
TTP	63	192	6	B	0	M1
TTP	63	192	7	E	0	M1
TTP	63	288	1	B	0	M1
TTP	63	288	1	E	0	M1
TTP	63	288	4	B	0	M1
TTP	63	288	5	E	0	M1
TAP	64	0	2
TAP	64	0	7
TAP	64	96	0
TAP	64	96	5
TTP	64	192	3	B	0	M1
TTP	64	192	3	E	0	M1
TTP	64	192	6	B	0	M1
TTP	64	192	7	E	0	M1
TTP	64	288	1	B	0	M1
TTP	64	288	1	E	0	M1
TTP	64	288	4	B	0	M1
TTP	64	288	5	E	0	M1
TAP	65	0	2
TAP	65	0	7
TAP	65	96	0
TAP	65	96	5
TTP	65	192	3	B	0	M1
TTP	65	192	3	E	0	M1
TTP	65	192	6	B	0	M1
TTP	65	192	7	E	0	M1
TTP	65	288	1	B	0	M1
TTP	65	288	1	E	0	M1
TTP	65	288	4	B	0	M1
TTP	65	288	5	E	0	M1
TAP	66	0	2
TAP	66	0	7
TAP	66	96	0
TAP	66	96	5
TAP	66	192	2
TAP	66	192	6
BRK	66	288	1
BRK	66	288	5
HLD	67	0	2	96
TAP	67	0	4
TAP	67	96	5
TAP	67	144	2
HLD	67	144	4	96
TAP	67	240	1
TAP	67	288	2
TAP	67	288	4
TAP	68	0	3
HLD	68	0	5	96
TAP	68	96	2
HLD	68	144	3	96
TAP	68	144	5
TAP	68	240	6
TAP	68	288	3
TAP	68	288	5
TAP	68	336	2
HLD	69	0	1	96
TAP	69	0	4
TAP	69	96	5
TAP	69	144	1
HLD	69	144	4	96
TAP	69	240	0
TAP	69	288	1
TAP	69	288	4
TAP	70	0	2
HLD	70	0	6	96
TAP	70	96	1
HLD	70	144	2	96
TAP	70	144	6
TAP	70	240	7
TAP	70	288	2
TAP	70	288	6
TAP	70	336	1
HLD	71	0	0	96
TAP	71	0	4
TAP	71	96	5
TAP	71	144	0
HLD	71	144	4	96
TAP	71	240	7
TAP	71	288	0
TAP	71	288	4
TAP	72	0	3
HLD	72	0	7	96
TAP	72	96	2
HLD	72	144	3	96
TAP	72	144	7
TAP	72	240	0
TAP	72	288	3
TAP	72	288	7
TAP	72	336	6
HLD	73	0	1	96
TAP	73	0	5
TAP	73	96	6
TAP	73	144	1
HLD	73	144	5	96
TAP	73	240	0
TAP	73	288	1
TAP	73	288	5
TAP	74	0	3
TAP	74	0	4
TAP	74	96	0
TAP	74	96	7
TAP	74	192	1
TAP	74	192	6
TTP	74	288	0	C	0	M1
TTP	74	288	2	B	0	M1
TTP	74	288	3	B	0	M1
TTP	74	288	4	B	0	M1
TTP	74	288	5	B	0	M1

T_REC_TAP	352
T_REC_BRK	16
T_REC_XTP	27
T_REC_HLD	75
T_REC_XHO	6
T_REC_STR	12
T_REC_BST	0
T_REC_XST	0
T_REC_TTP	52
T_REC_THO	0
T_REC_SLD	12
T_REC_ALL	552
T_NUM_TAP	443
T_NUM_BRK	16
T_NUM_HLD	81
T_NUM_SLD	12
T_NUM_ALL	552
T_JUDGE_TAP	459
T_JUDGE_HLD	228
T_JUDGE_SLD	12
T_JUDGE_ALL	699
TTM_EACHPAIRS	130
TTM_SCR_TAP	221500
TTM_SCR_BRK	41600
TTM_SCR_HLD	81000
TTM_SCR_SLD	18000
TTM_SCR_ALL	362100
TTM_SCR_S	349700
TTM_SCR_SS	360500
TTM_RAT_ACV	10044

