VERSION	0.00.00	1.03.00
FES_MODE	0
BPM_DEF	160.000	160.000	160.000	160.000
MET_DEF	4	4
RESOLUTION	384
CLK_DEF	384
COMPATIBLE_CODE	MA2

BPM	0	0	160.000
MET	0	0	4	4

STR	1	0	2
SI_	1	0	2	96	192	7
TAP	2	0	6
TAP	2	96	6
TAP	2	192	6
TAP	2	192	7
STR	3	0	5
SI_	3	0	5	96	192	0
TAP	4	0	1
TAP	4	96	1
TAP	4	192	0
TAP	4	192	1
STR	5	0	1
SI_	5	0	1	96	192	4
TAP	6	0	5
TAP	6	96	5
TAP	6	192	4
TAP	6	192	5
STR	7	0	6
SI_	7	0	6	96	192	3
TAP	8	0	2
TAP	8	96	3
TAP	8	96	4
TAP	8	192	2
TAP	8	192	5
BRK	8	288	1
BRK	8	288	6
TAP	9	0	5
TAP	9	96	5
TAP	9	192	4
TAP	9	288	4
TAP	10	0	3
TAP	10	96	3
TAP	10	192	2
TAP	10	192	4
TAP	11	0	1
TAP	11	96	1
TAP	11	192	0
TAP	11	288	0
TAP	12	0	7
TAP	12	96	0
TAP	12	96	7
XTP	12	192	1
XTP	12	192	6
TAP	13	0	5
TAP	13	96	4
TAP	13	192	3
TAP	13	288	2
TAP	14	0	1
TAP	14	96	0
TAP	14	192	7
TAP	14	288	6
TAP	15	0	5
TAP	15	48	5
TAP	15	96	5
TAP	15	192	4
TAP	15	240	4
TAP	15	288	4
TAP	16	0	3
TAP	16	48	3
TAP	16	96	3
BRK	16	192	2
BRK	16	192	5
TTP	17	0	6	E	0	L1
TTP	17	96	5	B	0	L1
TTP	17	192	4	B	0	L1
TTP	18	0	2	E	0	L1
TTP	18	96	2	B	0	L1
TTP	18	192	3	B	0	L1
TTP	19	0	6	E	0	L1
TTP	19	96	5	B	0	L1
TTP	19	192	4	B	0	L1
TTP	20	0	2	E	0	L1
TTP	20	96	2	B	0	L1
TTP	20	192	0	C	1	L1
TTP	21	0	7	B	0	L1
TTP	21	0	7	E	0	L1
TTP	21	96	5	B	0	L1
TTP	21	96	6	E	0	L1
TTP	21	192	4	B	0	L1
TTP	21	192	5	E	0	L1
TTP	22	0	0	B	0	L1
TTP	22	0	1	E	0	L1
TTP	22	96	2	B	0	L1
TTP	22	96	2	E	0	L1
TTP	22	192	3	B	0	L1
TTP	22	192	3	E	0	L1
XTP	23	0	5
TAP	23	96	5
TAP	23	192	4
TAP	23	192	5
TAP	24	0	2
TAP	24	96	3
TAP	24	96	4
STR	24	192	3
SCL	24	192	3	96	192	0
TAP	24	192	4
HLD	25	192	6	192
TAP	26	0	7
TAP	26	96	0
HLD	26	192	1	192
TAP	27	0	0
TAP	27	96	7
HLD	27	192	6	192
TAP	28	0	7
TAP	28	96	6
TAP	28	96	7
TAP	28	192	0
TAP	28	192	5
TAP	29	0	1
TAP	29	96	0
TAP	29	192	7
TAP	29	288	6
TAP	30	0	5
TAP	30	96	4
TAP	30	192	3
TAP	30	288	2
TAP	31	0	1
TAP	31	48	1
TAP	31	96	1
TAP	31	192	0
TAP	31	240	0
TAP	31	288	0
TAP	32	0	7
TAP	32	48	7
TAP	32	96	7
BRK	32	192	1
BRK	32	192	6
XTP	33	0	2
TAP	33	96	2
TAP	33	192	2
TAP	33	192	3
TAP	33	288	2
TAP	33	288	3
TAP	34	0	1
TAP	34	96	0
TAP	34	192	1
TAP	34	192	7
TAP	35	0	6
TAP	35	96	6
TAP	35	192	6
TAP	35	192	7
TAP	35	288	6
TAP	35	288	7
TAP	36	0	5
TAP	36	96	3
TAP	36	96	4
TAP	36	192	3
TAP	36	192	4
TAP	37	0	5
TAP	37	96	5
TAP	37	192	4
TAP	37	192	5
TAP	37	288	4
TAP	37	288	5
TAP	38	0	6
TAP	38	96	7
TAP	38	192	0
TAP	38	192	6
TAP	39	0	1
TAP	39	96	1
TAP	39	192	0
TAP	39	192	1
TAP	39	288	0
TAP	39	288	1
TAP	40	0	2
TAP	40	96	3
TAP	40	96	4
XTP	40	192	2
XTP	40	192	5
STR	41	0	6
SUL	41	0	6	96	192	2
TAP	42	0	1
TAP	42	96	0
TAP	42	96	1
TAP	42	192	2
TAP	42	192	7
STR	43	0	0
SUR	43	0	0	96	192	4
TAP	44	0	5
TAP	44	96	4
TAP	44	96	5
TAP	44	192	3
TAP	44	192	6
TAP	45	0	2
TAP	45	96	3
TAP	45	192	4
TAP	45	288	5
TAP	46	0	6
TAP	46	96	7
TAP	46	192	0
TAP	46	288	1
TAP	47	0	2
TAP	47	48	2
TAP	47	96	2
TAP	47	192	3
TAP	47	240	3
TAP	47	288	3
TAP	48	0	4
TAP	48	48	4
TAP	48	96	4
TAP	48	192	5
TAP	48	240	5
TAP	48	288	5
TTP	49	0	0	C	1	L1
TTP	49	0	1	B	0	L1
TTP	49	0	6	B	0	L1
XTP	50	0	0
XTP	50	0	7
XTP	50	96	1
XTP	50	96	6
XTP	50	192	2
XTP	50	192	5
BRK	50	288	3
BRK	50	288	4
STR	51	0	5
SCR	51	0	5	96	192	0
STR	52	0	1
SCR	52	0	1	96	192	4
STR	53	0	6
SUL	53	0	6	96	192	2
TAP	54	0	1
TAP	54	96	1
TAP	54	192	0
TAP	54	192	1
STR	55	0	2
SCL	55	0	2	96	192	7
STR	56	0	6
SCL	56	0	6	96	192	3
STR	57	0	1
SUR	57	0	1	96	192	5
TAP	58	0	6
TAP	58	96	0
TAP	58	96	7
BRK	58	192	1
BRK	58	192	6
TAP	59	0	2
XTP	59	96	0
XTP	59	96	1
TAP	59	192	7
XTP	59	288	0
XTP	59	288	1
TAP	60	0	2
XTP	60	96	0
XTP	60	96	1
TAP	60	192	7
XTP	60	288	0
XTP	60	288	6
TAP	61	0	5
XTP	61	96	6
XTP	61	96	7
TAP	61	192	0
XTP	61	288	6
XTP	61	288	7
TAP	62	0	5
XTP	62	96	6
XTP	62	96	7
TAP	62	192	0
XTP	62	288	1
XTP	62	288	6
TAP	63	0	5
XTP	63	96	4
XTP	63	96	5
TAP	63	192	2
XTP	63	288	2
XTP	63	288	3
TAP	64	0	1
XTP	64	96	0
XTP	64	96	1
TAP	64	192	6
XTP	64	288	6
XTP	64	288	7
TAP	65	0	5
XTP	65	96	4
XTP	65	96	5
TAP	65	192	6
XTP	65	288	6
XTP	65	288	7
TAP	66	0	1
XTP	66	96	0
XTP	66	96	1
TAP	66	192	0
TAP	66	192	7
BRK	66	288	1
BRK	66	288	6
HLD	67	0	5	192
HLD	67	192	4	192
HLD	68	0	3	192
TAP	68	192	2
HLD	69	0	1	192
HLD	69	192	0	192
HLD	70	0	7	192
TAP	70	192	6
HLD	71	0	5	96
TAP	71	96	4
TAP	71	192	4
TAP	71	192	5
HLD	72	0	2	96
TAP	72	96	3
TAP	72	192	2
TAP	72	192	3
HLD	73	0	1	96
TAP	73	96	0
TAP	73	192	0
TAP	73	192	1
TAP	74	0	0
TAP	74	0	7
TAP	74	96	0
TAP	74	96	7
TAP	74	192	0
TAP	74	192	7
BRK	74	288	1
BRK	74	288	6

T_REC_TAP	192
T_REC_BRK	14
T_REC_XTP	42
T_REC_HLD	12
T_REC_XHO	0
T_REC_STR	13
T_REC_BST	0
T_REC_XST	0
T_REC_TTP	27
T_REC_THO	0
T_REC_SLD	13
T_REC_ALL	313
T_NUM_TAP	274
T_NUM_BRK	14
T_NUM_HLD	12
T_NUM_SLD	13
T_NUM_ALL	313
T_JUDGE_TAP	288
T_JUDGE_HLD	42
T_JUDGE_SLD	13
T_JUDGE_ALL	343
TTM_EACHPAIRS	65
TTM_SCR_TAP	137000
TTM_SCR_BRK	36400
TTM_SCR_HLD	12000
TTM_SCR_SLD	19500
TTM_SCR_ALL	204900
TTM_SCR_S	197400
TTM_SCR_SS	203500
TTM_RAT_ACV	10068

