VERSION	0.00.00	1.03.00
FES_MODE	0
BPM_DEF	160.000	160.000	160.000	160.000
MET_DEF	4	4
RESOLUTION	384
CLK_DEF	384
COMPATIBLE_CODE	MA2

BPM	0	0	160.000
MET	0	0	4	4

TAP	5	0	0
TAP	6	0	0
TAP	7	0	7
BRK	8	0	7
TAP	9	0	0
TAP	10	0	1
TAP	11	0	2
TAP	12	0	3
TAP	13	0	4
TAP	14	0	5
TAP	15	0	6
XTP	16	0	0
XTP	16	0	7
TAP	17	0	7
TAP	17	192	7
TAP	18	0	7
TAP	19	0	6
TAP	19	192	6
TAP	20	0	6
TAP	21	0	5
TAP	21	192	5
TAP	22	0	5
TAP	23	0	4
TAP	23	192	4
TAP	24	0	3
TAP	24	0	4
HLD	25	0	3	384
HLD	27	0	2	384
HLD	29	0	1	384
HLD	31	0	0	384
HLD	31	0	7	384
STR	33	0	0
SI_	33	0	0	96	288	3
STR	35	0	7
SI_	35	0	7	96	288	4
STR	37	0	0
SI_	37	0	0	96	288	4
STR	39	0	7
SI_	39	0	7	96	288	3
TTP	41	0	3	B	0	L1
TTP	42	0	4	B	0	L1
TTP	43	0	2	B	0	L1
TTP	44	0	5	B	0	L1
TTP	45	0	1	B	0	L1
TTP	46	0	6	B	0	L1
THO	47	0	0	768	C	1	L1
BRK	50	0	0
BRK	50	0	7
TAP	51	0	0
XTP	51	192	0
TAP	52	0	1
TAP	52	96	1
XTP	52	192	1
TAP	53	0	2
XTP	53	192	2
TAP	54	0	3
TAP	54	96	3
XTP	54	192	3
XTP	54	192	4
TAP	55	0	4
XTP	55	192	4
TAP	56	0	5
TAP	56	96	5
XTP	56	192	5
TAP	57	0	6
XTP	57	192	6
TAP	58	0	7
TAP	58	96	7
BRK	58	192	0
BRK	58	192	7
TAP	59	0	7
TAP	59	96	7
TAP	59	192	7
TAP	60	0	6
TAP	60	96	6
TAP	60	192	6
TAP	61	0	5
TAP	61	96	5
TAP	61	192	5
TAP	62	0	4
TAP	62	96	3
TAP	62	192	3
TAP	62	192	4
TAP	63	0	3
TAP	63	96	3
TAP	63	192	3
TAP	64	0	2
TAP	64	96	2
TAP	64	192	2
TAP	65	0	1
TAP	65	96	1
TAP	65	192	1
TAP	66	0	0
TAP	66	96	7
BRK	66	192	0
BRK	66	192	7
HLD	67	0	0	192
TAP	68	0	0
TAP	68	192	0
TAP	68	192	1
HLD	69	0	7	192
TAP	70	0	7
TAP	70	192	6
TAP	70	192	7
HLD	71	0	5	192
TAP	72	0	5
TAP	72	192	4
TAP	72	192	5
HLD	73	0	3	192
HLD	73	0	4	192
TAP	74	0	3
TAP	74	0	4
TAP	74	96	3
TAP	74	96	4
TAP	74	192	3
TAP	74	192	4
XTP	74	288	2
XTP	74	288	5

T_REC_TAP	74
T_REC_BRK	7
T_REC_XTP	12
T_REC_HLD	10
T_REC_XHO	0
T_REC_STR	4
T_REC_BST	0
T_REC_XST	0
T_REC_TTP	6
T_REC_THO	1
T_REC_SLD	4
T_REC_ALL	118
T_NUM_TAP	96
T_NUM_BRK	7
T_NUM_HLD	11
T_NUM_SLD	4
T_NUM_ALL	118
T_JUDGE_TAP	103
T_JUDGE_HLD	76
T_JUDGE_SLD	4
T_JUDGE_ALL	183
TTM_EACHPAIRS	16
TTM_SCR_TAP	48000
TTM_SCR_BRK	18200
TTM_SCR_HLD	11000
TTM_SCR_SLD	6000
TTM_SCR_ALL	83200
TTM_SCR_S	80050
TTM_SCR_SS	82500
TTM_RAT_ACV	10084

