VERSION	0.00.00	1.03.00
FES_MODE	0
BPM_DEF	146.000	146.000	146.000	146.000
MET_DEF	4	4
RESOLUTION	384
CLK_DEF	384
COMPATIBLE_CODE	MA2

BPM	0	0	146.000
MET	0	0	4	4

BRK	1	0	1
BRK	1	0	6
STR	1	96	3
SI_	1	96	3	96	48	0
STR	1	96	4
SI_	1	96	4	96	48	7
TAP	1	144	2
TAP	1	144	5
STR	1	288	5
SI_	1	288	5	96	48	0
TAP	2	0	3
TAP	2	96	4
STR	2	144	4
SI_	2	144	4	96	48	1
TAP	2	240	7
TAP	2	288	7
TAP	2	336	6
HLD	3	0	4	48
HLD	3	0	5	96
TAP	3	96	3
HLD	3	144	2	96
TAP	3	144	4
HLD	3	192	3	96
TTP	3	336	3	B	0	M1
TTP	3	336	3	E	0	M1
TTP	3	360	5	B	0	M1
TTP	3	360	5	E	0	M1
TTP	4	0	1	B	0	M1
TTP	4	0	1	E	0	M1
TTP	4	24	7	B	0	M1
TTP	4	24	7	E	0	M1
TTP	4	48	2	B	0	M1
TTP	4	48	2	E	0	M1
TTP	4	72	6	B	0	M1
TTP	4	72	6	E	0	M1
TTP	4	96	0	C	0	M1
TTP	4	120	4	E	0	M1
TAP	4	144	0
STR	4	192	0
SUR	4	192	0	96	48	4
SV_	4	192	0	96	48	3
BRK	4	288	0
STR	5	0	5
SI_	5	0	5	96	48	7
STR	5	48	7
SV_	5	48	7	96	48	0
STR	5	96	0
SI_	5	96	0	96	48	2
STR	5	192	3
SI_	5	192	3	96	48	7
STR	6	0	0
SI_	6	0	0	96	48	3
STR	6	0	6
SI_	6	0	6	96	48	1
TAP	6	96	0
TAP	6	96	6
STR	6	192	1
SI_	6	192	1	96	48	6
STR	6	192	4
SUR	6	192	4	96	48	0
TAP	6	288	1
TAP	6	288	4
STR	7	0	1
SLR	7	0	1	96	96	7
STR	7	96	7
SI_	7	96	7	96	48	5
TAP	7	144	7
TAP	7	192	0
TAP	7	288	2
TAP	7	288	6
XTP	8	0	1
TTP	8	0	4	B	0	M1
TTP	8	96	3	B	0	M1
TTP	8	96	3	E	0	M1
XTP	8	96	7
XTP	8	192	0
TTP	8	192	5	B	0	M1
TTP	8	192	5	E	0	M1
TTP	8	192	6	E	0	M1
TTP	8	288	0	C	1	M1
TTP	8	288	1	B	0	M1
TTP	8	288	2	B	0	M1
TTP	8	288	3	B	0	M1
XTP	8	288	6
TAP	9	0	0
TAP	9	48	5
TAP	9	72	5
TAP	9	96	4
TAP	9	144	7
TAP	9	192	2
TAP	9	240	1
STR	9	240	3
SV_	9	240	3	96	48	6
TAP	9	288	0
HLD	9	336	0	96
TAP	10	48	7
TAP	10	72	7
TAP	10	96	1
TAP	10	144	3
STR	10	192	5
SLL	10	192	5	96	96	6
TAP	10	240	4
TAP	10	288	7
TAP	10	336	0
TAP	11	0	1
TAP	11	48	2
TAP	11	72	2
TAP	11	96	3
TAP	11	144	0
TAP	11	192	5
STR	11	240	4
SV_	11	240	4	96	48	1
TAP	11	240	6
TAP	11	288	7
HLD	11	336	7	96
TAP	12	48	0
TAP	12	72	0
TAP	12	96	6
TAP	12	144	4
STR	12	192	2
SLR	12	192	2	96	96	1
TAP	12	240	3
TAP	12	288	0
TAP	12	336	7
TAP	13	0	6
TAP	13	48	5
TAP	13	72	5
TAP	13	96	4
TAP	13	144	7
TAP	13	192	1
STR	13	240	0
SV_	13	240	0	96	48	5
TAP	13	240	6
TAP	13	288	7
HLD	13	336	7	96
TAP	14	48	3
TAP	14	72	3
TAP	14	96	4
TAP	14	144	0
STR	14	192	5
SLL	14	192	5	96	96	6
TAP	14	240	4
TAP	14	288	7
TAP	14	336	0
TAP	15	0	1
TAP	15	48	2
TAP	15	72	2
TAP	15	96	3
TAP	15	144	0
TAP	15	192	6
TAP	15	216	6
TAP	15	240	7
STR	15	288	0
SUL	15	288	0	96	96	1
TAP	15	336	3
STR	16	0	4
SCL	16	0	4	96	48	0
XST	16	192	7
SF_	16	192	7	96	48	3
TAP	16	288	7
STR	17	0	4
SLL	17	0	4	96	48	0
STR	17	0	5
SV_	17	0	5	96	48	7
TAP	17	48	4
TAP	17	48	5
XTP	17	192	7
XTP	17	216	0
TAP	17	264	5
TAP	17	288	4
TAP	17	336	2
TAP	17	336	6
STR	18	0	0
SLL	18	0	0	96	48	4
SLR	18	0	0	96	48	4
TAP	18	48	0
TTP	18	192	5	E	0	M1
TTP	18	216	3	E	0	M1
TTP	18	240	7	E	0	M1
TTP	18	264	1	E	0	M1
STR	18	288	5
SCL	18	288	5	96	96	1
TAP	18	336	5
STR	19	0	1
SCL	19	0	1	96	96	5
TAP	19	96	5
TAP	19	192	1
STR	19	288	3
SI_	19	288	3	96	48	1
SV_	19	288	3	96	48	0
TAP	19	288	4
TAP	19	336	3
TAP	19	336	4
STR	20	96	0
SLL	20	96	0	96	96	2
TAP	20	144	0
STR	20	192	2
SLL	20	192	2	96	96	4
TAP	20	240	3
TAP	20	288	4
TAP	21	0	5
TAP	21	48	7
TAP	21	72	0
TAP	21	120	5
TAP	21	144	4
STR	21	192	2
SUL	21	192	2	96	48	5
STR	21	240	5
SV_	21	240	5	96	48	2
STR	22	0	6
SI_	22	0	6	96	48	1
HLD	22	48	6	96
STR	22	192	4
SLL	22	192	4	96	48	0
TAP	22	216	4
TAP	22	240	5
TAP	22	264	6
TAP	22	288	7
TTP	23	0	6	E	0	M1
TTP	23	12	5	B	0	M1
TTP	23	24	0	C	0	M1
TTP	23	36	1	B	0	M1
TTP	23	48	2	E	0	M1
XST	23	96	2
SI_	23	96	2	96	48	5
STR	23	192	7
SV_	23	192	7	96	96	4
STR	23	288	4
SLL	23	288	4	96	96	6
TAP	24	0	1
TAP	24	48	1
TAP	24	96	0
STR	24	144	0
SI_	24	144	0	96	48	3
STR	24	192	3
SI_	24	192	3	96	48	0
TAP	24	240	5
BRK	24	288	7
BRK	25	0	0
STR	25	48	3
SI_	25	48	3	96	48	5
TTP	25	96	2	B	0	M1
TTP	25	96	2	E	0	M1
STR	25	144	3
SI_	25	144	3	96	48	7
TTP	25	192	0	B	0	M1
TTP	25	192	1	E	0	M1
STR	25	240	3
SI_	25	240	3	96	48	5
TTP	25	288	2	B	0	M1
TTP	25	288	2	E	0	M1
STR	25	336	3
SI_	25	336	3	96	48	7
TTP	26	0	0	B	0	M1
TTP	26	0	1	E	0	M1
STR	26	48	3
SI_	26	48	3	96	48	5
TTP	26	96	2	B	0	M1
TTP	26	96	2	E	0	M1
STR	26	144	3
SI_	26	144	3	96	48	7
TTP	26	192	0	B	0	M1
TTP	26	192	1	E	0	M1
STR	26	240	3
SI_	26	240	3	96	48	5
TTP	26	288	2	B	0	M1
TTP	26	288	2	E	0	M1
BRK	27	0	0
HLD	27	96	1	48
TTP	27	96	3	E	0	M1
TTP	27	112	3	B	0	M1
TTP	27	128	4	B	0	M1
TTP	27	144	5	E	0	M1
TTP	27	192	1	E	0	M1
HLD	27	192	2	48
TTP	27	208	0	B	0	M1
TTP	27	224	7	B	0	M1
TTP	27	240	7	E	0	M1
HLD	27	288	1	48
TTP	27	288	3	E	0	M1
TTP	27	304	3	B	0	M1
TTP	27	320	4	B	0	M1
TTP	27	336	5	E	0	M1
TTP	28	0	1	E	0	M1
HLD	28	0	2	48
TTP	28	16	0	B	0	M1
TTP	28	32	7	B	0	M1
TTP	28	48	7	E	0	M1
HLD	28	96	1	48
TTP	28	96	3	E	0	M1
TTP	28	112	3	B	0	M1
TTP	28	128	4	B	0	M1
TTP	28	144	5	E	0	M1
TTP	28	192	1	E	0	M1
HLD	28	192	2	48
TTP	28	208	0	B	0	M1
TTP	28	224	7	B	0	M1
TTP	28	240	7	E	0	M1
HLD	28	288	1	48
TTP	28	288	3	E	0	M1
TTP	28	304	3	B	0	M1
TTP	28	320	4	B	0	M1
TTP	28	336	5	E	0	M1
BRK	29	0	0
HLD	29	96	7	48
TTP	29	144	0	E	0	M1
HLD	29	192	6	48
TTP	29	240	7	E	0	M1
HLD	29	288	5	48
TTP	29	336	6	E	0	M1
HLD	30	0	4	48
TTP	30	48	5	E	0	M1
HLD	30	96	3	48
TTP	30	144	4	E	0	M1
HLD	30	192	2	48
TTP	30	240	3	E	0	M1
HLD	30	288	1	48
TTP	30	336	2	E	0	M1
TAP	31	0	0
TAP	31	48	6
TAP	31	48	7
TAP	31	96	4
TAP	31	96	6
TAP	31	144	1
TAP	31	144	3
TAP	31	192	0
TAP	31	216	7
TAP	31	240	0
TAP	31	264	7
TAP	31	288	0
TAP	31	312	0
TAP	31	336	0
TAP	31	360	0
TAP	32	0	0
TAP	32	12	1
TAP	32	24	2
TAP	32	36	3
TAP	32	48	4
TAP	32	60	5
TAP	32	72	6
TAP	32	84	7
TAP	32	96	0
TAP	32	144	2
TAP	32	144	3
STR	32	192	4
SI_	32	192	4	96	48	1
SI_	32	192	4	96	48	7
TAP	32	240	3
TAP	32	240	5
HLD	33	0	0	96
TAP	33	96	3
TAP	33	144	5
TAP	33	192	3
TAP	33	216	4
TAP	33	240	3
TAP	33	264	4
STR	33	288	3
SI_	33	288	3	96	48	7
TAP	33	336	2
TAP	34	0	5
TAP	34	48	5
TAP	34	96	4
TAP	34	144	2
STR	34	144	4
SI_	34	144	4	96	48	0
TAP	34	192	3
XHO	34	240	2	96
TAP	34	336	7
TAP	35	0	6
TTP	35	96	5	B	0	M1
TTP	35	96	5	E	0	M1
TTP	35	144	1	B	0	M1
TTP	35	144	2	B	0	M1
TTP	35	144	3	E	0	M1
TAP	35	192	7
TAP	35	216	0
TAP	35	240	7
TAP	35	264	0
TAP	35	288	6
TAP	35	312	1
TAP	35	336	7
TAP	36	0	2
TTP	36	0	4	B	0	M1
TTP	36	0	5	E	0	M1
TTP	36	96	3	B	0	M1
TTP	36	96	3	E	0	M1
TAP	36	96	6
TAP	36	192	1
TTP	36	192	4	B	0	M1
TTP	36	192	5	E	0	M1
TTP	36	288	3	B	0	M1
TTP	36	288	3	E	0	M1
STR	36	288	6
SCL	36	288	6	96	96	7
TTP	37	0	0	C	1	M1
XHO	37	144	1	96
TAP	37	240	3
STR	37	288	4
SI_	37	288	4	96	48	7
STR	38	0	0
SI_	38	0	0	96	48	3
TAP	38	0	4
TAP	38	96	0
XTP	38	96	7
STR	38	192	6
SI_	38	192	6	96	48	1
STR	38	240	2
SI_	38	240	2	96	48	5
TAP	38	288	6
TAP	38	336	2
STR	39	0	7
SCL	39	0	7	96	96	0
XTP	39	96	0
XTP	39	144	0
TAP	39	240	3
STR	39	288	4
SI_	39	288	4	96	48	6
STR	40	0	4
SI_	40	0	4	96	48	1
SI_	40	0	4	96	48	2
STR	40	96	4
SF_	40	96	4	96	48	0
TAP	40	192	4
TTP	40	288	0	C	1	M1
TTP	40	288	3	B	0	M1
TTP	40	288	4	B	0	M1
TTP	40	288	5	B	0	M1
HLD	41	0	0	48
TAP	41	48	7
TAP	41	72	7
TAP	41	144	2
TAP	41	144	6
TAP	41	192	5
TAP	41	216	4
TAP	41	240	6
TAP	41	288	2
TAP	41	312	3
TAP	41	336	1
STR	42	0	0
SLR	42	0	0	96	96	5
TAP	42	48	0
STR	42	96	5
SI_	42	96	5	96	48	0
XTP	42	192	3
XTP	42	240	3
XTP	42	288	4
XTP	42	336	4
HLD	43	0	5	48
TAP	43	48	0
TAP	43	72	0
TAP	43	144	1
TAP	43	144	4
TAP	43	192	2
TAP	43	216	3
TAP	43	240	1
TAP	43	288	5
TAP	43	312	4
TAP	43	336	6
STR	44	0	2
SXL	44	0	2	96	144	5
TAP	44	48	2
TAP	44	96	0
TAP	44	144	0
TAP	44	192	7
TAP	44	240	7
TAP	44	288	6
TAP	44	336	5
HLD	45	0	2	48
TAP	45	0	4
TAP	45	48	3
TAP	45	72	3
TAP	45	144	1
TAP	45	144	5
TAP	45	192	6
TAP	45	216	4
TAP	45	240	5
TAP	45	288	1
TAP	45	312	3
TAP	45	336	2
STR	46	0	5
SI_	46	0	5	96	48	0
TAP	46	48	5
STR	46	96	4
SI_	46	96	4	96	48	1
TAP	46	144	4
TAP	46	192	6
TAP	46	240	6
STR	46	288	3
SI_	46	288	3	96	48	0
STR	46	288	7
SI_	46	288	7	96	48	4
STR	47	96	1
SCL	47	96	1	96	48	6
STR	47	96	5
SCL	47	96	5	96	48	2
XHO	47	288	0	192
XHO	47	288	4	144
TAP	48	144	2
TAP	48	144	6
STR	48	192	7
SI_	48	192	7	96	48	4
TAP	48	240	7
STR	48	288	3
SI_	48	288	3	96	48	7
TAP	49	0	3
STR	49	0	6
SI_	49	0	6	96	48	3
TAP	49	96	1
TAP	49	96	6
XST	49	192	2
SCR	49	192	2	96	48	4
XTP	49	216	2
XTP	49	240	2
XTP	49	264	2
XST	49	288	2
SCL	49	288	2	96	96	5
STR	50	96	3
SI_	50	96	3	96	48	0
BRK	50	144	7
TAP	50	192	3
BRK	50	240	7
TAP	50	288	3
STR	50	288	6
SI_	50	288	6	96	48	0
STR	51	0	2
SI_	51	0	2	96	48	4
TAP	51	0	6
TAP	51	96	2
STR	51	192	5
SCR	51	192	5	96	48	1
STR	51	240	1
SCL	51	240	1	96	48	5
TAP	51	288	3
TAP	51	336	3
STR	52	0	2
SI_	52	0	2	96	48	6
STR	52	48	3
SXL	52	48	3	96	144	7
TAP	52	96	2
TAP	52	144	3
BST	52	288	1
SI_	52	288	1	96	48	5
TAP	53	0	1
TAP	53	0	7
TAP	53	96	6
BRK	53	144	5
BRK	53	168	4
BRK	53	216	6
BRK	53	240	7
BRK	53	288	1
BRK	53	312	0
STR	53	360	3
SXL	53	360	3	96	216	1
HLD	54	0	2	96
XTP	54	240	0
XTP	54	288	0
STR	55	0	1
SI_	55	0	1	96	48	6
STR	55	0	5
SV_	55	0	5	96	48	6
TAP	55	192	1
STR	55	192	5
SI_	55	192	5	96	48	2
XTP	55	288	2
XTP	55	336	1
STR	56	0	1
SI_	56	0	1	96	48	6
XHO	56	48	1	96
XTP	56	192	5
XTP	56	216	4
XST	56	240	3
SI_	56	240	3	96	48	0
XTP	56	264	2
XTP	56	288	1
STR	57	0	7
SSR	57	0	7	96	144	3
TAP	57	48	7
XTP	57	96	3
XTP	57	144	3
STR	57	192	2
SI_	57	192	2	96	48	6
STR	57	240	2
SI_	57	240	2	96	48	0
TAP	58	0	6
TAP	58	48	4
TAP	58	96	1
TAP	58	144	3
TAP	58	192	4
TTP	58	216	4	E	0	M1
THO	58	240	0	48	C	1	M1
TTP	58	264	0	E	0	M1
XST	59	0	7
SF_	59	0	7	96	48	3
XTP	59	48	0
XTP	59	48	6
XTP	59	72	0
XTP	59	72	6
STR	59	192	1
SSL	59	192	1	96	96	5
TAP	59	240	4
STR	59	288	5
SSR	59	288	5	96	96	1
XST	60	96	0
SCL	60	96	0	96	48	4
SCR	60	96	0	96	48	4
XTP	60	144	1
XTP	60	144	7
XTP	60	192	0
XTP	60	288	2
XTP	60	288	6
XST	61	0	4
SLL	61	0	4	96	96	5
TAP	61	48	4
STR	61	96	5
SI_	61	96	5	96	48	1
STR	61	144	1
SI_	61	144	1	96	48	6
STR	61	192	6
SI_	61	192	6	96	48	0
STR	62	0	0
SCL	62	0	0	96	48	5
SCR	62	0	0	96	48	3
TAP	62	48	4
XTP	62	192	4
XTP	62	204	5
XTP	62	216	6
XTP	62	228	7
XTP	62	240	0
XTP	62	252	1
XTP	62	264	2
XTP	62	276	3
XTP	62	288	4
XTP	63	0	1
XTP	63	0	3
XTP	63	16	2
XTP	63	16	4
XTP	63	32	3
XTP	63	32	5
XHO	63	48	4	144
XHO	63	48	6	144
XTP	63	208	3
XTP	63	208	5
XTP	63	224	2
XTP	63	224	4
XTP	63	240	1
XTP	63	240	3
XST	63	288	1
SUR	63	288	1	96	96	6
XTP	63	288	3
STR	64	0	6
SUL	64	0	6	96	96	1
THO	64	96	0	192	C	0	M1
XTP	64	288	7
TAP	65	0	0
STR	65	0	7
SCL	65	0	7	96	48	5
STR	65	96	7
SI_	65	96	7	96	48	4
XTP	65	144	0
XTP	65	156	1
XTP	65	168	2
STR	65	192	7
SI_	65	192	7	96	48	3
XTP	65	240	0
XTP	65	252	1
XTP	65	264	2
STR	65	288	7
SCL	65	288	7	96	48	5
XTP	65	336	0
XTP	65	348	1
XTP	65	360	2
STR	66	0	7
SI_	66	0	7	96	48	4
XTP	66	48	0
XTP	66	60	1
XTP	66	72	2
STR	66	96	7
SI_	66	96	7	96	48	3
XTP	66	144	0
XTP	66	156	1
XTP	66	168	2
STR	66	192	7
SCL	66	192	7	96	48	5
XTP	66	240	0
XTP	66	252	1
XTP	66	264	2
TAP	66	288	7
XTP	66	336	0
XTP	66	348	1
XTP	66	360	2
BRK	67	0	7
TTP	67	96	5	E	0	M1
HLD	67	96	6	48
TTP	67	112	4	B	0	M1
TTP	67	128	3	B	0	M1
TTP	67	144	3	E	0	M1
HLD	67	192	5	48
TTP	67	192	7	E	0	M1
TTP	67	208	7	B	0	M1
TTP	67	224	0	B	0	M1
TTP	67	240	1	E	0	M1
TTP	67	288	5	E	0	M1
HLD	67	288	6	48
TTP	67	304	4	B	0	M1
TTP	67	320	3	B	0	M1
TTP	67	336	3	E	0	M1
HLD	68	0	5	48
TTP	68	0	7	E	0	M1
TTP	68	16	7	B	0	M1
TTP	68	32	0	B	0	M1
TTP	68	48	1	E	0	M1
TTP	68	96	5	E	0	M1
HLD	68	96	6	48
TTP	68	112	4	B	0	M1
TTP	68	128	3	B	0	M1
TTP	68	144	3	E	0	M1
HLD	68	192	5	48
TTP	68	192	7	E	0	M1
TTP	68	208	7	B	0	M1
TTP	68	224	0	B	0	M1
TTP	68	240	1	E	0	M1
TTP	68	288	5	E	0	M1
HLD	68	288	6	48
TTP	68	304	4	B	0	M1
TTP	68	320	3	B	0	M1
TTP	68	336	3	E	0	M1
BRK	69	0	7
XTP	69	96	0
TTP	69	96	0	C	1	M1
TTP	69	96	4	B	0	M1
TTP	69	96	5	B	0	M1
TTP	69	192	0	C	1	M1
TTP	69	192	2	B	0	M1
TTP	69	192	3	B	0	M1
XTP	69	192	7
XTP	69	288	0
TTP	69	288	0	C	1	M1
TTP	69	288	4	B	0	M1
TTP	69	288	5	B	0	M1
TTP	70	0	0	C	1	M1
TTP	70	0	2	B	0	M1
TTP	70	0	3	B	0	M1
XTP	70	0	6
TTP	70	96	0	C	1	M1
XTP	70	96	1
TTP	70	96	4	B	0	M1
TTP	70	96	5	B	0	M1
TTP	70	192	0	C	1	M1
TTP	70	192	2	B	0	M1
TTP	70	192	3	B	0	M1
XTP	70	192	6
TTP	70	288	0	C	1	M1
XTP	70	288	1
TTP	70	288	4	B	0	M1
TTP	70	288	5	B	0	M1
XTP	71	0	0
TTP	71	0	0	C	1	M1
XTP	71	48	0
TTP	71	48	0	C	1	M1
XTP	71	96	0
TTP	71	96	0	C	1	M1
XTP	71	144	0
TTP	71	144	0	C	1	M1
XTP	71	192	7
XTP	71	216	7
XTP	71	240	7
XTP	71	264	7
XTP	71	288	7
XTP	71	312	7
XTP	71	336	7
XTP	71	360	7
TAP	72	0	7
TAP	72	12	6
TAP	72	24	5
TAP	72	36	4
TAP	72	48	3
TAP	72	60	2
TAP	72	72	1
TAP	72	84	0
TAP	72	96	7
TAP	72	144	4
TAP	72	144	5
STR	72	192	3
SLL	72	192	3	96	96	4
SLR	72	192	3	96	96	0
TAP	72	240	2
TAP	72	240	4

T_REC_TAP	246
T_REC_BRK	17
T_REC_XTP	98
T_REC_HLD	34
T_REC_XHO	7
T_REC_STR	100
T_REC_BST	1
T_REC_XST	9
T_REC_TTP	155
T_REC_THO	2
T_REC_SLD	118
T_REC_ALL	787
T_NUM_TAP	608
T_NUM_BRK	18
T_NUM_HLD	43
T_NUM_SLD	118
T_NUM_ALL	787
T_JUDGE_TAP	626
T_JUDGE_HLD	67
T_JUDGE_SLD	118
T_JUDGE_ALL	811
TTM_EACHPAIRS	56
TTM_SCR_TAP	304000
TTM_SCR_BRK	46800
TTM_SCR_HLD	43000
TTM_SCR_SLD	177000
TTM_SCR_ALL	570800
TTM_SCR_S	551950
TTM_SCR_SS	569000
TTM_RAT_ACV	10031

