VERSION	0.00.00	1.03.00
FES_MODE	0
BPM_DEF	146.000	146.000	146.000	146.000
MET_DEF	4	4
RESOLUTION	384
CLK_DEF	384
COMPATIBLE_CODE	MA2

BPM	0	0	146.000
MET	0	0	4	4

XTP	1	0	1
XTP	1	0	6
TAP	1	96	4
TAP	1	144	3
TAP	1	240	3
TAP	1	288	4
STR	2	0	1
SI_	2	0	1	96	48	4
STR	2	144	6
SI_	2	144	6	96	48	3
TAP	3	0	2
TAP	3	96	5
TAP	3	144	2
TAP	3	192	2
STR	3	288	0
SSL	3	288	0	96	96	4
TAP	4	192	6
TAP	4	288	0
TAP	4	288	7
STR	5	0	1
SXR	5	0	1	96	192	5
TAP	5	0	3
HLD	6	0	4	96
STR	6	0	6
SXL	6	0	6	96	192	2
STR	7	0	1
SI_	7	0	1	96	48	4
STR	7	0	5
SI_	7	0	5	96	48	0
STR	7	192	2
SI_	7	192	2	96	48	7
STR	7	192	6
SI_	7	192	6	96	48	3
TTP	8	0	0	C	0	M1
TTP	8	96	0	B	0	M1
TTP	8	96	4	B	0	M1
TTP	8	192	0	C	0	M1
TTP	8	192	2	B	0	M1
TTP	8	192	6	B	0	M1
TTP	8	288	3	B	0	M1
TTP	8	288	3	E	0	M1
TTP	8	288	4	B	0	M1
TTP	8	288	5	E	0	M1
HLD	9	0	1	192
TAP	9	96	3
TAP	9	144	3
HLD	9	192	4	96
TAP	9	288	2
HLD	10	0	1	192
TAP	10	96	3
TAP	10	144	3
TAP	10	192	4
TAP	10	288	3
TAP	10	288	5
HLD	11	0	6	192
TAP	11	96	4
TAP	11	144	4
HLD	11	192	3	96
TAP	11	288	5
HLD	12	0	6	96
HLD	12	96	4	96
TAP	12	192	3
TAP	12	288	2
TAP	12	288	5
HLD	13	0	1	192
TAP	13	96	3
TAP	13	144	3
HLD	13	192	4	96
TAP	13	288	2
HLD	14	0	1	192
TAP	14	96	3
TAP	14	144	3
TAP	14	192	4
TAP	14	288	3
TAP	14	288	5
HLD	15	0	6	192
TAP	15	96	4
TAP	15	144	4
HLD	15	192	3	96
TAP	15	288	5
XTP	16	0	0
XTP	16	0	6
XTP	16	72	1
XTP	16	72	7
XTP	16	144	3
XTP	16	144	4
XTP	16	192	3
XTP	16	192	4
XTP	16	288	1
XTP	16	288	6
TAP	17	0	0
TAP	17	48	0
TAP	17	96	6
TAP	17	144	6
STR	17	192	0
SI_	17	192	0	96	48	5
STR	17	240	1
SI_	17	240	1	96	48	4
HLD	18	96	5	96
TAP	18	192	6
TAP	18	240	7
TAP	18	288	0
TAP	18	288	6
TAP	19	0	7
TAP	19	48	7
TAP	19	96	1
TAP	19	144	1
STR	19	192	7
SI_	19	192	7	96	48	2
STR	19	240	6
SI_	19	240	6	96	48	3
TAP	20	96	1
TAP	20	96	3
TAP	20	192	4
TAP	20	192	6
TAP	20	288	2
TAP	20	288	5
TAP	21	0	4
TAP	21	48	4
TAP	21	96	2
TAP	21	144	2
STR	21	192	4
SI_	21	192	4	96	48	1
STR	21	240	5
SI_	21	240	5	96	48	0
HLD	22	96	1	96
TAP	22	192	2
TAP	22	240	3
TAP	22	288	2
TAP	22	288	4
TAP	23	0	3
TAP	23	48	3
TAP	23	96	5
TAP	23	144	5
STR	23	192	3
SI_	23	192	3	96	48	6
STR	23	240	2
SI_	23	240	2	96	48	7
TAP	24	96	5
TAP	24	96	7
TAP	24	192	0
TAP	24	192	2
TAP	24	288	1
TAP	24	288	6
BRK	25	0	0
HLD	25	96	6	96
TAP	25	144	7
HLD	25	192	0	96
TAP	25	240	7
HLD	25	288	6	96
TAP	25	336	7
HLD	26	0	0	96
TAP	26	48	7
HLD	26	96	6	96
TAP	26	144	7
HLD	26	192	0	96
TAP	26	240	7
HLD	26	288	6	96
TAP	26	336	7
BRK	27	0	0
HLD	27	96	1	96
TAP	27	144	0
HLD	27	192	7	96
TAP	27	240	0
HLD	27	288	1	96
TAP	27	336	0
HLD	28	0	7	96
TAP	28	48	0
HLD	28	96	1	96
TAP	28	144	0
HLD	28	192	7	96
TAP	28	240	0
HLD	28	288	1	96
TAP	28	336	0
BRK	29	0	7
HLD	29	96	5	96
TAP	29	144	7
HLD	29	192	1	96
TAP	29	240	7
HLD	29	288	5	96
TAP	29	336	7
HLD	30	0	1	96
TAP	30	48	7
HLD	30	96	5	96
TAP	30	144	7
HLD	30	192	1	96
TAP	30	240	7
HLD	30	288	5	96
TAP	30	336	7
TTP	31	0	0	B	0	M1
TTP	31	0	1	E	0	M1
TTP	31	48	2	B	0	M1
TTP	31	48	3	E	0	M1
TTP	31	96	4	B	0	M1
TTP	31	96	5	E	0	M1
TTP	31	144	6	B	0	M1
TTP	31	144	7	E	0	M1
XTP	31	192	0
XTP	31	192	7
XTP	31	240	1
XTP	31	240	6
XTP	31	288	2
XTP	31	288	5
XTP	31	336	3
XTP	31	336	4
XST	32	0	1
SI_	32	0	1	96	48	3
STR	32	96	4
SF_	32	96	4	96	48	0
XTP	32	288	2
XTP	32	288	6
STR	33	0	7
SCL	33	0	7	96	192	0
STR	34	0	1
SI_	34	0	1	96	48	4
TAP	34	96	6
STR	34	144	6
SI_	34	144	6	96	48	3
TAP	34	240	1
TAP	35	0	0
TAP	35	0	7
TAP	35	96	2
TAP	35	96	6
XST	35	144	1
SCR	35	144	1	96	48	3
XST	35	144	5
SCR	35	144	5	96	48	7
XTP	36	0	0
XTP	36	0	2
XTP	36	96	5
XTP	36	96	7
XTP	36	192	1
XTP	36	192	3
BRK	36	288	4
BRK	36	288	6
STR	37	0	1
SXR	37	0	1	96	192	5
TAP	37	0	3
HLD	38	0	4	96
STR	38	0	6
SXL	38	0	6	96	192	2
STR	39	0	1
SI_	39	0	1	96	48	4
STR	39	0	5
SI_	39	0	5	96	48	0
STR	39	192	2
SI_	39	192	2	96	48	7
STR	39	192	6
SI_	39	192	6	96	48	3
TTP	40	0	0	C	0	M1
TTP	40	96	0	B	0	M1
TTP	40	96	4	B	0	M1
TTP	40	192	0	C	0	M1
TTP	40	192	2	B	0	M1
TTP	40	192	6	B	0	M1
TTP	40	288	3	B	0	M1
TTP	40	288	3	E	0	M1
TTP	40	288	4	B	0	M1
TTP	40	288	5	E	0	M1
TAP	41	0	1
HLD	41	48	1	48
TAP	41	96	3
HLD	41	144	3	48
TAP	41	192	4
HLD	41	240	4	48
TAP	41	288	5
HLD	42	0	6	288
TAP	42	96	5
TAP	42	192	7
TAP	42	240	7
TAP	42	288	5
TAP	43	0	6
HLD	43	48	6	48
TAP	43	96	4
HLD	43	144	4	48
TAP	43	192	3
HLD	43	240	3	48
TAP	43	288	2
HLD	44	0	1	288
TAP	44	96	2
TAP	44	192	0
TAP	44	240	0
TAP	44	288	2
TAP	45	0	5
HLD	45	48	5	48
TAP	45	96	7
HLD	45	144	7	48
TAP	45	192	0
HLD	45	240	0	48
TAP	45	288	1
HLD	46	0	2	288
TAP	46	96	3
TAP	46	192	1
TAP	46	240	1
TAP	46	288	3
TAP	47	0	2
HLD	47	48	2	48
TAP	47	96	0
HLD	47	144	0	48
TAP	47	192	7
HLD	47	240	7	48
TAP	47	288	6
HLD	48	0	5	192
TAP	48	96	4
STR	48	192	6
SI_	48	192	6	96	48	1
SI_	48	192	6	96	48	3
HLD	49	0	0	48
HLD	49	0	4	48
HLD	49	96	2	48
HLD	49	96	6	48
TTP	49	192	3	E	0	M1
TTP	49	192	5	E	0	M1
TTP	49	240	2	E	0	M1
TTP	49	240	6	E	0	M1
TTP	49	288	1	E	0	M1
TTP	49	288	7	E	0	M1
STR	50	0	1
SXL	50	0	1	96	144	1
STR	50	0	5
SXL	50	0	5	96	144	5
TAP	50	288	0
TAP	50	288	4
HLD	51	0	2	48
HLD	51	0	6	48
HLD	51	96	1	48
HLD	51	96	5	48
STR	51	192	4
SI_	51	192	4	96	48	7
STR	51	240	3
SI_	51	240	3	96	48	0
XTP	52	0	7
XTP	52	48	1
XTP	52	48	7
XTP	52	144	0
XTP	52	144	6
XTP	52	240	3
XTP	52	240	4
XTP	52	288	1
XTP	52	288	6
TAP	53	0	2
TAP	53	0	4
XHO	53	96	6	72
XHO	53	168	0	72
XHO	53	240	2	72
XHO	53	312	4	72
XST	54	0	6
SCR	54	0	6	96	96	5
TAP	54	288	1
TAP	54	288	6
STR	55	0	2
SI_	55	0	2	96	48	5
STR	55	192	6
SI_	55	192	6	96	48	1
THO	56	0	0	192	C	1	M1
TTP	56	0	2	E	0	M1
TTP	56	0	6	E	0	M1
BRK	56	288	1
BRK	56	288	6
TAP	57	0	0
TAP	57	48	0
TAP	57	96	6
TAP	57	144	6
STR	57	192	0
SI_	57	192	0	96	48	5
STR	57	240	1
SI_	57	240	1	96	48	4
TAP	58	96	5
TAP	58	144	6
TAP	58	192	0
TAP	58	192	7
TAP	58	240	1
TAP	58	288	0
TAP	58	288	2
TAP	59	0	7
TAP	59	48	7
TAP	59	96	1
TAP	59	144	1
STR	59	192	7
SI_	59	192	7	96	48	2
STR	59	240	6
SI_	59	240	6	96	48	3
TAP	60	96	2
TAP	60	96	6
STR	60	192	0
SI_	60	192	0	96	48	3
STR	60	192	4
SI_	60	192	4	96	48	7
TAP	61	0	3
TAP	61	48	3
TAP	61	96	5
TAP	61	144	5
STR	61	192	3
SI_	61	192	3	96	48	6
STR	61	240	2
SI_	61	240	2	96	48	7
TAP	62	96	6
TAP	62	144	5
TAP	62	192	3
TAP	62	192	4
TAP	62	240	2
TAP	62	288	1
TAP	62	288	3
TAP	63	0	4
TAP	63	48	4
TAP	63	96	2
TAP	63	144	2
STR	63	192	4
SI_	63	192	4	96	48	1
STR	63	240	5
SI_	63	240	5	96	48	0
TAP	64	96	1
TAP	64	96	5
STR	64	192	3
SI_	64	192	3	96	48	0
STR	64	192	7
SI_	64	192	7	96	48	4
BRK	65	0	0
HLD	65	96	5	96
TAP	65	144	7
HLD	65	192	1	96
TAP	65	240	7
HLD	65	288	5	96
TAP	65	336	7
HLD	66	0	1	96
TAP	66	48	7
HLD	66	96	5	96
TAP	66	144	7
HLD	66	192	1	96
TAP	66	240	7
HLD	66	288	5	96
TAP	66	336	7
BRK	67	0	1
HLD	67	96	2	96
TAP	67	144	0
HLD	67	192	6	96
TAP	67	240	0
HLD	67	288	2	96
TAP	67	336	0
HLD	68	0	6	96
TAP	68	48	0
HLD	68	96	2	96
TAP	68	144	0
HLD	68	192	6	96
TAP	68	240	0
HLD	68	288	2	96
TAP	68	336	0
BRK	69	0	6
HLD	69	96	4	96
TAP	69	144	7
HLD	69	192	2	96
TAP	69	240	7
HLD	69	288	4	96
TAP	69	336	7
HLD	70	0	2	96
TAP	70	48	7
HLD	70	96	4	96
TAP	70	144	7
HLD	70	192	2	96
TAP	70	240	7
HLD	70	288	4	96
TAP	70	336	7
TTP	71	0	0	B	0	M1
TTP	71	0	1	E	0	M1
TTP	71	48	2	B	0	M1
TTP	71	48	3	E	0	M1
TTP	71	96	4	B	0	M1
TTP	71	96	5	E	0	M1
TTP	71	144	6	B	0	M1
TTP	71	144	7	E	0	M1
XTP	71	192	0
XTP	71	192	7
XTP	71	240	1
XTP	71	240	6
XTP	71	288	2
XTP	71	288	5
XTP	71	336	3
XTP	71	336	4
XST	72	0	1
SI_	72	0	1	96	48	3
STR	72	96	4
SF_	72	96	4	96	48	0
BRK	72	288	2
BRK	72	288	6

T_REC_TAP	191
T_REC_BRK	12
T_REC_XTP	45
T_REC_HLD	82
T_REC_XHO	4
T_REC_STR	47
T_REC_BST	0
T_REC_XST	5
T_REC_TTP	44
T_REC_THO	1
T_REC_SLD	53
T_REC_ALL	484
T_NUM_TAP	332
T_NUM_BRK	12
T_NUM_HLD	87
T_NUM_SLD	53
T_NUM_ALL	484
T_JUDGE_TAP	344
T_JUDGE_HLD	182
T_JUDGE_SLD	53
T_JUDGE_ALL	579
TTM_EACHPAIRS	64
TTM_SCR_TAP	166000
TTM_SCR_BRK	31200
TTM_SCR_HLD	87000
TTM_SCR_SLD	79500
TTM_SCR_ALL	363700
TTM_SCR_S	351650
TTM_SCR_SS	362500
TTM_RAT_ACV	10033

