VERSION	0.00.00	1.03.00
FES_MODE	0
BPM_DEF	146.000	146.000	146.000	146.000
MET_DEF	4	4
RESOLUTION	384
CLK_DEF	384
COMPATIBLE_CODE	MA2

BPM	0	0	146.000
MET	0	0	4	4

HLD	1	0	2	192
TAP	1	192	3
TAP	2	0	4
TAP	2	96	4
TAP	2	192	4
HLD	3	0	5	192
TAP	3	192	4
TAP	4	0	3
TAP	4	96	3
TAP	4	192	3
TAP	4	192	4
STR	5	0	2
SI_	5	0	2	96	144	5
TAP	6	0	6
STR	6	96	6
SI_	6	96	6	96	144	3
XTP	7	0	2
XTP	7	96	2
TAP	7	192	1
TAP	7	288	1
TAP	8	0	0
TAP	8	0	7
TAP	8	96	1
TAP	8	96	6
TAP	8	192	2
TAP	8	192	5
BRK	8	288	3
BRK	8	288	4
HLD	9	0	2	192
TAP	9	192	3
TAP	9	288	3
TAP	10	0	4
TAP	10	96	4
TAP	10	192	3
TAP	10	192	5
HLD	11	0	6	192
TAP	11	192	7
TAP	11	288	7
TAP	12	0	0
TAP	12	96	0
XTP	12	192	0
XTP	12	192	7
HLD	13	0	1	192
TAP	13	192	0
TAP	13	288	0
TAP	14	0	7
TAP	14	96	7
TAP	14	192	0
TAP	14	192	6
HLD	15	0	5	192
TAP	15	192	4
TAP	15	288	4
TAP	15	288	5
TAP	16	0	3
TAP	16	0	4
TAP	16	96	2
TAP	16	96	3
BRK	16	192	1
BRK	16	192	4
TAP	17	0	5
TAP	17	96	5
TAP	17	192	6
TAP	17	288	6
STR	18	0	7
SUL	18	0	7	96	144	3
TAP	19	0	2
TAP	19	96	2
TAP	19	192	1
TAP	19	288	1
STR	20	0	0
SUR	20	0	0	96	144	4
TAP	21	0	5
TAP	21	96	5
TAP	21	192	6
TAP	21	240	6
TAP	21	288	6
STR	22	0	7
SLL	22	0	7	96	192	3
TAP	23	0	2
TAP	23	96	2
TAP	23	192	1
TAP	23	240	1
TAP	23	288	1
TAP	24	0	0
TAP	24	0	7
HLD	24	96	1	192
HLD	24	96	6	192
TTP	25	0	0	C	1	L1
TTP	25	96	7	B	0	L1
TTP	25	192	6	B	0	L1
TTP	25	288	5	B	0	L1
TTP	26	0	4	B	0	L1
TTP	26	96	3	B	0	L1
TTP	26	192	2	B	0	L1
TTP	26	288	1	B	0	L1
TTP	27	0	0	C	0	L1
TTP	27	96	0	B	0	L1
TTP	27	192	1	B	0	L1
TTP	27	288	2	B	0	L1
TTP	28	0	3	B	0	L1
TTP	28	96	4	B	0	L1
TTP	28	192	5	B	0	L1
TTP	28	288	6	B	0	L1
TTP	29	0	0	C	0	L1
XTP	29	96	7
XTP	29	192	0
TAP	29	288	1
TAP	30	0	2
TAP	30	96	3
TAP	30	192	4
TAP	30	288	5
TAP	31	0	0
TAP	31	0	6
TAP	31	96	7
TAP	31	144	7
TAP	31	192	0
TAP	31	240	0
TAP	31	288	7
TTP	32	0	0	C	1	L1
TTP	32	0	3	B	0	L1
TTP	32	0	4	B	0	L1
XST	33	0	1
SCR	33	0	1	96	192	5
TAP	34	0	6
TAP	34	96	6
TAP	34	192	6
TAP	34	192	7
STR	35	0	6
SCL	35	0	6	96	192	2
TAP	36	0	1
TAP	36	96	1
TAP	36	192	0
TAP	36	192	1
STR	37	0	2
SI_	37	0	2	96	144	5
TAP	38	0	6
STR	38	96	6
SUL	38	96	6	96	144	2
TAP	39	0	1
TAP	39	96	1
TAP	39	192	0
TAP	39	288	0
XTP	40	0	0
XTP	40	0	7
XTP	40	96	1
XTP	40	96	6
XTP	40	192	2
XTP	40	192	5
BRK	40	288	3
BRK	40	288	4
HLD	41	0	2	192
TAP	41	192	3
TAP	41	288	2
TAP	41	288	3
TAP	42	0	5
TAP	42	96	4
TAP	42	96	5
TAP	42	192	3
TAP	42	192	6
HLD	43	0	5	192
TAP	43	192	4
TAP	43	288	4
TAP	43	288	5
TAP	44	0	2
TAP	44	96	2
TAP	44	96	3
TAP	44	192	1
TAP	44	192	4
HLD	45	0	1	192
TAP	45	192	0
TAP	45	288	0
TAP	45	288	1
TAP	46	0	7
TAP	46	48	7
TAP	46	96	7
TAP	46	192	0
TAP	46	192	6
HLD	47	0	6	192
TAP	47	192	7
TAP	47	288	6
TAP	47	288	7
TAP	48	0	0
TAP	48	48	0
TAP	48	96	0
XTP	48	192	1
XTP	48	192	7
HLD	49	0	6	192
HLD	49	192	7	192
HLD	50	0	0	192
TAP	50	192	1
TAP	50	288	2
TAP	50	288	7
HLD	51	0	2	192
HLD	51	192	3	192
HLD	52	0	4	192
TAP	52	192	5
BRK	52	288	3
BRK	52	288	6
HLD	53	0	5	192
HLD	53	192	4	192
HLD	54	0	3	192
TAP	54	192	2
TAP	54	288	2
TAP	54	288	3
XHO	55	0	1	192
XHO	55	192	7	192
TAP	56	0	0
TAP	56	96	1
TAP	56	96	6
TAP	56	192	2
TAP	56	192	5
XTP	56	288	3
XTP	56	288	4
TAP	57	0	5
TAP	57	96	4
TAP	57	96	5
TAP	57	192	2
TAP	57	288	2
TAP	57	288	3
STR	58	0	1
SUR	58	0	1	96	144	5
TAP	58	0	4
TAP	59	0	6
TAP	59	96	6
TAP	59	96	7
TAP	59	192	1
TAP	59	288	0
TAP	59	288	1
TAP	60	0	2
STR	60	0	7
SUL	60	0	7	96	144	3
TAP	61	0	2
TAP	61	96	2
TAP	61	96	3
TAP	61	192	5
TAP	61	240	5
TAP	61	288	4
TAP	62	0	3
STR	62	0	6
SUL	62	0	6	96	144	2
TAP	63	0	1
TAP	63	96	0
TAP	63	96	1
TAP	63	192	6
TAP	63	240	6
TAP	63	288	7
TAP	64	0	0
TAP	64	0	7
HLD	64	96	1	192
HLD	64	96	6	192
TTP	65	0	0	C	1	L1
TTP	65	96	0	B	0	L1
TTP	65	192	1	B	0	L1
TTP	65	288	2	B	0	L1
TTP	66	0	3	B	0	L1
TTP	66	96	4	B	0	L1
TTP	66	192	5	B	0	L1
TTP	66	288	6	B	0	L1
TTP	67	0	0	C	0	L1
TTP	67	96	7	B	0	L1
TTP	67	192	6	B	0	L1
TTP	67	288	5	B	0	L1
TTP	68	0	4	B	0	L1
TTP	68	96	3	B	0	L1
TTP	68	192	2	B	0	L1
TTP	68	288	1	B	0	L1
TTP	69	0	0	C	0	L1
XTP	69	96	0
TAP	69	192	7
TAP	69	288	6
TAP	70	0	5
TAP	70	96	4
TAP	70	192	3
TAP	70	288	2
TAP	71	0	1
TAP	71	0	7
TAP	71	96	0
TAP	71	144	0
TAP	71	192	7
TAP	71	240	7
TAP	71	288	0
TTP	72	0	0	C	1	L1
TTP	72	0	1	B	0	L1
TTP	72	0	6	B	0	L1

T_REC_TAP	170
T_REC_BRK	8
T_REC_XTP	17
T_REC_HLD	23
T_REC_XHO	2
T_REC_STR	11
T_REC_BST	0
T_REC_XST	1
T_REC_TTP	40
T_REC_THO	0
T_REC_SLD	12
T_REC_ALL	284
T_NUM_TAP	239
T_NUM_BRK	8
T_NUM_HLD	25
T_NUM_SLD	12
T_NUM_ALL	284
T_JUDGE_TAP	247
T_JUDGE_HLD	100
T_JUDGE_SLD	12
T_JUDGE_ALL	359
TTM_EACHPAIRS	49
TTM_SCR_TAP	119500
TTM_SCR_BRK	20800
TTM_SCR_HLD	25000
TTM_SCR_SLD	18000
TTM_SCR_ALL	183300
TTM_SCR_S	177050
TTM_SCR_SS	182500
TTM_RAT_ACV	10043

