VERSION	0.00.00	1.03.00
FES_MODE	0
BPM_DEF	146.000	146.000	146.000	146.000
MET_DEF	4	4
RESOLUTION	384
CLK_DEF	384
COMPATIBLE_CODE	MA2

BPM	0	0	146.000
MET	0	0	4	4

TAP	5	0	0
TAP	6	0	0
TAP	7	0	7
XTP	8	0	7
XTP	8	192	7
TAP	9	0	0
TAP	9	192	0
TAP	10	0	0
TAP	11	0	1
TAP	11	192	1
TAP	12	0	1
TAP	13	0	2
TAP	13	192	2
TAP	14	0	2
TAP	15	0	3
TAP	15	192	3
TAP	16	0	3
TAP	16	0	4
TAP	17	0	4
TAP	17	192	4
TAP	18	0	5
TAP	18	192	5
TAP	19	0	6
TAP	19	192	6
TAP	20	0	6
TAP	20	0	7
TAP	21	0	5
TAP	21	192	5
TAP	22	0	4
TAP	22	0	5
TAP	23	0	3
TAP	23	192	3
TAP	24	0	3
TAP	24	0	4
XTP	24	192	3
XTP	24	192	4
BRK	25	0	3
TAP	25	96	3
TAP	25	192	3
TAP	25	288	2
TAP	26	0	2
TAP	26	96	1
TAP	26	192	1
XTP	26	288	0
TAP	27	96	7
TAP	27	192	7
TAP	27	288	6
TAP	28	0	6
TAP	28	96	5
TAP	28	192	5
XTP	28	288	4
TAP	29	96	3
TAP	29	192	3
TAP	29	288	2
TAP	30	0	2
TAP	30	96	1
TAP	30	192	1
TAP	30	288	0
TAP	31	0	7
TAP	31	48	7
TAP	31	96	7
TAP	31	192	0
TAP	31	240	0
TAP	31	288	0
HLD	32	0	7	192
STR	33	0	0
SI_	33	0	0	96	288	3
STR	35	0	7
SI_	35	0	7	96	288	4
STR	37	0	0
SI_	37	0	0	96	288	4
STR	39	0	7
SI_	39	0	7	96	288	3
TTP	41	0	3	E	0	L1
TTP	42	0	2	E	0	L1
TTP	43	0	1	E	0	L1
TTP	44	0	0	E	0	L1
TTP	45	0	7	E	0	L1
TTP	46	0	6	E	0	L1
TTP	47	0	3	E	0	L1
TTP	47	0	5	E	0	L1
TTP	48	0	0	C	1	L1
HLD	49	0	0	192
HLD	49	0	7	192
TAP	50	0	0
TAP	50	0	7
HLD	51	0	0	192
HLD	51	0	1	192
TAP	52	0	0
TAP	52	0	1
HLD	53	0	6	192
HLD	53	0	7	192
TAP	54	0	6
TAP	54	0	7
HLD	55	0	4	192
HLD	55	0	5	192
TAP	56	0	4
TAP	56	0	5
TAP	57	0	3
TAP	57	96	3
TAP	57	192	3
TAP	58	0	2
TAP	58	192	2
TAP	59	0	1
TAP	59	96	1
TAP	59	192	1
TAP	60	0	0
TAP	60	0	7
TAP	60	192	0
TAP	60	192	7
TAP	61	0	6
TAP	61	96	6
TAP	61	192	6
TAP	62	0	5
TAP	62	192	5
TAP	63	0	4
TAP	63	96	4
TAP	63	192	4
TAP	64	0	3
TAP	64	0	4
TAP	64	192	3
TAP	64	192	4
BRK	65	0	4
TAP	65	96	4
TAP	65	192	4
TAP	65	288	5
TAP	66	0	5
TAP	66	96	6
TAP	66	192	6
XTP	66	288	7
TAP	67	96	0
TAP	67	192	0
TAP	67	288	1
TAP	68	0	1
TAP	68	96	2
TAP	68	192	2
XTP	68	288	3
TAP	69	96	4
TAP	69	192	4
TAP	69	288	5
TAP	70	0	5
TAP	70	96	6
TAP	70	192	6
TAP	70	288	7
TAP	71	0	0
TAP	71	48	0
TAP	71	96	0
TAP	71	192	7
TAP	71	240	7
TAP	71	288	7
HLD	72	0	0	288

T_REC_TAP	114
T_REC_BRK	2
T_REC_XTP	8
T_REC_HLD	10
T_REC_XHO	0
T_REC_STR	4
T_REC_BST	0
T_REC_XST	0
T_REC_TTP	9
T_REC_THO	0
T_REC_SLD	4
T_REC_ALL	151
T_NUM_TAP	135
T_NUM_BRK	2
T_NUM_HLD	10
T_NUM_SLD	4
T_NUM_ALL	151
T_JUDGE_TAP	137
T_JUDGE_HLD	42
T_JUDGE_SLD	4
T_JUDGE_ALL	183
TTM_EACHPAIRS	17
TTM_SCR_TAP	67500
TTM_SCR_BRK	5200
TTM_SCR_HLD	10000
TTM_SCR_SLD	6000
TTM_SCR_ALL	88700
TTM_SCR_S	85850
TTM_SCR_SS	88500
TTM_RAT_ACV	10022

