VERSION	0.00.00	1.03.00
FES_MODE	0
BPM_DEF	155.000	155.000	155.000	155.000
MET_DEF	4	4
RESOLUTION	384
CLK_DEF	384
COMPATIBLE_CODE	MA2

BPM	0	0	155.000
MET	0	0	4	4

THO	1	0	0	576	C	0	M1
TTP	2	288	6	E	0	M1
TTP	2	304	5	B	0	M1
TTP	2	320	4	B	0	M1
TTP	2	336	2	E	0	M1
TTP	2	352	2	B	0	M1
TTP	2	368	3	B	0	M1
TTP	3	0	6	B	0	M1
TTP	3	0	7	E	0	M1
TTP	3	72	1	B	0	M1
TTP	3	72	1	E	0	M1
TTP	3	144	5	E	0	M1
TTP	3	168	4	B	0	M1
TTP	3	192	3	B	0	M1
TTP	3	216	3	E	0	M1
TTP	3	264	1	B	0	M1
TTP	3	264	6	B	0	M1
BST	4	0	0
SSL	4	0	0	96	144	4
TTP	4	336	1	B	0	M1
TTP	4	336	2	E	0	M1
TTP	5	0	6	B	0	M1
TTP	5	0	6	E	0	M1
TTP	5	72	3	B	0	M1
TTP	5	72	4	B	0	M1
TTP	5	72	4	E	0	M1
TTP	5	144	1	E	0	M1
TTP	5	160	1	B	0	M1
TTP	5	176	2	B	0	M1
TTP	5	192	7	E	0	M1
TTP	5	216	0	E	0	M1
TTP	5	240	5	E	0	M1
TTP	5	264	4	E	0	M1
TAP	6	0	5
TAP	6	24	4
TAP	6	72	4
TAP	6	72	5
TAP	6	120	3
HLD	6	120	6	72
TAP	6	192	4
TAP	6	216	5
TAP	6	264	2
TAP	6	288	3
STR	7	0	1
SI_	7	0	1	96	48	4
TAP	7	48	1
STR	7	96	6
SI_	7	96	6	96	48	2
TAP	7	144	6
STR	7	192	3
SI_	7	192	3	96	48	0
TAP	7	240	3
XTP	7	288	7
STR	8	0	6
SI_	8	0	6	96	48	3
TAP	8	48	6
STR	8	96	1
SI_	8	96	1	96	48	5
TAP	8	144	1
STR	8	192	4
SI_	8	192	4	96	48	7
TAP	8	240	4
XTP	8	288	0
TAP	9	0	0
TAP	9	24	7
TAP	9	48	0
TAP	9	72	7
TAP	9	96	0
TAP	9	120	7
TAP	9	144	0
TAP	9	168	7
TAP	9	192	0
TAP	9	204	1
TAP	9	216	2
TAP	9	228	3
TAP	9	240	4
TAP	9	252	5
TAP	9	264	6
TAP	9	276	7
TAP	9	288	0
TAP	9	300	1
TAP	9	312	2
TAP	9	324	3
TAP	9	336	4
TAP	9	348	5
TAP	9	360	6
TAP	9	372	7
BRK	10	0	0
TAP	10	0	4
BRK	10	96	1
TAP	10	96	7
BRK	10	192	2
TAP	10	192	5
TAP	10	240	0
TAP	10	264	7
BRK	10	288	1
BRK	10	288	6
STR	11	0	2
SI_	11	0	2	96	48	6
TAP	11	48	7
TAP	11	96	3
TAP	11	144	4
TAP	11	192	5
TAP	11	216	7
TAP	11	240	5
TAP	11	264	0
TAP	11	288	5
TAP	11	336	2
TAP	11	336	6
STR	12	0	7
SI_	12	0	7	96	48	3
STR	12	48	3
SI_	12	48	3	96	48	6
XTP	12	96	2
XTP	12	144	2
TAP	12	192	1
TAP	12	216	0
TAP	12	240	7
TAP	12	264	6
BRK	12	288	5
TAP	13	0	1
TAP	13	0	4
TAP	13	24	2
TAP	13	48	3
TAP	13	96	3
TAP	13	96	6
TAP	13	120	5
TAP	13	144	4
TAP	13	168	3
TAP	13	168	6
TAP	13	216	0
TAP	13	216	7
TAP	13	264	2
TAP	13	288	3
TAP	13	336	1
TAP	13	336	4
STR	14	0	2
SI_	14	0	2	96	48	5
STR	14	48	7
SI_	14	48	7	96	48	2
STR	14	96	2
SCL	14	96	2	96	48	7
STR	14	144	7
SCL	14	144	7	96	48	4
TAP	14	192	3
BRK	14	288	0
TAP	15	0	1
TAP	15	0	5
TAP	15	48	2
TAP	15	72	2
TAP	15	96	4
TAP	15	120	4
TAP	15	144	3
TAP	15	168	3
TAP	15	192	5
TAP	15	208	4
TAP	15	224	5
TAP	15	240	4
TAP	15	264	6
TAP	15	288	3
TAP	15	312	5
TAP	15	336	2
TAP	15	360	4
HLD	16	0	1	48
TAP	16	48	5
TAP	16	72	4
HLD	16	96	6	48
TAP	16	144	2
TAP	16	168	3
STR	16	192	0
SI_	16	192	0	96	48	4
SI_	16	192	0	96	48	5
STR	17	0	6
SCR	17	0	6	96	48	1
TAP	17	48	6
STR	17	96	4
SCL	17	96	4	96	48	1
TAP	17	144	4
STR	17	192	0
SI_	17	192	0	96	48	4
TAP	17	240	0
XTP	17	288	7
HLD	18	0	6	48
HLD	18	48	5	48
HLD	18	96	4	48
HLD	18	144	3	48
HLD	18	192	2	48
HLD	18	240	1	48
STR	18	288	0
SSL	18	288	0	96	48	4
TAP	19	96	3
TAP	19	96	5
TAP	19	144	7
TAP	19	192	2
TAP	19	216	3
TAP	19	240	1
TAP	19	264	4
TAP	19	288	2
TAP	19	336	1
TAP	19	336	5
STR	20	0	0
SI_	20	0	0	96	48	4
STR	20	48	4
SI_	20	48	4	96	48	1
XTP	20	96	5
XTP	20	144	5
TAP	20	192	6
TAP	20	216	7
TAP	20	240	0
TAP	20	264	1
BRK	20	288	2
TAP	21	0	3
TAP	21	0	6
TAP	21	24	5
TAP	21	48	4
TAP	21	96	1
TAP	21	96	4
TAP	21	120	2
TAP	21	144	3
TAP	21	168	1
TAP	21	168	4
TAP	21	216	0
TAP	21	216	7
TAP	21	264	5
TAP	21	288	4
TAP	21	336	3
TAP	21	336	6
STR	22	0	5
SI_	22	0	5	96	48	2
STR	22	48	0
SI_	22	48	0	96	48	5
TAP	22	96	5
TAP	22	144	0
TAP	22	192	3
TAP	22	240	1
TAP	22	288	4
TAP	22	304	3
TAP	22	320	5
BRK	22	336	4
TAP	23	0	2
TAP	23	0	6
TAP	23	48	5
TAP	23	72	5
TAP	23	96	3
TAP	23	120	3
TAP	23	144	4
TAP	23	168	4
TAP	23	192	2
TAP	23	208	3
TAP	23	224	2
TAP	23	240	3
TAP	23	264	1
TAP	23	288	4
TAP	23	312	2
TAP	23	336	5
TAP	23	360	3
HLD	24	0	6	48
TAP	24	48	2
TAP	24	72	3
HLD	24	96	1	48
TAP	24	144	5
TAP	24	168	4
STR	24	192	7
SI_	24	192	7	96	48	2
SI_	24	192	7	96	48	3
TAP	25	0	1
TAP	25	0	4
TAP	25	96	3
TAP	25	96	6
TAP	25	192	0
TAP	25	216	7
TAP	25	240	0
TAP	25	264	7
TTP	25	288	0	C	0	M1
TTP	25	336	4	E	0	M1
TAP	26	0	2
TAP	26	0	5
TAP	26	48	7
TAP	26	96	2
STR	26	96	5
SUL	26	96	5	96	72	4
TAP	26	144	0
TAP	26	192	2
TAP	26	192	5
BRK	26	288	0
TAP	27	0	0
TAP	27	0	6
TAP	27	96	1
TAP	27	120	0
TAP	27	144	1
TAP	27	168	2
HLD	27	192	1	48
TAP	27	240	3
HLD	27	264	2	48
TAP	27	312	5
TAP	27	336	4
TAP	28	0	1
TAP	28	0	7
TAP	28	96	6
TAP	28	120	7
TAP	28	144	6
TAP	28	168	5
HLD	28	192	6	48
TAP	28	240	4
HLD	28	264	5	48
TAP	28	312	2
TAP	28	336	3
TAP	29	0	0
TAP	29	0	6
TAP	29	96	1
TAP	29	120	0
TAP	29	144	1
TAP	29	168	2
HLD	29	192	1	48
TAP	29	240	3
HLD	29	264	2	48
TAP	29	312	5
TAP	29	336	4
TAP	30	0	1
TAP	30	0	7
TAP	30	48	1
TAP	30	72	0
TAP	30	96	2
TAP	30	120	7
TAP	30	144	3
TAP	30	168	6
TAP	30	192	2
TAP	30	216	4
TAP	30	240	0
TAP	30	264	6
STR	30	288	7
SI_	30	288	7	96	24	4
TAP	30	312	7
TAP	30	336	7
TAP	30	360	7
TAP	31	0	7
STR	31	96	1
SI_	31	96	1	96	24	5
TAP	31	120	1
TAP	31	144	1
TAP	31	168	1
TAP	31	192	1
STR	31	288	6
SI_	31	288	6	96	24	2
TAP	31	312	6
TAP	31	336	6
TAP	31	360	6
TAP	32	0	6
TAP	32	48	0
TAP	32	96	0
TAP	32	120	6
TAP	32	144	1
TAP	32	168	7
TAP	32	216	0
TAP	32	216	1
TAP	32	264	2
TAP	32	264	3
TAP	32	312	4
TAP	32	312	5
TAP	32	360	6
TAP	32	360	7
TAP	33	0	1
TAP	33	16	2
TAP	33	32	3
TAP	33	48	6
TAP	33	64	5
TAP	33	80	4
TAP	33	96	0
TAP	33	112	1
TAP	33	128	2
TAP	33	144	7
TAP	33	160	6
TAP	33	176	5
TAP	33	192	0
TAP	33	224	0
TAP	33	256	0
TAP	33	288	1
TAP	33	288	5
TAP	33	320	2
TAP	33	320	6
HLD	33	352	3	92
HLD	33	352	7	92
STR	34	72	2
SI_	34	72	2	96	24	5
STR	34	72	6
SI_	34	72	6	96	24	1
TAP	34	84	1
TAP	34	84	5
TAP	34	96	0
TAP	34	96	4
TAP	34	168	2
TAP	34	168	6
TAP	34	240	3
TAP	34	240	7
BST	35	0	0
SCR	35	0	0	96	576	7
TAP	35	0	4
STR	37	0	7
SCL	37	0	7	96	480	1
STR	38	192	0
SI_	38	192	0	96	48	4
HLD	39	0	5	192
TAP	39	48	4
TAP	39	96	3
TAP	39	144	2
HLD	39	192	2	192
TAP	39	240	3
TAP	39	288	4
TAP	39	336	5
HLD	40	0	5	192
TAP	40	48	3
TAP	40	96	4
TAP	40	144	3
HLD	40	192	2	192
TAP	40	240	4
TAP	40	288	3
TAP	40	336	4
HLD	41	0	5	144
TAP	41	48	4
TAP	41	96	3
HLD	41	144	2	96
TAP	41	192	3
HLD	41	240	5	48
TAP	41	288	4
TAP	41	336	3
TAP	41	336	6
TAP	42	48	0
TAP	42	48	4
TAP	42	144	0
TAP	42	144	7
STR	42	192	1
SI_	42	192	1	96	48	4
STR	42	192	6
SI_	42	192	6	96	48	3
TAP	42	240	2
TAP	42	240	5
TAP	43	0	2
HLD	43	0	5	96
HLD	43	96	1	96
HLD	43	192	6	96
HLD	43	288	0	48
TAP	44	0	0
HLD	44	0	4	96
HLD	44	96	6	96
HLD	44	192	2	96
HLD	44	288	0	48
TAP	45	0	0
HLD	45	0	7	96
HLD	45	96	5	96
HLD	45	192	3	96
HLD	45	288	1	48
TAP	46	0	1
HLD	46	0	7	96
HLD	46	96	3	96
TAP	46	192	4
TTP	46	240	2	E	0	M1
TTP	46	288	0	C	0	M1
TTP	46	336	6	E	0	M1
TAP	47	0	0
TAP	47	0	7
TAP	47	48	0
TAP	47	96	0
TAP	47	96	1
TAP	47	144	1
TAP	47	192	1
TAP	47	192	2
TAP	47	240	2
TAP	47	288	2
TAP	47	288	3
TAP	47	336	3
TAP	48	0	3
TAP	48	0	4
TAP	48	48	4
TAP	48	96	4
TAP	48	96	5
TAP	48	144	5
TAP	48	192	5
TAP	48	192	6
TAP	48	240	6
TAP	48	288	6
TAP	48	288	7
TAP	48	336	7
HLD	49	0	1	24
HLD	49	0	6	24
HLD	49	96	3	24
HLD	49	96	4	24
TAP	49	192	0
TAP	49	216	7
TAP	49	240	1
TAP	49	264	6
TAP	49	288	3
TAP	49	312	4
TAP	49	336	2
TAP	49	360	5
BRK	50	0	0
BRK	50	96	1
TAP	50	96	4
BRK	50	192	2
STR	50	192	7
SF_	50	192	7	96	48	3
XTP	50	240	1
BRK	50	288	7
TAP	51	0	0
TAP	51	24	0
TAP	51	48	3
STR	51	72	1
SI_	51	72	1	96	24	6
TAP	51	96	7
TAP	51	120	4
TAP	51	144	6
TAP	51	168	1
TAP	51	240	4
TAP	51	288	0
TAP	51	312	7
TAP	51	336	1
HLD	51	360	0	48
TAP	52	24	5
TAP	52	48	6
TAP	52	72	3
TAP	52	96	4
TAP	52	120	1
TAP	52	144	2
TAP	52	168	0
TAP	52	192	6
TAP	52	216	7
TAP	52	240	5
TAP	52	264	1
TAP	52	288	4
TAP	52	312	3
TAP	52	336	2
TAP	52	336	5
TAP	53	0	7
TAP	53	24	7
TAP	53	48	4
STR	53	72	6
SI_	53	72	6	96	24	1
TAP	53	96	0
TAP	53	120	3
TAP	53	144	1
TAP	53	168	6
TAP	53	240	3
TAP	53	288	5
TAP	53	312	4
TAP	53	336	7
STR	53	360	0
SI_	53	360	0	96	24	4
TAP	54	0	3
TAP	54	24	2
TAP	54	48	6
TAP	54	72	0
TAP	54	144	6
TAP	54	168	7
TAP	54	192	4
TAP	54	216	3
TAP	54	240	0
TAP	54	264	1
XTP	54	288	6
XTP	54	304	5
XTP	54	320	4
XTP	54	336	0
XTP	54	352	1
XTP	54	368	2
TAP	55	0	7
TAP	55	24	7
TAP	55	48	4
STR	55	72	6
SI_	55	72	6	96	24	1
TAP	55	96	0
TAP	55	120	3
TAP	55	144	1
TAP	55	168	6
TAP	55	240	3
TAP	55	288	7
TAP	55	312	1
TAP	55	336	6
HLD	55	360	7	48
TAP	56	24	2
TAP	56	48	1
TAP	56	72	4
TAP	56	96	3
TAP	56	120	6
TAP	56	144	5
TAP	56	168	7
TAP	56	192	1
TAP	56	216	0
TAP	56	240	2
TAP	56	264	6
STR	56	288	3
SCL	56	288	3	96	144	4
STR	56	312	4
SXL	56	312	4	96	120	3
TAP	56	336	2
TAP	56	336	5
XTP	57	192	1
XTP	57	192	5
TAP	57	288	1
TAP	57	312	3
TAP	57	336	2
TAP	57	360	3
TAP	58	0	1
TAP	58	0	4
TAP	58	48	5
TAP	58	72	4
TAP	58	96	3
TAP	58	96	6
TAP	58	144	2
TAP	58	168	3
STR	58	192	0
SI_	58	192	0	96	48	3
SI_	58	192	0	96	48	5
TAP	58	192	4
TAP	58	224	0
TAP	58	256	0
BRK	58	288	0
TAP	59	0	6
TAP	59	24	6
TAP	59	48	4
STR	59	72	5
SI_	59	72	5	96	24	0
TAP	59	96	1
TAP	59	120	3
TAP	59	144	2
TAP	59	168	5
TAP	59	240	3
TAP	59	288	6
TAP	59	312	7
TAP	59	336	5
HLD	59	360	4	48
TAP	60	24	1
TAP	60	48	2
TAP	60	72	7
TAP	60	96	0
TAP	60	120	5
TAP	60	144	6
TAP	60	168	4
TAP	60	192	2
TAP	60	216	3
TAP	60	240	1
TAP	60	264	4
TAP	60	288	0
TAP	60	312	7
TAP	60	336	1
TAP	60	336	6
TAP	61	0	0
TAP	61	24	0
TAP	61	48	3
STR	61	72	2
SI_	61	72	2	96	24	7
TAP	61	96	7
TAP	61	120	4
TAP	61	144	6
TAP	61	168	2
TAP	61	240	4
TAP	61	288	2
TAP	61	312	3
TAP	61	336	0
STR	61	360	7
SI_	61	360	7	96	24	3
TAP	62	0	4
TAP	62	24	5
TAP	62	48	1
TAP	62	72	7
TAP	62	144	1
TAP	62	168	0
TAP	62	192	3
TAP	62	216	4
TAP	62	240	7
TAP	62	264	6
XTP	62	288	1
XTP	62	304	2
XTP	62	320	3
XTP	62	336	7
XTP	62	352	6
XTP	62	368	5
TAP	63	0	0
TAP	63	24	0
TAP	63	48	3
STR	63	72	2
SI_	63	72	2	96	24	7
TAP	63	96	7
TAP	63	120	4
TAP	63	144	6
TAP	63	168	2
TAP	63	240	4
TAP	63	288	1
TAP	63	312	0
TAP	63	336	2
HLD	63	360	3	48
TAP	64	24	6
TAP	64	48	5
TAP	64	72	0
TAP	64	96	7
TAP	64	120	2
TAP	64	144	1
TAP	64	168	3
TAP	64	192	4
TAP	64	216	7
TAP	64	240	6
TAP	64	264	1
STR	64	288	4
SCR	64	288	4	96	144	3
STR	64	312	3
SXR	64	312	3	96	120	4
TAP	64	336	2
TAP	64	336	5
XTP	65	192	2
XTP	65	192	6
TAP	65	288	3
TAP	65	288	7
TAP	65	320	2
TAP	65	320	6
TAP	65	352	1
TAP	65	352	5
TAP	66	0	0
TAP	66	0	4
TAP	66	48	1
TAP	66	64	2
TAP	66	80	3
TAP	66	96	4
TAP	66	96	7
TAP	66	144	6
TAP	66	160	5
TAP	66	176	4
STR	66	192	0
SV_	66	192	0	96	48	3
SV_	66	192	0	96	48	5
TAP	66	192	3
TAP	66	224	0
TAP	66	256	0
BRK	66	288	0
STR	67	0	1
SV_	67	0	1	96	24	4
TAP	67	24	0
TAP	67	48	2
TAP	67	72	0
TAP	67	96	1
TAP	67	120	6
TAP	67	144	7
TAP	67	168	0
TAP	67	192	2
TAP	67	216	3
TAP	67	240	0
TAP	67	264	5
STR	67	288	1
SI_	67	288	1	96	48	5
TAP	67	312	7
TAP	67	336	3
TAP	67	360	5
STR	68	0	1
SCL	68	0	1	96	48	6
TAP	68	48	7
TAP	68	72	7
STR	68	96	1
SCR	68	96	1	96	48	4
TAP	68	144	3
TAP	68	168	3
TAP	68	192	1
TAP	68	240	0
TAP	68	264	0
TAP	68	288	2
TAP	68	304	3
TAP	68	320	2
TAP	68	336	4
TAP	68	360	1
STR	69	0	6
SV_	69	0	6	96	24	3
TAP	69	24	7
TAP	69	48	5
TAP	69	72	7
TAP	69	96	6
TAP	69	120	1
TAP	69	144	0
TAP	69	168	7
TAP	69	192	5
TAP	69	216	4
TAP	69	240	6
TAP	69	264	1
TAP	69	288	3
TAP	69	312	2
TAP	69	360	3
TAP	69	360	7
TAP	70	24	6
TAP	70	48	7
TAP	70	96	4
TAP	70	96	5
TAP	70	144	2
TAP	70	144	3
TAP	70	192	1
TAP	70	216	0
TAP	70	240	2
TAP	70	264	7
BRK	70	288	3
BRK	70	288	6
BRK	70	336	1
BRK	70	336	4
STR	71	0	5
SV_	71	0	5	96	24	0
TAP	71	24	4
TAP	71	48	6
TAP	71	72	4
TAP	71	96	5
TAP	71	120	2
TAP	71	144	3
TAP	71	168	4
TAP	71	192	7
TAP	71	216	0
TAP	71	240	5
TAP	71	264	3
STR	71	288	6
SI_	71	288	6	96	48	2
TAP	71	312	0
TAP	71	336	4
TAP	71	360	2
STR	72	0	6
SCR	72	0	6	96	48	1
TAP	72	48	0
TAP	72	72	0
STR	72	96	6
SCL	72	96	6	96	48	3
TAP	72	144	4
TAP	72	168	4
TAP	72	192	6
TAP	72	240	7
TAP	72	264	7
TAP	72	288	5
TAP	72	304	4
TAP	72	320	5
TAP	72	336	3
TAP	72	360	6
HLD	73	0	1	48
TAP	73	48	3
HLD	73	72	2	48
TAP	73	120	6
TAP	73	144	4
TAP	73	192	6
TAP	73	192	7
TAP	73	240	0
TAP	73	240	5
TAP	73	288	6
TAP	73	312	3
TAP	73	336	4
BRK	73	360	0
TAP	74	48	0
TAP	74	48	6
TAP	74	96	2
TAP	74	96	7
TAP	74	144	1
TAP	74	144	5
TAP	74	192	3
TAP	74	192	7
TAP	74	224	2
TAP	74	224	6
TAP	74	256	1
TAP	74	256	5
TAP	74	288	0
TAP	74	300	7
TAP	74	312	6
TAP	74	324	5
TAP	74	336	4
TAP	74	348	3
TAP	74	360	2
TAP	74	372	1
STR	75	0	0
SI_	75	0	0	96	24	4
TAP	75	0	4
BRK	75	96	0
BRK	75	96	7
TAP	75	192	6
TAP	75	216	4
TAP	75	240	5
TAP	75	264	3
STR	75	288	7
SI_	75	288	7	96	48	3
TAP	75	312	1
TAP	75	336	6
TAP	75	360	0
STR	76	0	7
SCR	76	0	7	96	48	2
TAP	76	48	1
TAP	76	72	1
STR	76	96	7
SCL	76	96	7	96	48	4
TAP	76	144	5
TAP	76	168	5
TAP	76	192	7
TAP	76	240	0
TAP	76	264	0
TAP	76	288	5
TAP	76	304	4
TAP	76	320	5
TAP	76	336	3
TAP	76	360	6
STR	77	0	2
SV_	77	0	2	96	24	7
TAP	77	24	3
TAP	77	48	1
TAP	77	72	3
TAP	77	96	2
TAP	77	120	5
TAP	77	144	4
TAP	77	168	3
TAP	77	192	1
TAP	77	216	0
TAP	77	240	2
TAP	77	264	6
TAP	77	288	4
TAP	77	312	5
TAP	77	360	0
TAP	77	360	4
TAP	78	24	1
TAP	78	48	0
TAP	78	96	2
TAP	78	96	3
TAP	78	144	4
TAP	78	144	5
TAP	78	192	6
TAP	78	216	7
TAP	78	240	5
TAP	78	264	0
BRK	78	288	1
BST	78	288	4
SSR	78	288	4	96	144	0
BRK	78	336	3
BRK	78	336	6
HLD	79	0	2	144
HLD	79	192	3	48
HLD	79	192	6	48
HLD	79	264	1	48
HLD	79	264	4	48
TAP	79	336	0
TAP	79	336	7
TAP	80	0	3
TAP	80	0	4
TAP	80	48	2
TAP	80	72	1
TAP	80	72	3
TAP	80	120	5
TAP	80	144	4
TAP	80	144	6
TAP	80	192	0
TAP	80	192	7
TAP	80	240	3
TAP	80	264	4
TAP	80	288	1
TAP	80	288	6
TAP	81	0	0
HLD	81	0	4	144
TAP	81	144	1
TAP	81	160	2
TAP	81	176	3
TAP	81	192	4
BRK	81	192	7
TAP	81	240	3
TAP	81	240	4
TAP	81	288	1
TAP	81	288	5
TAP	81	336	0
TAP	81	336	4
HLD	81	360	0	216
TAP	81	360	4
BRK	82	48	5
BRK	82	96	3
BRK	82	144	1
BST	82	192	2
SI_	82	192	2	96	24	6
TAP	82	208	3
TAP	82	224	4
TAP	82	240	5
TAP	82	256	6
TAP	82	272	7
STR	82	288	0
SCL	82	288	0	96	576	0
SCR	82	288	0	96	576	0
BRK	82	288	2
STR	85	0	1
SI_	85	0	1	96	192	6
STR	85	0	5
SI_	85	0	5	96	192	2
TAP	86	0	3
TAP	86	0	4
TAP	86	48	2
TAP	86	72	3
TAP	86	96	1
TAP	86	144	6
TAP	86	168	7
TAP	86	216	1
STR	86	240	0
SF_	86	240	0	96	24	4
TAP	86	288	2
TAP	86	288	6

T_REC_TAP	697
T_REC_BRK	31
T_REC_XTP	24
T_REC_HLD	57
T_REC_XHO	0
T_REC_STR	66
T_REC_BST	4
T_REC_XST	0
T_REC_TTP	35
T_REC_THO	1
T_REC_SLD	75
T_REC_ALL	990
T_NUM_TAP	822
T_NUM_BRK	35
T_NUM_HLD	58
T_NUM_SLD	75
T_NUM_ALL	990
T_JUDGE_TAP	857
T_JUDGE_HLD	106
T_JUDGE_SLD	75
T_JUDGE_ALL	1038
TTM_EACHPAIRS	117
TTM_SCR_TAP	411000
TTM_SCR_BRK	91000
TTM_SCR_HLD	58000
TTM_SCR_SLD	112500
TTM_SCR_ALL	672500
TTM_SCR_S	648950
TTM_SCR_SS	669000
TTM_RAT_ACV	10052

