VERSION	0.00.00	1.03.00
FES_MODE	0
BPM_DEF	155.000	155.000	155.000	155.000
MET_DEF	4	4
RESOLUTION	384
CLK_DEF	384
COMPATIBLE_CODE	MA2

BPM	0	0	155.000
MET	0	0	4	4

XTP	3	0	2
XTP	3	0	4
XHO	3	72	2	264
XHO	3	72	4	264
TAP	4	0	2
STR	4	0	4
SUL	4	0	4	96	192	3
XTP	5	0	2
XTP	5	0	4
XHO	5	72	3	264
XHO	5	72	5	264
TAP	6	0	3
STR	6	0	5
SUL	6	0	5	96	240	2
TAP	7	0	1
TAP	7	48	1
TAP	7	96	3
TAP	7	144	3
TAP	7	192	2
TAP	7	288	3
TAP	7	288	4
TAP	8	0	6
TAP	8	48	6
TAP	8	96	4
TAP	8	144	4
TAP	8	192	5
TAP	8	288	3
TAP	8	288	4
TAP	9	0	2
TAP	9	48	2
TAP	9	96	5
TAP	9	144	5
TAP	9	192	1
TAP	9	240	1
HLD	9	288	7	288
XTP	10	0	0
XTP	10	96	1
XTP	10	192	2
BRK	10	288	1
BRK	10	288	5
TAP	11	0	2
TAP	11	48	2
TAP	11	96	3
TAP	11	144	3
TAP	11	192	1
TAP	11	240	2
TAP	11	288	4
TAP	11	336	5
TAP	12	0	0
TAP	12	48	1
TAP	12	96	6
TAP	12	144	5
TAP	12	192	3
TAP	12	240	2
TAP	12	288	1
TAP	12	288	4
XTP	13	0	3
XTP	13	0	5
XTP	13	96	2
XTP	13	96	4
XHO	13	168	1	72
XHO	13	168	5	72
XTP	13	288	1
XTP	13	288	5
TAP	14	0	0
TAP	14	48	0
TAP	14	96	7
TAP	14	144	7
TAP	14	192	4
TAP	14	240	4
XTP	14	288	4
XTP	14	288	5
TAP	15	0	2
TAP	15	48	2
TAP	15	96	3
TAP	15	144	1
TAP	15	192	5
TAP	15	240	5
TAP	15	288	4
TAP	15	336	6
TAP	16	0	3
TAP	16	48	3
TAP	16	96	7
TAP	16	144	7
TAP	16	192	4
TAP	16	240	5
XTP	16	288	2
XTP	16	288	6
HLD	17	0	1	96
HLD	17	96	3	96
HLD	17	192	4	96
STR	17	288	5
SCR	17	288	5	96	192	2
XTP	18	288	3
XTP	18	288	4
TAP	19	0	0
TAP	19	0	7
TAP	19	48	1
TAP	19	48	6
BRK	19	96	2
BRK	19	96	5
TAP	19	192	6
TAP	19	240	6
TAP	19	288	4
TAP	19	336	4
TAP	20	0	6
TAP	20	48	5
TAP	20	96	2
TAP	20	144	1
TAP	20	192	4
TAP	20	240	5
TAP	20	288	3
TAP	20	288	6
XTP	21	0	2
XTP	21	0	4
XTP	21	96	3
XTP	21	96	5
XHO	21	168	2	72
XHO	21	168	6	72
XTP	21	288	2
XTP	21	288	6
TAP	22	0	1
TAP	22	48	1
TAP	22	96	3
TAP	22	144	3
STR	22	192	0
SI_	22	192	0	96	48	4
TAP	23	0	5
TAP	23	48	5
TAP	23	96	4
TAP	23	144	6
TAP	23	192	1
TAP	23	240	1
TAP	23	288	3
TAP	23	336	2
TAP	24	0	4
TAP	24	48	5
TAP	24	96	1
TAP	24	144	2
TAP	24	192	7
TAP	24	240	6
XTP	24	288	4
XTP	24	288	5
XST	25	0	1
SI_	25	0	1	96	48	4
XST	25	0	6
SI_	25	0	6	96	48	3
XTP	25	192	2
XTP	25	192	5
STR	25	288	1
SLR	25	288	1	96	192	0
STR	25	288	6
SLL	25	288	6	96	192	7
TAP	26	288	1
TAP	26	288	6
BST	27	0	2
SI_	27	0	2	96	48	7
TAP	27	0	3
HLD	27	192	6	72
HLD	27	264	5	72
TAP	27	336	4
STR	28	0	4
SI_	28	0	4	96	48	0
HLD	28	192	1	72
HLD	28	264	2	72
TAP	28	336	3
STR	29	0	3
SI_	29	0	3	96	48	7
HLD	29	192	6	72
HLD	29	264	5	72
TAP	29	336	4
TAP	30	0	3
TAP	30	0	4
TAP	30	96	2
TAP	30	144	2
XTP	30	192	1
XTP	30	192	3
XTP	30	264	3
XTP	30	264	4
XTP	30	336	4
XTP	30	336	6
BRK	31	0	4
BST	31	0	6
SI_	31	0	6	96	48	2
BST	31	192	1
SI_	31	192	1	96	48	5
BRK	31	192	3
XTP	32	0	6
XTP	32	0	7
XHO	32	96	4	48
XHO	32	96	5	48
XHO	32	168	3	48
XHO	32	168	4	48
XHO	32	240	2	48
XHO	32	240	3	48
XST	32	312	2
SCL	32	312	2	96	264	5
XTP	32	312	3
XTP	34	0	3
XTP	34	0	4
XTP	34	96	0
XTP	34	96	1
XTP	34	168	6
XTP	34	168	7
XTP	34	240	0
XTP	34	240	5
BRK	34	288	0
BST	34	288	5
SCR	34	288	5	96	768	3
TTP	35	0	0	C	1	M1
STR	39	0	5
SUL	39	0	5	96	288	3
STR	40	0	1
SUR	40	0	1	96	288	3
STR	41	0	7
SUL	41	0	7	96	288	4
THO	42	0	0	192	C	0	M1
TTP	42	192	1	B	0	M1
TTP	42	192	6	B	0	M1
TTP	43	0	0	E	0	M1
TTP	43	96	0	C	0	M1
TTP	43	192	4	E	0	M1
TTP	43	288	2	E	0	M1
TTP	43	288	3	E	0	M1
TTP	44	0	0	E	0	M1
TTP	44	96	0	C	0	M1
TTP	44	192	4	E	0	M1
TTP	44	288	5	E	0	M1
TTP	44	288	6	E	0	M1
TTP	45	0	0	C	0	M1
TTP	45	96	4	E	0	M1
TTP	45	192	2	B	0	M1
TTP	45	192	3	E	0	M1
TTP	45	288	5	B	0	M1
TTP	45	288	5	E	0	M1
TTP	46	0	4	E	0	M1
TTP	46	96	0	C	0	M1
XTP	46	192	0
XTP	46	192	7
TAP	47	0	4
XTP	47	0	5
TAP	47	48	5
TAP	47	96	3
TAP	47	144	3
TAP	47	192	4
TAP	47	240	4
TAP	47	288	2
TAP	47	336	2
TAP	48	0	5
TAP	48	48	5
TAP	48	96	1
TAP	48	144	1
TAP	48	192	6
TAP	48	240	6
TAP	48	288	0
TAP	48	336	0
XTP	49	0	1
XTP	49	0	4
XTP	49	96	3
XTP	49	96	6
TAP	49	192	2
TAP	49	192	5
TAP	49	240	2
TAP	49	240	5
XTP	49	288	2
XHO	49	288	5	288
XTP	50	0	0
XTP	50	96	1
XTP	50	192	2
BRK	50	288	0
BRK	50	288	7
STR	51	0	1
SI_	51	0	1	96	48	4
TAP	51	48	1
STR	51	96	5
SI_	51	96	5	96	48	0
TAP	51	144	5
TAP	51	192	2
TAP	51	288	3
TAP	51	288	7
STR	52	0	6
SI_	52	0	6	96	48	3
TAP	52	48	6
STR	52	96	2
SI_	52	96	2	96	48	7
TAP	52	144	2
TAP	52	192	5
TAP	52	288	0
TAP	52	288	4
TAP	53	0	3
TAP	53	0	5
TAP	53	48	4
TAP	53	96	1
TAP	53	96	3
TAP	53	192	2
TAP	53	192	4
TAP	53	240	3
TAP	53	288	4
TAP	53	288	6
TAP	54	0	5
TAP	54	24	4
TAP	54	48	5
TAP	54	96	2
TAP	54	120	3
TAP	54	144	2
TAP	54	192	0
TAP	54	192	1
TAP	54	240	2
TAP	54	240	7
BRK	54	288	3
BRK	54	288	6
STR	55	0	1
SI_	55	0	1	96	48	4
TAP	55	48	1
STR	55	96	5
SI_	55	96	5	96	48	0
TAP	55	144	5
TAP	55	192	3
TAP	55	240	2
TAP	55	288	1
TAP	55	288	7
STR	56	0	6
SI_	56	0	6	96	48	3
TAP	56	48	6
STR	56	96	2
SI_	56	96	2	96	48	7
TAP	56	144	2
TAP	56	192	4
TAP	56	240	5
TAP	56	288	0
TAP	56	288	6
STR	57	0	4
SI_	57	0	4	96	48	0
TAP	57	0	5
TAP	57	192	2
STR	57	192	3
SI_	57	192	3	96	48	7
XTP	58	0	0
XTP	58	0	6
XTP	58	96	4
XTP	58	96	5
XTP	58	192	2
XTP	58	224	2
XTP	58	256	3
BRK	58	288	1
BRK	58	288	4
STR	59	0	5
SI_	59	0	5	96	48	0
TAP	59	48	5
STR	59	96	1
SI_	59	96	1	96	48	4
TAP	59	144	1
TAP	59	192	7
TAP	59	240	6
TAP	59	288	3
TAP	59	288	5
STR	60	0	2
SI_	60	0	2	96	48	7
TAP	60	48	2
STR	60	96	6
SI_	60	96	6	96	48	3
TAP	60	144	6
TAP	60	192	0
TAP	60	240	1
TAP	60	288	2
TAP	60	288	4
TAP	61	0	4
TAP	61	0	5
TAP	61	48	6
TAP	61	96	3
TAP	61	96	7
TAP	61	192	2
TAP	61	192	3
TAP	61	240	1
TAP	61	288	0
TAP	61	288	4
TAP	62	0	2
TAP	62	24	3
TAP	62	48	2
TAP	62	96	5
TAP	62	120	4
TAP	62	144	5
TAP	62	192	6
TAP	62	192	7
TAP	62	240	0
TAP	62	240	5
BRK	62	288	1
BRK	62	288	4
STR	63	0	5
SI_	63	0	5	96	48	0
TAP	63	48	5
STR	63	96	1
SI_	63	96	1	96	48	4
TAP	63	144	1
TAP	63	192	7
TAP	63	240	6
TAP	63	288	3
TAP	63	288	5
STR	64	0	2
SI_	64	0	2	96	48	7
TAP	64	48	2
STR	64	96	6
SI_	64	96	6	96	48	3
TAP	64	144	6
TAP	64	192	0
TAP	64	240	1
TAP	64	288	2
TAP	64	288	4
STR	65	0	4
SI_	65	0	4	96	48	0
STR	65	0	5
SI_	65	0	5	96	48	7
STR	65	192	2
SI_	65	192	2	96	48	0
STR	65	192	3
SI_	65	192	3	96	48	7
XTP	66	0	0
XTP	66	0	7
XTP	66	96	3
XTP	66	96	6
XTP	66	192	2
XTP	66	224	2
XTP	66	256	3
BRK	66	288	1
BRK	66	288	4
TAP	67	0	2
TAP	67	0	6
STR	67	48	6
SCL	67	48	6	96	48	3
TAP	67	96	7
TAP	67	144	7
TAP	67	192	0
TAP	67	240	1
TAP	67	288	2
TAP	67	288	3
TAP	68	0	1
TAP	68	0	5
STR	68	48	1
SCR	68	48	1	96	48	4
TAP	68	96	0
TAP	68	144	0
TAP	68	192	7
TAP	68	240	6
TAP	68	288	4
TAP	68	288	5
STR	69	0	7
SI_	69	0	7	96	48	3
TAP	69	48	7
STR	69	96	0
SI_	69	96	0	96	48	2
TAP	69	144	0
STR	69	192	6
SI_	69	192	6	96	48	4
TAP	69	240	6
TAP	69	288	3
TAP	70	0	2
TAP	70	0	3
TAP	70	48	1
TAP	70	72	0
TAP	70	96	1
TAP	70	144	6
TAP	70	168	7
TAP	70	192	6
TAP	70	240	0
TAP	70	240	5
BRK	70	288	0
BRK	70	288	5
TAP	71	0	1
TAP	71	0	5
STR	71	48	1
SCR	71	48	1	96	48	4
TAP	71	96	0
TAP	71	144	0
TAP	71	192	7
TAP	71	240	6
TAP	71	288	4
TAP	71	288	5
TAP	72	0	2
TAP	72	0	6
STR	72	48	6
SCL	72	48	6	96	48	3
TAP	72	96	7
TAP	72	144	7
TAP	72	192	0
TAP	72	240	1
TAP	72	288	2
TAP	72	288	3
TAP	73	0	1
TAP	73	0	4
TAP	73	48	5
TAP	73	96	2
TAP	73	96	6
TAP	73	144	1
STR	73	192	0
SI_	73	192	0	96	48	4
XTP	74	0	3
TAP	74	0	5
TAP	74	96	2
XTP	74	96	6
XTP	74	192	0
XTP	74	224	0
XTP	74	256	7
XST	74	288	1
SI_	74	288	1	96	48	4
XST	74	288	6
SI_	74	288	6	96	48	3
BRK	75	96	2
BRK	75	96	6
STR	75	192	1
SI_	75	192	1	96	48	4
TAP	75	240	1
STR	75	288	5
SI_	75	288	5	96	48	0
TAP	75	336	5
STR	76	0	2
SI_	76	0	2	96	48	7
TAP	76	48	2
STR	76	96	6
SI_	76	96	6	96	48	3
TAP	76	144	6
STR	76	192	1
SI_	76	192	1	96	48	4
TAP	76	240	1
BRK	76	288	5
TAP	77	0	6
TAP	77	0	7
TAP	77	48	5
TAP	77	72	4
TAP	77	96	5
TAP	77	144	2
TAP	77	168	3
TAP	77	192	2
TAP	77	240	6
TAP	77	264	5
TAP	77	288	6
TAP	77	336	1
TAP	77	360	0
TAP	78	0	1
TAP	78	48	2
TAP	78	48	7
TAP	78	96	3
TAP	78	96	6
TAP	78	144	4
TAP	78	144	5
TAP	78	192	2
TAP	78	192	3
TAP	78	240	1
TAP	78	240	4
BRK	78	288	0
BRK	78	288	5
XST	79	0	2
SI_	79	0	2	96	48	0
XST	79	0	7
SI_	79	0	7	96	48	3
XST	79	192	0
SI_	79	192	0	96	48	4
XST	79	192	5
SI_	79	192	5	96	48	7
XTP	80	0	4
XTP	80	0	7
XTP	80	72	2
XTP	80	72	5
XTP	80	144	0
XTP	80	144	3
BST	80	192	0
SI_	80	192	0	96	48	4
BRK	80	192	3
BST	80	288	7
SCL	80	288	7	96	288	1
BRK	81	0	3
TAP	82	0	0
TAP	82	0	7
TAP	82	48	0
TAP	82	48	7
TAP	82	96	1
TAP	82	96	6
TAP	82	144	2
TAP	82	144	5
XTP	82	192	3
XTP	82	192	4
XTP	82	224	3
XTP	82	224	4
XTP	82	256	3
XTP	82	256	4
XTP	82	288	2
XTP	82	288	5
BST	83	0	1
SCL	83	0	1	96	672	3
BRK	83	0	6
STR	85	0	5
SCR	85	0	5	96	480	3
STR	86	192	4
SI_	86	192	4	96	48	0

T_REC_TAP	301
T_REC_BRK	27
T_REC_XTP	90
T_REC_HLD	10
T_REC_XHO	15
T_REC_STR	48
T_REC_BST	7
T_REC_XST	9
T_REC_TTP	21
T_REC_THO	1
T_REC_SLD	64
T_REC_ALL	593
T_NUM_TAP	469
T_NUM_BRK	34
T_NUM_HLD	26
T_NUM_SLD	64
T_NUM_ALL	593
T_JUDGE_TAP	503
T_JUDGE_HLD	72
T_JUDGE_SLD	64
T_JUDGE_ALL	639
TTM_EACHPAIRS	126
TTM_SCR_TAP	234500
TTM_SCR_BRK	88400
TTM_SCR_HLD	26000
TTM_SCR_SLD	96000
TTM_SCR_ALL	444900
TTM_SCR_S	428300
TTM_SCR_SS	441500
TTM_RAT_ACV	10077

