VERSION	0.00.00	1.03.00
FES_MODE	0
BPM_DEF	155.000	155.000	155.000	155.000
MET_DEF	4	4
RESOLUTION	384
CLK_DEF	384
COMPATIBLE_CODE	MA2

BPM	0	0	155.000
MET	0	0	4	4

STR	3	0	7
SXR	3	0	7	96	480	3
STR	5	0	1
SXL	5	0	1	96	480	5
TAP	7	0	6
TAP	7	96	6
TAP	7	192	5
TAP	7	288	5
TAP	8	0	4
TAP	8	96	4
TAP	8	192	3
TAP	8	288	3
TAP	9	0	2
TAP	9	48	2
TAP	9	96	2
TAP	9	192	1
TAP	9	240	1
TAP	9	288	1
XTP	10	0	0
XTP	10	0	7
XTP	10	96	1
XTP	10	96	6
XTP	10	192	2
XTP	10	192	5
BRK	10	288	3
BRK	10	288	4
HLD	11	0	2	96
TAP	11	96	3
TAP	11	192	2
TAP	11	192	3
TAP	12	0	5
TAP	12	96	5
TAP	12	192	4
TAP	12	192	5
TAP	13	0	2
TAP	13	0	3
TAP	13	96	2
TAP	13	96	3
XTP	13	192	1
XTP	13	192	4
HLD	14	0	5	96
TAP	14	96	4
TAP	14	192	4
TAP	14	192	5
TAP	14	288	3
TAP	14	288	6
STR	15	0	7
SUL	15	0	7	96	192	3
TAP	16	0	2
TAP	16	96	2
TAP	16	192	2
TAP	16	192	3
HLD	17	0	5	96
TAP	17	96	4
TAP	17	192	4
TAP	17	192	5
TAP	17	288	3
STR	17	288	6
SSR	17	288	6	96	240	2
HLD	19	0	1	96
TAP	19	96	0
TAP	19	192	0
TAP	19	192	1
TAP	20	0	6
TAP	20	96	6
TAP	20	192	6
TAP	20	192	7
TAP	21	0	0
TAP	21	0	1
TAP	21	96	0
TAP	21	96	1
XTP	21	192	2
XTP	21	192	7
HLD	22	0	6	96
TAP	22	96	7
TAP	22	192	6
TAP	22	192	7
TAP	22	288	0
TAP	22	288	5
STR	23	0	4
SCR	23	0	4	96	192	0
TAP	24	0	1
TAP	24	96	1
TAP	24	192	0
TAP	24	192	1
TAP	25	0	0
TAP	25	0	7
TAP	25	96	1
TAP	25	96	6
TAP	25	192	2
TAP	25	192	5
STR	25	288	3
SCL	25	288	3	96	192	0
STR	25	288	4
SCR	25	288	4	96	192	7
TTP	26	288	0	C	1	L1
TTP	27	0	0	B	0	L1
TTP	27	0	1	E	0	L1
TTP	27	192	2	B	0	L1
TTP	27	192	3	E	0	L1
TTP	28	0	5	E	0	L1
TTP	28	96	5	B	0	L1
TTP	28	192	6	B	0	L1
TTP	29	0	0	B	0	L1
TTP	29	0	1	E	0	L1
TTP	29	192	2	B	0	L1
TTP	29	192	3	E	0	L1
TTP	30	0	5	B	0	L1
TTP	30	96	6	B	0	L1
TTP	30	192	0	C	0	L1
TTP	31	0	0	B	0	L1
TTP	31	0	1	B	0	L1
TTP	31	192	2	B	0	L1
TTP	31	192	3	B	0	L1
TTP	32	0	4	B	0	L1
TTP	32	0	5	B	0	L1
TTP	32	192	6	B	0	L1
TTP	32	192	7	B	0	L1
TAP	33	0	0
TAP	33	48	0
TAP	33	96	0
TAP	33	192	7
TAP	33	240	7
TAP	33	288	7
BRK	34	0	0
BRK	34	0	7
XTP	34	96	0
XTP	34	96	7
XTP	34	168	0
XTP	34	168	7
XTP	34	240	0
XTP	34	240	7
STR	35	0	1
SCR	35	0	1	96	480	6
STR	37	0	7
SCL	37	0	7	96	480	2
HLD	39	0	1	192
HLD	39	192	0	192
HLD	40	0	7	192
TAP	40	192	6
HLD	41	0	5	192
HLD	41	192	4	192
XTP	42	0	5
XTP	42	96	3
XTP	42	96	4
BRK	42	192	2
BRK	42	192	5
TAP	43	0	6
TAP	43	96	6
TAP	43	192	7
TAP	43	288	7
TAP	44	0	0
TAP	44	96	0
TAP	44	192	1
TAP	44	192	7
TAP	45	0	2
TAP	45	96	2
TAP	45	192	3
TAP	45	288	3
TAP	46	0	4
TAP	46	96	4
TAP	46	192	3
TAP	46	192	5
TAP	46	288	2
TAP	46	288	6
TAP	47	0	1
TAP	47	96	0
TAP	47	192	7
TAP	47	288	6
TAP	48	0	5
TAP	48	96	4
TAP	48	192	3
TAP	48	288	2
XTP	49	0	0
XTP	49	0	1
XTP	49	96	6
XTP	49	96	7
TAP	49	192	0
TAP	49	192	7
TAP	49	288	1
TAP	49	288	6
TAP	50	0	0
TAP	50	0	7
TAP	50	96	1
TAP	50	96	6
TAP	50	192	2
TAP	50	192	5
BRK	50	288	3
BRK	50	288	4
TAP	51	0	2
TAP	51	96	2
TAP	51	96	3
TAP	51	192	5
TAP	51	288	4
TAP	51	288	5
TAP	52	0	6
TAP	52	96	6
TAP	52	96	7
TAP	52	192	0
TAP	52	192	5
TAP	53	0	1
TAP	53	96	0
TAP	53	96	1
TAP	53	192	6
TAP	53	288	6
TAP	53	288	7
TAP	54	0	5
TAP	54	96	4
TAP	54	96	5
XTP	54	192	3
XTP	54	192	4
TAP	55	0	5
TAP	55	96	4
TAP	55	96	5
TAP	55	192	2
TAP	55	288	2
TAP	55	288	3
TAP	56	0	1
TAP	56	96	0
TAP	56	96	1
TAP	56	192	2
TAP	56	192	7
TAP	57	0	6
TAP	57	96	6
TAP	57	96	7
TAP	57	192	1
TAP	57	288	0
TAP	57	288	1
TAP	58	0	2
TAP	58	96	2
TAP	58	96	3
TAP	58	192	3
TAP	58	192	4
BRK	58	288	2
BRK	58	288	5
TAP	59	0	6
TAP	59	48	6
TAP	59	96	6
TAP	59	192	4
TAP	59	192	5
TAP	59	288	3
TAP	59	288	6
TAP	60	0	2
TAP	60	48	2
TAP	60	96	2
TAP	60	192	1
TAP	60	192	3
TAP	61	0	1
TAP	61	48	1
TAP	61	96	1
TAP	61	192	2
TAP	61	192	3
TAP	61	288	1
TAP	61	288	4
TAP	62	0	5
TAP	62	48	5
TAP	62	96	5
XTP	62	192	4
XTP	62	192	6
TAP	63	0	5
TAP	63	48	5
TAP	63	96	5
TAP	63	192	6
TAP	63	192	7
TAP	63	288	0
TAP	63	288	5
TAP	64	0	1
TAP	64	48	1
TAP	64	96	1
TAP	64	192	0
TAP	64	192	2
TAP	65	0	2
TAP	65	48	2
TAP	65	96	2
TAP	65	192	0
TAP	65	192	1
TAP	65	288	2
TAP	65	288	3
TAP	66	0	3
TAP	66	0	4
TAP	66	96	2
TAP	66	96	5
TAP	66	192	1
TAP	66	192	6
XTP	66	288	0
XTP	66	288	7
HLD	67	0	6	96
TAP	67	96	7
HLD	67	192	1	96
TAP	67	288	0
HLD	68	0	2	96
HLD	68	96	3	96
HLD	68	192	4	96
TAP	68	288	5
HLD	69	0	6	96
TAP	69	96	7
HLD	69	192	1	96
TAP	69	288	0
TAP	70	0	2
STR	70	0	7
SCL	70	0	7	96	144	4
HLD	71	0	2	96
TAP	71	96	3
HLD	71	192	5	96
TAP	71	288	4
HLD	72	0	6	96
HLD	72	96	7	96
HLD	72	192	0	96
TAP	72	288	1
TAP	73	0	2
TAP	73	96	2
TAP	73	96	3
TAP	73	192	5
TAP	73	288	4
TAP	73	288	5
TAP	74	0	3
TAP	74	0	4
TAP	74	96	2
TAP	74	96	5
TAP	74	192	1
TAP	74	192	6
BRK	74	288	0
BRK	74	288	7
TAP	75	0	6
TAP	75	96	6
TAP	75	96	7
TAP	75	192	6
TAP	75	288	6
TAP	75	288	7
TAP	76	0	5
TAP	76	48	5
TAP	76	96	4
XTP	76	192	3
XTP	76	192	6
TAP	77	0	2
TAP	77	96	2
TAP	77	96	3
TAP	77	192	2
TAP	77	288	2
TAP	77	288	3
TAP	78	0	1
TAP	78	48	1
TAP	78	96	0
TAP	78	192	0
TAP	78	192	7
XTP	78	288	1
XTP	78	288	6
STR	79	0	5
SCR	79	0	5	96	144	0
STR	80	0	1
SCR	80	0	1	96	144	4
TAP	81	0	5
TAP	81	96	4
TAP	81	96	5
TAP	81	192	2
TAP	81	288	2
TAP	81	288	3
TAP	82	0	3
TAP	82	0	4
TAP	82	96	2
TAP	82	96	5
BRK	82	192	1
BRK	82	192	6
THO	83	0	0	1536	C	0	L1

T_REC_TAP	247
T_REC_BRK	14
T_REC_XTP	33
T_REC_HLD	22
T_REC_XHO	0
T_REC_STR	12
T_REC_BST	0
T_REC_XST	0
T_REC_TTP	23
T_REC_THO	1
T_REC_SLD	12
T_REC_ALL	364
T_NUM_TAP	315
T_NUM_BRK	14
T_NUM_HLD	23
T_NUM_SLD	12
T_NUM_ALL	364
T_JUDGE_TAP	329
T_JUDGE_HLD	86
T_JUDGE_SLD	12
T_JUDGE_ALL	427
TTM_EACHPAIRS	94
TTM_SCR_TAP	157500
TTM_SCR_BRK	36400
TTM_SCR_HLD	23000
TTM_SCR_SLD	18000
TTM_SCR_ALL	234900
TTM_SCR_S	226500
TTM_SCR_SS	233500
TTM_RAT_ACV	10059

