VERSION	0.00.00	1.03.00
FES_MODE	0
BPM_DEF	155.000	155.000	155.000	155.000
MET_DEF	4	4
RESOLUTION	384
CLK_DEF	384
COMPATIBLE_CODE	MA2

BPM	0	0	155.000
MET	0	0	4	4

XTP	3	0	0
TAP	4	0	0
XTP	5	0	7
HLD	6	0	7	384
TAP	9	0	0
TAP	9	0	7
BRK	10	0	0
BRK	10	0	7
TAP	11	0	0
TAP	11	192	0
TAP	12	0	0
TAP	13	0	1
TAP	13	192	1
TAP	14	0	1
TAP	15	0	2
TAP	15	192	2
TAP	16	0	2
TAP	17	0	3
TAP	17	192	3
TAP	18	0	3
TAP	18	0	4
TAP	19	0	4
TAP	19	192	4
TAP	20	0	4
TAP	21	0	5
TAP	21	192	5
TAP	22	0	5
TAP	23	0	6
TAP	23	192	6
TAP	24	0	6
TAP	25	0	7
TAP	25	192	7
XTP	26	0	0
XTP	26	0	7
STR	27	0	7
SI_	27	0	7	96	288	4
STR	29	0	0
SI_	29	0	0	96	288	3
STR	31	0	7
SI_	31	0	7	96	288	3
STR	33	0	0
SI_	33	0	0	96	288	4
TTP	35	0	5	B	0	L1
TTP	36	0	4	B	0	L1
TTP	37	0	3	B	0	L1
TTP	38	0	2	B	0	L1
TTP	39	0	0	B	0	L1
TTP	39	0	1	B	0	L1
TTP	40	0	6	B	0	L1
TTP	40	0	7	B	0	L1
THO	41	0	0	384	C	0	L1
HLD	43	0	0	384
HLD	43	0	1	384
HLD	45	0	6	384
HLD	45	0	7	384
TAP	47	0	0
TAP	47	192	0
TAP	48	0	7
TAP	48	192	7
HLD	49	0	0	192
HLD	49	0	7	192
TAP	50	0	0
TAP	50	0	7
XTP	50	192	0
XTP	50	192	7
BRK	51	0	7
TAP	51	96	7
TAP	51	192	7
TAP	52	0	6
TAP	52	192	6
TAP	53	0	5
TAP	53	96	5
TAP	53	192	5
TAP	54	0	4
TAP	54	192	3
TAP	54	192	4
TAP	55	0	3
TAP	55	96	3
TAP	55	192	3
TAP	56	0	2
TAP	56	192	2
TAP	57	0	1
TAP	57	96	1
TAP	57	192	1
TAP	58	0	0
XTP	58	192	0
XTP	58	192	7
TAP	59	0	0
TAP	59	96	0
TAP	59	192	0
TAP	60	0	1
TAP	60	192	1
TAP	61	0	2
TAP	61	96	2
TAP	61	192	2
TAP	62	0	3
TAP	62	192	3
TAP	62	192	4
TAP	63	0	4
TAP	63	96	4
TAP	63	192	4
TAP	64	0	5
TAP	64	192	5
TAP	65	0	6
TAP	65	96	6
TAP	65	192	6
TAP	66	0	0
TAP	66	0	7
XTP	66	192	0
XTP	66	192	7
TAP	67	0	7
TAP	67	96	7
TAP	67	192	7
TAP	68	0	6
TAP	68	96	6
TAP	68	192	6
TAP	69	0	5
TAP	69	96	5
TAP	69	192	5
TAP	70	0	4
TAP	70	96	4
TAP	70	192	3
TAP	70	192	4
TAP	71	0	3
TAP	71	96	3
TAP	71	192	3
TAP	72	0	2
TAP	72	96	2
TAP	72	192	2
TAP	73	0	1
TAP	73	96	1
TAP	73	192	1
TAP	74	0	0
TAP	74	96	0
TAP	74	192	0
TAP	74	192	7
TAP	75	0	0
XTP	75	96	0
TAP	75	192	1
TAP	75	288	1
TAP	76	0	2
TAP	76	96	2
TAP	76	192	2
TAP	76	192	3
TAP	77	0	4
TAP	77	96	4
TAP	77	192	5
TAP	77	288	5
TAP	78	0	6
TAP	78	96	6
TAP	78	192	6
TAP	78	192	7
TAP	79	0	0
TAP	79	96	0
TAP	79	192	0
TAP	79	192	1
TAP	80	0	7
TAP	80	96	7
TAP	80	192	6
TAP	80	192	7
HLD	81	0	0	192
HLD	81	0	7	192
TAP	82	0	0
TAP	82	0	7
TAP	82	96	0
TAP	82	96	7
TAP	82	192	1
TAP	82	192	6
TAP	82	288	1
TAP	82	288	6
BRK	83	0	2
BRK	83	0	5

T_REC_TAP	130
T_REC_BRK	5
T_REC_XTP	11
T_REC_HLD	9
T_REC_XHO	0
T_REC_STR	4
T_REC_BST	0
T_REC_XST	0
T_REC_TTP	8
T_REC_THO	1
T_REC_SLD	4
T_REC_ALL	172
T_NUM_TAP	153
T_NUM_BRK	5
T_NUM_HLD	10
T_NUM_SLD	4
T_NUM_ALL	172
T_JUDGE_TAP	158
T_JUDGE_HLD	64
T_JUDGE_SLD	4
T_JUDGE_ALL	226
TTM_EACHPAIRS	26
TTM_SCR_TAP	76500
TTM_SCR_BRK	13000
TTM_SCR_HLD	10000
TTM_SCR_SLD	6000
TTM_SCR_ALL	105500
TTM_SCR_S	101850
TTM_SCR_SS	105000
TTM_RAT_ACV	10047

