VERSION	0.00.00	1.03.00
FES_MODE	0
BPM_DEF	190.000	190.000	190.000	190.000
MET_DEF	4	4
RESOLUTION	384
CLK_DEF	384
COMPATIBLE_CODE	MA2

BPM	0	0	190.000
MET	0	0	4	4

TAP	3	0	3
TAP	3	0	4
TAP	3	96	3
TAP	3	144	2
TAP	3	240	5
TAP	3	288	4
TAP	3	336	5
TAP	4	48	2
TAP	4	96	2
TAP	4	144	3
TAP	4	192	2
TAP	4	288	3
TAP	4	288	4
TAP	5	0	2
TAP	5	0	5
TAP	5	96	4
TAP	5	144	5
TAP	5	240	2
TAP	5	288	3
TAP	5	336	2
TAP	6	48	5
TAP	6	96	5
TAP	6	144	4
TAP	6	192	5
TAP	6	288	3
TAP	6	288	4
STR	7	0	2
SCL	7	0	2	96	576	5
TAP	7	0	5
TAP	7	96	4
TAP	7	192	3
TAP	7	240	3
TAP	7	336	2
TAP	8	48	3
TAP	8	144	4
TAP	8	192	4
TAP	8	288	3
TAP	9	0	2
STR	9	0	5
SCR	9	0	5	96	480	2
TAP	9	96	3
TAP	9	192	4
TAP	9	240	4
TAP	9	336	5
TAP	10	48	4
TAP	10	144	3
TAP	10	192	3
TAP	10	288	2
TAP	10	288	5
TAP	11	0	3
TAP	11	0	4
HLD	11	96	2	672
TAP	11	96	5
TAP	11	192	4
TAP	11	240	4
TAP	11	336	3
TAP	12	48	1
TAP	12	144	1
TAP	12	192	1
TAP	12	288	3
HLD	13	0	4	96
TAP	13	96	5
HLD	13	144	5	96
HLD	13	240	6	432
TTP	14	0	6	E	0	M1
TTP	14	96	4	E	0	M1
TTP	14	192	2	E	0	M1
TTP	14	288	0	E	0	M1
TAP	15	0	3
TAP	15	0	4
TAP	15	96	2
HLD	15	96	5	672
TAP	15	192	3
TAP	15	240	3
TAP	15	336	4
TAP	16	48	6
TAP	16	144	6
TAP	16	192	6
TAP	16	288	4
HLD	17	0	3	96
TAP	17	96	2
HLD	17	144	2	96
STR	17	240	1
SSR	17	240	1	96	240	5
STR	19	0	3
SCR	19	0	3	96	288	5
TAP	19	0	6
TAP	19	192	2
STR	20	0	3
SCR	20	0	3	96	288	5
TAP	20	192	2
STR	21	0	2
SCR	21	0	2	96	480	0
TAP	21	192	5
TTP	22	0	4	E	0	M1
TTP	22	96	5	E	0	M1
TTP	22	192	6	E	0	M1
TTP	22	288	7	E	0	M1
TAP	23	0	1
STR	23	0	4
SCL	23	0	4	96	288	2
TAP	23	192	5
STR	24	0	4
SCL	24	0	4	96	288	2
TAP	24	192	5
STR	25	0	5
SCL	25	0	5	96	480	7
TAP	25	192	2
TTP	26	0	4	E	0	M1
TTP	26	96	3	E	0	M1
TTP	26	192	2	E	0	M1
TTP	26	288	1	E	0	M1
HLD	27	0	2	192
TAP	27	0	5
TAP	27	96	3
TAP	27	144	4
HLD	27	192	5	192
HLD	28	0	1	192
TAP	28	96	2
TAP	28	144	3
HLD	28	192	4	192
HLD	29	0	2	192
TAP	29	96	3
TAP	29	144	4
HLD	29	192	5	192
TAP	30	0	4
TAP	30	96	3
TAP	30	96	4
TAP	30	192	2
TAP	30	192	3
TAP	30	288	3
TAP	30	288	4
TAP	31	0	5
TAP	31	48	5
TAP	31	96	3
TAP	31	144	3
TAP	31	192	4
TAP	31	240	4
TAP	31	288	2
TAP	31	336	2
TAP	32	0	3
TAP	32	0	5
TAP	32	48	5
TAP	32	96	2
TAP	32	96	4
TAP	32	144	2
TAP	32	192	3
TAP	32	192	6
TAP	32	240	5
TAP	32	288	1
TAP	32	288	4
TAP	32	336	2
TAP	33	0	7
TAP	33	24	0
TAP	33	48	6
TAP	33	72	1
TAP	33	96	5
TAP	33	120	2
TAP	33	144	4
TAP	33	168	3
TAP	33	192	4
TAP	33	216	3
TAP	33	240	5
TAP	33	264	2
TAP	33	288	6
TAP	33	312	1
TAP	33	336	7
TAP	33	360	0
XST	34	0	6
SI_	34	0	6	96	48	2
TAP	34	48	6
XST	34	96	0
SI_	34	96	0	96	48	4
TAP	34	144	0
XST	34	192	7
SF_	34	192	7	96	48	3
TAP	34	240	7
BRK	34	288	7
BRK	35	0	1
BRK	35	0	6
HLD	35	96	0	48
TTP	35	144	4	B	0	M1
TTP	35	168	3	B	0	M1
HLD	35	192	0	48
TTP	35	240	4	B	0	M1
TTP	35	264	3	B	0	M1
HLD	35	288	0	48
TTP	35	336	4	B	0	M1
TTP	35	360	3	B	0	M1
HLD	36	0	1	48
TTP	36	48	4	B	0	M1
TTP	36	72	3	B	0	M1
HLD	36	96	1	48
TTP	36	144	4	B	0	M1
TTP	36	168	3	B	0	M1
HLD	36	192	1	48
TTP	36	240	4	B	0	M1
TTP	36	264	3	B	0	M1
HLD	36	288	1	48
TTP	36	336	4	B	0	M1
TTP	36	360	3	B	0	M1
HLD	37	0	2	48
TTP	37	48	4	B	0	M1
TTP	37	72	3	B	0	M1
HLD	37	96	2	48
TTP	37	144	4	B	0	M1
TTP	37	168	3	B	0	M1
HLD	37	192	2	48
TTP	37	240	4	B	0	M1
TTP	37	264	3	B	0	M1
HLD	37	288	2	48
TTP	37	336	4	B	0	M1
TTP	37	360	3	B	0	M1
HLD	38	0	1	48
TTP	38	48	4	B	0	M1
TTP	38	72	3	B	0	M1
HLD	38	96	1	48
TTP	38	144	4	B	0	M1
TTP	38	168	3	B	0	M1
HLD	38	192	1	48
TTP	38	240	4	B	0	M1
TTP	38	264	3	B	0	M1
TAP	38	288	1
HLD	39	0	5	48
TTP	39	48	3	B	0	M1
TTP	39	72	4	B	0	M1
HLD	39	96	5	48
TTP	39	144	3	B	0	M1
TTP	39	168	4	B	0	M1
HLD	39	192	5	48
TTP	39	240	3	B	0	M1
TTP	39	264	4	B	0	M1
HLD	39	288	5	48
TTP	39	336	3	B	0	M1
TTP	39	360	4	B	0	M1
HLD	40	0	6	48
TTP	40	48	3	B	0	M1
TTP	40	72	4	B	0	M1
HLD	40	96	6	48
TTP	40	144	3	B	0	M1
TTP	40	168	4	B	0	M1
HLD	40	192	6	48
TTP	40	240	3	B	0	M1
TTP	40	264	4	B	0	M1
HLD	40	288	6	48
TTP	40	336	3	B	0	M1
TTP	40	360	4	B	0	M1
HLD	41	0	7	48
TTP	41	48	3	B	0	M1
TTP	41	72	4	B	0	M1
HLD	41	96	7	48
TTP	41	144	3	B	0	M1
TTP	41	168	4	B	0	M1
HLD	41	192	7	48
TTP	41	240	3	B	0	M1
TTP	41	264	4	B	0	M1
TAP	41	288	7
XTP	42	0	1
XTP	42	0	6
TAP	42	96	2
TAP	42	96	5
TAP	42	128	4
TAP	42	160	3
XTP	42	192	2
XTP	42	192	4
XTP	42	256	3
XTP	42	256	5
XTP	42	320	3
XTP	42	320	4
HLD	43	0	1	48
TTP	43	48	4	B	0	M1
TTP	43	72	3	B	0	M1
HLD	43	96	1	48
TTP	43	144	4	B	0	M1
TTP	43	168	3	B	0	M1
HLD	43	192	2	48
TTP	43	240	4	B	0	M1
TTP	43	264	3	B	0	M1
HLD	43	288	2	48
TTP	43	336	4	B	0	M1
TTP	43	360	3	B	0	M1
HLD	44	0	1	48
TTP	44	48	4	B	0	M1
TTP	44	72	3	B	0	M1
HLD	44	96	1	48
TTP	44	144	4	B	0	M1
TTP	44	168	3	B	0	M1
HLD	44	192	0	48
TTP	44	240	4	B	0	M1
TTP	44	264	3	B	0	M1
HLD	44	288	0	48
TTP	44	336	4	B	0	M1
TTP	44	360	3	B	0	M1
HLD	45	0	7	48
TTP	45	48	4	B	0	M1
TTP	45	72	3	B	0	M1
HLD	45	96	7	48
TTP	45	144	4	B	0	M1
TTP	45	168	3	B	0	M1
HLD	45	192	6	48
TTP	45	240	4	B	0	M1
TTP	45	264	3	B	0	M1
HLD	45	288	6	48
TTP	45	336	4	B	0	M1
TTP	45	360	3	B	0	M1
HLD	46	0	5	48
TTP	46	48	4	B	0	M1
TTP	46	72	3	B	0	M1
HLD	46	96	5	48
TTP	46	144	4	B	0	M1
TTP	46	168	3	B	0	M1
STR	46	192	6
SCR	46	192	6	96	48	1
HLD	47	0	7	48
TTP	47	48	3	B	0	M1
TTP	47	72	4	B	0	M1
HLD	47	96	6	48
TTP	47	144	3	B	0	M1
TTP	47	168	4	B	0	M1
HLD	47	192	5	48
TTP	47	240	3	B	0	M1
TTP	47	264	4	B	0	M1
HLD	47	288	5	48
TTP	47	336	3	B	0	M1
TTP	47	360	4	B	0	M1
HLD	48	0	6	48
TTP	48	48	3	B	0	M1
TTP	48	72	4	B	0	M1
HLD	48	96	7	48
TTP	48	144	3	B	0	M1
TTP	48	168	4	B	0	M1
HLD	48	192	0	48
TTP	48	240	3	B	0	M1
TTP	48	264	4	B	0	M1
HLD	48	288	1	48
TTP	48	336	3	B	0	M1
TTP	48	360	4	B	0	M1
HLD	49	0	2	48
TTP	49	48	3	B	0	M1
TTP	49	72	4	B	0	M1
HLD	49	96	2	48
TTP	49	144	3	B	0	M1
TTP	49	168	4	B	0	M1
HLD	49	192	1	48
TTP	49	240	3	B	0	M1
TTP	49	264	4	B	0	M1
HLD	49	288	0	48
TTP	49	336	3	B	0	M1
TTP	49	360	4	B	0	M1
STR	50	0	7
SSR	50	0	7	96	96	3
BRK	50	288	0
BRK	50	288	7
TAP	51	0	3
TAP	51	0	4
TAP	51	48	1
TAP	51	72	3
TAP	51	96	1
TAP	51	120	3
TAP	51	144	1
TAP	51	192	5
TAP	51	216	4
TAP	51	264	2
TAP	51	288	3
TAP	51	336	2
TAP	51	336	4
TAP	52	0	3
TAP	52	0	5
TAP	52	48	6
TAP	52	72	4
TAP	52	96	6
TAP	52	120	4
TAP	52	144	6
TAP	52	192	3
TAP	52	192	5
TAP	52	240	2
TAP	52	264	3
TAP	52	288	1
TAP	52	336	5
TAP	52	360	4
TAP	53	0	6
TAP	53	48	1
TAP	53	72	3
TAP	53	96	2
TAP	53	120	3
TAP	53	144	1
TAP	53	192	6
TAP	53	216	4
TAP	53	240	5
TAP	53	264	4
TAP	53	288	6
TAP	53	336	2
TAP	53	336	5
TAP	54	0	1
TAP	54	24	3
TAP	54	48	2
TAP	54	72	4
TAP	54	96	3
TAP	54	120	5
TAP	54	144	4
TAP	54	168	6
TAP	54	192	0
TAP	54	216	7
TAP	54	240	0
BRK	54	288	1
BRK	54	288	6
TAP	55	0	2
TAP	55	0	7
TAP	55	48	6
TAP	55	72	4
TAP	55	96	5
TAP	55	120	4
TAP	55	144	6
TAP	55	192	1
TAP	55	216	3
TAP	55	240	2
TAP	55	264	3
TAP	55	288	1
TAP	55	336	2
TAP	55	336	4
TAP	56	0	7
TAP	56	24	1
TAP	56	48	6
TAP	56	72	1
TAP	56	96	5
TAP	56	120	1
TAP	56	144	4
TAP	56	168	1
TAP	56	192	3
TAP	56	216	1
TAP	56	240	2
TAP	56	264	1
TAP	56	288	0
TAP	57	0	4
TAP	57	0	6
TAP	57	48	1
TAP	57	72	0
TAP	57	96	2
TAP	57	144	5
TAP	57	168	4
HLD	57	192	6	48
HLD	57	240	0	48
HLD	57	288	2	48
HLD	57	336	4	48
TAP	58	0	5
TAP	58	48	5
TAP	58	96	2
TAP	58	120	3
TAP	58	168	5
TAP	58	192	4
TAP	58	240	3
TAP	58	240	4
BRK	58	288	1
BRK	58	288	6
XTP	59	0	0
XTP	59	0	7
TAP	59	48	6
TAP	59	72	4
TAP	59	96	6
TAP	59	120	4
TAP	59	144	6
TAP	59	192	2
TAP	59	216	3
TAP	59	264	5
TAP	59	288	4
TAP	59	336	3
TAP	59	336	5
TAP	60	0	2
TAP	60	0	4
TAP	60	48	1
TAP	60	72	3
TAP	60	96	1
TAP	60	120	3
TAP	60	144	1
TAP	60	192	2
TAP	60	192	4
TAP	60	240	5
TAP	60	264	4
TAP	60	288	6
TAP	60	336	2
TAP	60	360	3
TAP	61	0	1
TAP	61	48	6
TAP	61	72	4
TAP	61	96	5
TAP	61	120	4
TAP	61	144	6
TAP	61	192	1
TAP	61	216	3
TAP	61	240	2
TAP	61	264	3
TAP	61	288	1
TAP	61	336	2
TAP	61	336	5
TAP	62	0	6
TAP	62	24	4
TAP	62	48	5
TAP	62	72	3
TAP	62	96	4
TAP	62	120	2
TAP	62	144	3
TAP	62	168	1
TAP	62	192	7
TAP	62	216	0
TAP	62	240	7
BRK	62	288	1
BRK	62	288	6
TAP	63	0	0
TAP	63	0	5
TAP	63	48	1
TAP	63	72	3
TAP	63	96	2
TAP	63	120	3
TAP	63	144	1
TAP	63	192	6
TAP	63	216	4
TAP	63	240	5
TAP	63	264	4
TAP	63	288	6
TAP	63	336	3
TAP	63	336	5
TAP	64	0	0
TAP	64	24	6
TAP	64	48	1
TAP	64	72	6
TAP	64	96	2
TAP	64	120	6
TAP	64	144	3
TAP	64	168	6
TAP	64	192	4
TAP	64	216	6
TAP	64	240	5
TAP	64	264	6
TAP	64	288	7
TAP	65	0	1
TAP	65	0	3
TAP	65	48	6
TAP	65	72	7
TAP	65	96	5
TAP	65	144	2
TAP	65	168	3
HLD	65	192	1	48
HLD	65	240	7	48
HLD	65	288	5	48
HLD	65	336	3	48
STR	66	0	0
SI_	66	0	0	96	48	4
TAP	66	48	0
STR	66	96	5
SI_	66	96	5	96	48	1
TAP	66	144	5
STR	66	192	2
SI_	66	192	2	96	48	6
TAP	66	240	2
STR	66	288	7
SF_	66	288	7	96	48	3
BST	67	0	7
SCR	67	0	7	96	672	6
TTP	67	1	0	C	1	M1
TAP	69	0	3
TAP	69	48	3
TAP	69	96	3
TAP	69	144	3
TAP	69	192	4
TAP	69	240	4
TAP	69	288	4
TAP	69	336	4
HLD	70	0	3	48
HLD	70	0	5	48
HLD	70	72	2	48
HLD	70	72	4	48
HLD	70	144	3	48
HLD	70	144	5	48
HLD	70	216	2	48
HLD	70	216	4	48
XTP	70	288	1
XTP	70	288	6
STR	71	0	0
SI_	71	0	0	96	48	4
TAP	71	48	7
TAP	71	96	0
TAP	71	96	6
STR	71	192	7
SI_	71	192	7	96	48	3
TAP	71	240	0
TAP	71	288	1
TAP	71	288	7
STR	72	0	0
SI_	72	0	0	96	48	4
TAP	72	48	1
TAP	72	96	0
TAP	72	96	2
STR	72	192	7
SI_	72	192	7	96	48	3
TAP	72	240	6
TAP	72	288	5
TAP	72	288	7
TAP	73	0	1
TAP	73	0	5
TAP	73	48	3
TAP	73	96	2
TAP	73	96	6
TAP	73	144	4
TAP	73	192	1
TAP	73	192	3
TAP	73	240	2
TAP	73	240	4
TAP	73	288	3
TAP	73	288	5
TAP	73	336	4
TAP	73	336	6
XST	74	0	0
SI_	74	0	0	96	48	4
XTP	74	0	7
TAP	74	48	0
STR	74	96	6
SI_	74	96	6	96	48	2
TAP	74	144	6
STR	74	192	0
SF_	74	192	0	96	48	4
TAP	74	240	0
BRK	74	288	0
XTP	75	0	3
XTP	75	0	6
XTP	75	96	2
XTP	75	96	4
TAP	75	144	0
TAP	75	168	1
TAP	75	192	2
TAP	75	192	7
TAP	75	240	7
TAP	75	264	6
TAP	75	288	0
TAP	75	288	5
TAP	75	336	0
TAP	76	0	1
TAP	76	0	5
TAP	76	48	1
TAP	76	48	5
TAP	76	72	2
TAP	76	72	6
STR	76	96	3
SCL	76	96	3	96	96	4
STR	76	96	7
SI_	76	96	7	96	48	3
XTP	77	0	4
XTP	77	0	5
TAP	77	96	6
TAP	77	96	7
TAP	77	144	1
TAP	77	168	2
TAP	77	192	3
TAP	77	192	7
TAP	77	240	7
TAP	77	264	6
TAP	77	288	0
STR	77	288	5
SXL	77	288	5	96	240	2
TAP	77	336	2
XTP	78	0	3
XTP	78	0	5
STR	78	192	0
SI_	78	192	0	96	48	4
TAP	78	288	0
TTP	78	288	0	C	0	M1
XTP	79	0	1
XTP	79	0	7
XTP	79	96	3
XTP	79	96	5
TAP	79	144	7
TAP	79	168	6
TAP	79	192	0
TAP	79	192	5
TAP	79	240	0
TAP	79	264	1
TAP	79	288	2
TAP	79	288	7
TAP	79	336	7
TAP	80	0	2
TAP	80	0	6
TAP	80	48	2
TAP	80	48	6
TAP	80	72	1
TAP	80	72	5
STR	80	96	0
SI_	80	96	0	96	48	4
STR	80	96	4
SCR	80	96	4	96	96	3
XTP	81	0	0
XTP	81	0	1
TAP	81	96	2
TAP	81	96	3
TAP	81	144	6
TAP	81	168	5
TAP	81	192	0
TAP	81	192	4
TAP	81	240	0
TAP	81	264	1
TAP	81	288	2
TAP	81	288	7
TAP	81	336	5
XTP	82	0	3
XTP	82	0	4
XTP	82	64	2
XTP	82	96	1
XTP	82	96	3
XTP	82	160	5
XTP	82	192	4
XTP	82	192	6
XTP	82	224	7
XTP	82	256	0
BRK	82	288	1
BRK	82	288	6
XST	83	0	1
SI_	83	0	1	96	48	4
XST	83	0	5
SI_	83	0	5	96	48	0
TAP	83	48	2
TAP	83	48	6
TAP	83	96	1
TAP	83	96	5
XTP	83	192	2
XTP	83	192	7
TAP	83	240	7
TAP	83	264	6
TAP	83	288	0
TAP	83	288	5
TAP	83	336	0
TAP	84	0	1
TAP	84	0	4
TAP	84	48	1
TAP	84	48	4
TAP	84	72	2
TAP	84	72	5
STR	84	96	3
SI_	84	96	3	96	48	7
STR	84	96	6
SCL	84	96	6	96	96	7
XTP	85	0	4
XTP	85	0	6
TAP	85	96	1
TAP	85	96	3
TAP	85	144	0
TAP	85	168	1
TAP	85	192	2
TAP	85	192	7
TAP	85	240	7
TAP	85	264	6
TAP	85	288	0
TAP	85	288	5
TAP	85	336	2
XTP	86	0	3
XST	86	0	4
SXL	86	0	4	96	192	0
SXR	86	0	4	96	192	0
TTP	86	192	0	C	1	M1
XST	87	0	0
SI_	87	0	0	96	48	4
XST	87	0	7
SI_	87	0	7	96	48	3
TAP	87	48	1
TAP	87	48	6
BRK	87	96	0
BRK	87	96	7
XTP	87	192	2
XTP	87	192	5
TAP	87	240	0
TAP	87	264	1
TAP	87	288	2
TAP	87	288	7
TAP	87	336	7
TAP	87	360	6
TAP	88	0	0
TAP	88	0	5
TAP	88	48	0
XTP	88	96	1
XTP	88	96	5
TAP	88	120	2
TAP	88	120	6
TAP	88	144	3
TAP	88	144	7
TAP	88	168	0
TAP	88	168	4
STR	88	192	1
SI_	88	192	1	96	48	6
STR	88	192	5
SI_	88	192	5	96	48	2
XTP	89	0	0
XTP	89	0	4
TAP	89	96	2
TAP	89	96	3
TAP	89	144	7
TAP	89	168	6
TAP	89	192	0
TAP	89	192	5
TAP	89	240	0
TAP	89	264	1
TAP	89	288	2
TAP	89	288	7
TAP	89	336	5
XST	90	0	0
SLR	90	0	0	96	96	6
XST	90	0	4
SLR	90	0	4	96	96	2
BRK	90	288	1
BRK	90	288	5
STR	91	0	0
SI_	91	0	0	96	48	5
TAP	91	0	7
STR	91	96	0
SI_	91	96	0	96	48	3
TAP	91	96	2
STR	91	192	0
SI_	91	192	0	96	48	5
TAP	91	192	6
STR	91	288	0
SI_	91	288	0	96	48	4
TAP	91	288	2
TAP	91	336	1
STR	92	0	0
SCL	92	0	0	96	48	5
SCR	92	0	0	96	48	3
STR	92	96	0
SF_	92	96	0	96	48	4
TAP	92	192	0
BRK	92	288	2
BRK	92	288	6
STR	93	0	3
SI_	93	0	3	96	48	7
TAP	93	0	7
TAP	93	96	3
STR	93	96	4
SI_	93	96	4	96	48	0
STR	93	192	1
SI_	93	192	1	96	48	5
TAP	93	192	4
TAP	93	288	1
STR	93	288	6
SI_	93	288	6	96	48	2
TAP	93	336	7
STR	94	0	0
SI_	94	0	0	96	48	3
SI_	94	0	0	96	48	5
TAP	94	0	6
TAP	94	96	0
XTP	94	192	1
XTP	94	192	7
XTP	94	240	3
XTP	94	240	4
XTP	94	288	0
XTP	94	288	6
TAP	95	0	0
STR	95	0	7
SI_	95	0	7	96	48	2
TAP	95	96	5
STR	95	96	7
SI_	95	96	7	96	48	4
TAP	95	192	1
STR	95	192	7
SI_	95	192	7	96	48	2
TAP	95	288	5
STR	95	288	7
SI_	95	288	7	96	48	3
TAP	95	336	6
STR	96	0	7
SCL	96	0	7	96	48	4
SCR	96	0	7	96	48	2
STR	96	96	7
SF_	96	96	7	96	48	3
TAP	96	192	7
BRK	96	288	1
BRK	96	288	5
TAP	97	0	0
STR	97	0	4
SI_	97	0	4	96	48	0
STR	97	96	3
SI_	97	96	3	96	48	7
TAP	97	96	4
TAP	97	192	3
STR	97	192	6
SI_	97	192	6	96	48	2
TAP	97	288	2
TAP	97	288	6
TAP	97	336	1
HLD	98	0	0	96
TAP	98	64	2
HLD	98	96	2	96
TAP	98	160	4
HLD	98	192	4	96
TAP	98	256	6
BRK	98	288	6
STR	99	0	0
SI_	99	0	0	96	48	5
TAP	99	0	7
STR	99	96	0
SI_	99	96	0	96	48	3
TAP	99	96	2
TAP	99	192	0
STR	99	192	3
SCR	99	192	3	96	48	5
STR	99	240	5
SCR	99	240	5	96	48	7
STR	99	288	7
SCR	99	288	7	96	48	2
STR	100	0	3
SI_	100	0	3	96	48	7
TAP	100	96	3
STR	100	96	4
SI_	100	96	4	96	48	0
TAP	100	192	4
TAP	100	192	6
TAP	100	240	5
TAP	100	288	1
TAP	100	288	4
TAP	101	0	0
STR	101	0	7
SI_	101	0	7	96	48	2
TAP	101	96	5
STR	101	96	7
SI_	101	96	7	96	48	4
STR	101	192	4
SCL	101	192	4	96	48	2
TAP	101	192	7
STR	101	240	2
SCL	101	240	2	96	48	0
STR	101	288	0
SCL	101	288	0	96	48	5
TTP	102	0	1	B	0	M1
TTP	102	0	2	B	0	M1
TTP	102	96	5	B	0	M1
TTP	102	96	6	B	0	M1
TTP	102	192	0	C	1	M1
TTP	102	192	0	E	0	M1
TTP	102	192	4	E	0	M1
STR	103	0	0
SI_	103	0	0	96	48	5
TAP	103	0	7
STR	103	96	0
SI_	103	96	0	96	48	3
TAP	103	96	2
TAP	103	192	0
STR	103	192	3
SCR	103	192	3	96	48	5
STR	103	240	5
SCR	103	240	5	96	48	7
STR	103	288	7
SCR	103	288	7	96	48	2
STR	104	0	3
SI_	104	0	3	96	48	7
TAP	104	96	3
STR	104	96	4
SI_	104	96	4	96	48	0
TAP	104	192	4
TAP	104	192	6
TAP	104	240	5
TAP	104	288	1
TAP	104	288	4
TAP	105	0	0
HLD	105	0	7	96
TAP	105	64	5
HLD	105	96	5	96
TAP	105	160	3
HLD	105	192	3	96
TAP	105	256	1
HLD	105	288	1	96
TAP	105	352	6
HLD	106	0	6	96
TAP	106	96	4
TAP	106	108	5
TAP	106	120	6
TAP	106	132	7
TAP	106	144	0
TAP	106	156	1
TAP	106	168	2
TAP	106	180	3
XST	106	192	4
SF_	106	192	4	96	48	0
XTP	106	192	5
TAP	106	288	4
BRK	107	0	2
BRK	107	0	6

T_REC_TAP	519
T_REC_BRK	25
T_REC_XTP	55
T_REC_HLD	88
T_REC_XHO	0
T_REC_STR	70
T_REC_BST	1
T_REC_XST	12
T_REC_TTP	124
T_REC_THO	0
T_REC_SLD	87
T_REC_ALL	981
T_NUM_TAP	780
T_NUM_BRK	26
T_NUM_HLD	88
T_NUM_SLD	87
T_NUM_ALL	981
T_JUDGE_TAP	806
T_JUDGE_HLD	152
T_JUDGE_SLD	87
T_JUDGE_ALL	1045
TTM_EACHPAIRS	164
TTM_SCR_TAP	390000
TTM_SCR_BRK	67600
TTM_SCR_HLD	88000
TTM_SCR_SLD	130500
TTM_SCR_ALL	676100
TTM_SCR_S	653300
TTM_SCR_SS	673500
TTM_RAT_ACV	10038

