VERSION	0.00.00	1.03.00
FES_MODE	0
BPM_DEF	190.000	190.000	190.000	190.000
MET_DEF	4	4
RESOLUTION	384
CLK_DEF	384
COMPATIBLE_CODE	MA2

BPM	0	0	190.000
MET	0	0	4	4

TAP	3	0	4
TAP	3	96	3
HLD	3	144	3	144
TAP	3	288	4
TAP	4	0	3
TAP	4	96	4
HLD	4	144	4	144
TAP	4	288	3
TAP	5	0	4
TAP	5	96	3
HLD	5	144	3	144
TAP	5	288	4
TAP	6	0	3
TAP	6	96	4
HLD	6	144	4	144
TAP	6	288	3
HLD	7	0	5	144
TAP	7	96	4
HLD	7	144	4	144
TAP	7	288	5
HLD	8	0	2	144
TAP	8	96	3
HLD	8	144	3	144
TAP	8	288	2
HLD	9	0	5	144
TAP	9	96	4
HLD	9	144	4	144
STR	9	288	6
SCL	9	288	6	96	192	3
TAP	11	0	2
HLD	11	96	2	192
TAP	11	96	3
HLD	11	288	1	192
HLD	12	96	0	192
TAP	12	288	2
TAP	13	0	1
TAP	13	0	3
TAP	13	96	2
TAP	13	144	2
STR	13	240	2
SUR	13	240	2	96	336	4
TAP	13	240	3
TAP	15	0	5
TAP	15	96	4
HLD	15	96	5	192
HLD	15	288	6	192
HLD	16	96	7	192
TAP	16	288	5
TAP	17	0	4
TAP	17	0	6
TAP	17	96	5
TAP	17	144	5
TAP	17	240	4
HLD	17	240	5	336
HLD	18	0	3	192
BST	19	0	3
SI_	19	0	3	96	480	0
STR	20	0	4
SI_	20	0	4	96	480	7
STR	21	0	3
SI_	21	0	3	96	480	0
STR	22	0	7
SI_	22	0	7	96	480	4
BST	23	0	0
SI_	23	0	0	96	480	3
STR	24	0	7
SI_	24	0	7	96	480	4
STR	25	0	0
SI_	25	0	0	96	480	3
STR	26	0	4
SCR	26	0	4	96	480	7
BST	27	0	3
SCL	27	0	3	96	480	0
STR	28	0	7
SCL	28	0	7	96	480	4
STR	29	0	3
SCL	29	0	3	96	480	0
TAP	30	0	4
TAP	30	96	4
TAP	30	192	5
TAP	30	288	5
TAP	31	0	4
TAP	31	0	5
TAP	31	48	5
TAP	31	96	5
TAP	31	192	3
TAP	31	192	4
TAP	31	240	4
TAP	31	288	4
TAP	32	0	2
TAP	32	0	3
TAP	32	48	2
TAP	32	96	2
TAP	32	192	3
TAP	32	192	4
TAP	32	240	3
TAP	32	288	3
TAP	33	0	5
TAP	33	48	5
TAP	33	96	3
TAP	33	144	3
TAP	33	192	4
TAP	33	240	4
TAP	33	288	2
TAP	33	336	2
HLD	34	0	7	288
BRK	34	288	0
TAP	35	0	1
TAP	35	48	1
TAP	35	96	3
TAP	35	144	3
TAP	35	192	1
TAP	35	240	1
TAP	35	288	4
TAP	35	336	4
TAP	36	0	3
TAP	36	48	3
TAP	36	96	5
TAP	36	144	5
TAP	36	192	4
TAP	36	240	4
TAP	36	288	6
TAP	36	336	6
TAP	37	0	4
TAP	37	48	4
TAP	37	96	6
TAP	37	144	6
TAP	37	192	3
TAP	37	240	3
TAP	37	288	4
TAP	37	336	4
TAP	38	0	1
TAP	38	48	1
TAP	38	96	3
TAP	38	144	3
TAP	38	192	2
TAP	38	240	2
TAP	38	288	4
TAP	38	336	4
TAP	39	0	3
TAP	39	48	3
TAP	39	96	5
TAP	39	144	2
TAP	39	192	6
TAP	39	240	6
TAP	39	288	4
TAP	39	336	5
TAP	40	0	3
TAP	40	48	3
TAP	40	96	4
TAP	40	144	2
TAP	40	192	5
TAP	40	240	5
TAP	40	288	1
TAP	40	336	3
TAP	41	0	2
TAP	41	48	4
TAP	41	96	3
TAP	41	144	3
TAP	41	192	5
TAP	41	240	5
TAP	41	288	3
TAP	41	336	6
BRK	42	0	4
XTP	42	96	4
XTP	42	96	5
XTP	42	192	2
XTP	42	192	3
XTP	42	264	1
XTP	42	264	4
XTP	42	336	1
XTP	42	336	4
TAP	43	0	5
TAP	43	48	5
TAP	43	96	3
TAP	43	144	6
TAP	43	192	6
TAP	43	240	4
TAP	43	288	4
TAP	43	336	5
TAP	44	0	3
TAP	44	48	3
TAP	44	96	4
TAP	44	144	2
TAP	44	192	3
TAP	44	240	3
TAP	44	288	1
TAP	44	336	4
TAP	45	0	0
TAP	45	48	0
TAP	45	96	3
TAP	45	144	1
TAP	45	192	1
TAP	45	240	4
TAP	45	288	3
TAP	45	336	5
TAP	46	0	5
TAP	46	48	3
TAP	46	96	6
TAP	46	144	6
TAP	46	192	3
TAP	46	240	7
TAP	46	288	4
TAP	46	288	7
TAP	47	0	2
TAP	47	48	2
TAP	47	96	4
TAP	47	144	0
TAP	47	192	0
TAP	47	240	3
TAP	47	288	1
TAP	47	336	1
TAP	48	0	7
TAP	48	48	7
TAP	48	96	3
TAP	48	144	5
TAP	48	192	5
TAP	48	240	4
TAP	48	288	6
TAP	48	336	6
TAP	49	0	1
TAP	49	48	1
TAP	49	96	3
TAP	49	144	3
TAP	49	192	4
TAP	49	240	4
STR	49	288	5
SUL	49	288	5	96	288	3
BRK	50	0	3
XTP	51	0	2
XTP	51	0	5
TAP	51	96	2
TAP	51	144	2
TAP	51	192	4
TAP	51	216	3
TAP	51	264	3
TAP	51	288	4
TAP	51	336	4
TAP	52	0	2
TAP	52	0	5
TAP	52	96	1
TAP	52	144	1
TAP	52	192	7
TAP	52	216	0
TAP	52	264	0
TAP	52	288	7
TAP	52	336	1
TAP	52	336	6
BRK	53	0	2
BRK	53	0	5
TAP	53	96	3
TAP	53	144	3
TAP	53	192	5
TAP	53	216	4
TAP	53	264	4
TAP	53	288	5
TAP	53	336	5
TAP	54	0	3
TAP	54	0	6
TAP	54	96	4
TAP	54	144	4
TAP	54	192	2
TAP	54	216	3
TAP	54	264	3
TAP	54	288	2
TAP	54	336	1
TAP	54	336	4
XTP	55	0	5
TAP	55	48	5
TAP	55	72	4
TAP	55	120	4
TAP	55	144	6
TAP	55	192	6
TAP	55	192	7
TAP	55	240	6
TAP	55	240	7
TAP	55	288	0
TAP	55	288	5
TAP	56	0	2
TAP	56	48	2
TAP	56	72	3
TAP	56	120	3
TAP	56	144	1
TAP	56	192	0
TAP	56	192	1
TAP	56	240	0
TAP	56	240	1
TAP	56	288	2
TAP	56	288	7
TAP	57	0	3
TAP	57	0	4
TAP	57	48	2
TAP	57	72	3
TAP	57	96	2
TAP	57	144	5
TAP	57	168	4
TAP	57	192	5
TAP	57	240	2
TAP	57	264	3
TAP	57	288	2
TAP	57	336	2
TAP	57	336	3
XTP	58	0	1
XTP	58	48	1
XTP	58	96	4
XTP	58	144	4
XTP	58	192	3
XTP	58	192	5
XTP	58	240	3
XTP	58	240	5
BRK	58	288	2
BRK	58	288	6
TAP	59	0	3
TAP	59	0	4
TAP	59	48	5
TAP	59	72	4
TAP	59	96	5
TAP	59	144	3
TAP	59	168	4
TAP	59	192	3
TAP	59	240	6
TAP	59	288	6
TAP	59	336	2
TAP	60	0	2
TAP	60	48	1
TAP	60	72	0
TAP	60	96	1
TAP	60	144	7
TAP	60	168	0
TAP	60	192	7
TAP	60	240	2
TAP	60	288	2
TAP	60	336	4
XTP	61	0	1
XTP	61	0	4
TAP	61	48	2
TAP	61	72	3
TAP	61	96	2
TAP	61	144	4
TAP	61	168	3
TAP	61	192	4
TAP	61	240	1
TAP	61	288	1
TAP	61	336	5
TAP	62	0	5
TAP	62	48	6
TAP	62	72	7
TAP	62	96	6
TAP	62	144	1
TAP	62	168	0
TAP	62	192	1
TAP	62	240	0
TAP	62	240	1
XTP	62	288	2
XTP	62	288	7
TAP	63	0	6
TAP	63	24	7
TAP	63	72	7
TAP	63	96	5
TAP	63	144	5
TAP	63	192	4
TAP	63	192	5
TAP	63	240	4
TAP	63	240	5
TAP	63	288	3
TAP	63	288	6
TAP	64	0	1
TAP	64	24	0
TAP	64	72	0
TAP	64	96	2
TAP	64	144	2
TAP	64	192	2
TAP	64	192	3
TAP	64	240	2
TAP	64	240	3
TAP	64	288	1
TAP	64	288	4
TAP	65	0	3
TAP	65	0	4
TAP	65	48	5
TAP	65	72	4
TAP	65	96	5
TAP	65	144	2
TAP	65	168	3
TAP	65	192	2
TAP	65	240	6
TAP	65	264	5
TAP	65	288	6
TAP	65	336	1
TAP	65	360	0
XTP	66	0	1
XTP	66	48	1
XTP	66	96	0
XTP	66	96	1
XTP	66	144	0
XTP	66	144	1
XTP	66	192	2
XTP	66	192	7
XTP	66	240	2
XTP	66	240	7
XST	66	288	3
SCL	66	288	3	96	1152	4
XTP	66	288	6
TTP	67	0	0	C	1	M1
TTP	71	0	3	B	0	M1
TTP	71	96	1	B	0	M1
TTP	71	96	2	E	0	M1
TTP	71	192	4	B	0	M1
TTP	71	288	6	B	0	M1
TTP	71	288	6	E	0	M1
TTP	72	0	3	B	0	M1
TTP	72	96	1	E	0	M1
TTP	72	96	2	E	0	M1
TTP	72	192	4	B	0	M1
TTP	72	288	6	E	0	M1
TTP	72	288	7	E	0	M1
TTP	73	0	4	E	0	M1
TTP	73	96	0	C	0	M1
TTP	73	192	0	E	0	M1
TTP	73	288	1	E	0	M1
TTP	73	288	7	E	0	M1
THO	74	0	0	192	C	0	M1
TTP	74	0	2	E	0	M1
TTP	74	0	6	E	0	M1
BRK	74	288	0
BRK	74	288	7
XST	75	0	1
SI_	75	0	1	96	48	4
XST	75	0	6
SI_	75	0	6	96	48	3
XTP	75	192	1
XTP	75	192	6
TAP	75	288	0
TAP	75	288	1
TAP	75	336	2
TAP	75	336	7
TAP	76	0	3
TAP	76	0	6
TAP	76	48	5
TAP	76	72	4
TAP	76	96	5
TAP	76	144	2
TAP	76	168	3
HLD	76	192	1	96
TAP	76	288	0
TAP	76	336	2
TAP	76	336	7
STR	77	0	3
SI_	77	0	3	96	48	7
STR	77	0	6
SI_	77	0	6	96	48	3
XTP	77	192	0
XTP	77	192	4
TAP	77	288	2
TAP	77	288	6
THO	78	0	0	192	C	0	M1
TTP	78	0	1	B	0	M1
TTP	78	0	2	B	0	M1
TTP	78	0	5	B	0	M1
TTP	78	0	6	B	0	M1
XST	79	0	1
SI_	79	0	1	96	48	4
XST	79	0	7
SI_	79	0	7	96	48	3
XTP	79	192	1
XTP	79	192	5
TAP	79	288	6
TAP	79	288	7
TAP	79	336	0
TAP	79	336	5
TAP	80	0	1
TAP	80	0	4
TAP	80	48	2
TAP	80	72	3
TAP	80	96	2
TAP	80	144	5
TAP	80	168	4
HLD	80	192	6	96
TAP	80	288	7
TAP	80	336	0
TAP	80	336	5
STR	81	0	1
SI_	81	0	1	96	48	4
STR	81	0	4
SI_	81	0	4	96	48	0
XTP	81	192	3
XTP	81	192	7
TAP	81	288	1
TAP	81	288	5
XHO	82	0	6	64
TAP	82	64	4
HLD	82	96	4	64
TAP	82	160	3
HLD	82	192	3	64
TAP	82	256	1
BRK	82	288	1
STR	83	0	3
SUL	83	0	3	96	48	7
STR	83	0	7
SUL	83	0	7	96	48	3
XTP	83	192	1
XTP	83	192	5
TAP	83	288	4
TAP	83	288	5
TAP	83	336	3
TAP	83	336	6
TAP	84	0	2
TAP	84	0	7
TAP	84	48	1
TAP	84	72	0
TAP	84	96	1
TAP	84	144	6
TAP	84	168	7
HLD	84	192	5	96
TAP	84	288	4
TAP	84	336	3
TAP	84	336	6
STR	85	0	2
SI_	85	0	2	96	48	7
STR	85	0	7
SI_	85	0	7	96	48	3
XTP	85	192	0
XTP	85	192	4
TAP	85	288	2
TAP	85	288	6
THO	86	0	0	192	C	1	M1
TTP	86	0	1	B	0	M1
TTP	86	0	5	B	0	M1
XTP	87	0	0
XTP	87	0	7
XTP	87	48	1
XTP	87	48	6
XST	87	96	2
SI_	87	96	2	96	48	4
XST	87	96	5
SI_	87	96	5	96	48	1
BRK	87	288	0
BRK	87	288	6
TAP	88	0	2
TAP	88	24	3
TAP	88	48	2
TAP	88	96	6
TAP	88	120	5
TAP	88	144	6
TAP	88	192	1
TAP	88	216	0
TAP	88	240	1
TAP	88	288	2
TAP	88	336	2
XST	89	0	1
SI_	89	0	1	96	48	4
XST	89	0	3
SI_	89	0	3	96	48	6
XTP	89	192	7
XTP	89	240	7
TAP	89	288	0
TAP	89	336	0
XTP	90	0	1
XTP	90	0	6
TAP	90	48	2
TAP	90	48	5
TAP	90	96	3
TAP	90	96	4
BRK	90	192	1
BRK	90	192	6
XTP	91	0	2
TAP	91	0	4
TAP	91	48	1
TAP	91	96	2
XTP	91	96	4
TAP	91	144	5
XTP	91	192	2
TAP	91	192	4
TAP	91	240	1
TAP	91	288	2
XTP	91	288	4
XTP	91	336	2
TAP	91	336	4
TAP	92	0	1
XTP	92	0	5
STR	92	96	6
SI_	92	96	6	96	48	3
TAP	92	144	6
STR	92	192	2
SI_	92	192	2	96	48	7
TAP	92	240	2
BRK	92	288	4
XTP	93	0	3
TAP	93	0	5
TAP	93	48	2
TAP	93	96	3
XTP	93	96	5
TAP	93	144	6
XTP	93	192	3
TAP	93	192	5
TAP	93	240	2
XTP	93	288	3
TAP	93	288	5
TAP	93	336	3
XTP	93	336	5
XTP	94	0	2
TAP	94	0	6
STR	94	96	1
SI_	94	96	1	96	48	4
STR	94	96	5
SI_	94	96	5	96	48	0
BRK	94	288	3
BRK	94	288	7
TAP	95	0	0
XTP	95	0	6
TAP	95	48	1
XTP	95	96	0
TAP	95	96	6
TAP	95	144	5
TAP	95	192	0
XTP	95	192	6
TAP	95	240	1
XTP	95	288	0
TAP	95	288	6
TAP	95	336	0
XTP	95	336	6
XTP	96	0	1
TAP	96	0	5
STR	96	96	2
SI_	96	96	2	96	48	7
TAP	96	144	2
STR	96	192	6
SI_	96	192	6	96	48	3
TAP	96	240	6
BRK	96	288	0
TAP	97	0	1
XTP	97	0	7
TAP	97	48	2
XTP	97	96	1
TAP	97	96	7
TAP	97	144	6
TAP	97	192	1
XTP	97	192	7
TAP	97	240	2
XTP	97	288	1
TAP	97	288	7
TAP	97	336	6
BRK	98	0	4
BRK	98	0	5
TAP	98	64	1
TAP	98	96	1
TAP	98	96	3
TAP	98	160	6
TAP	98	192	4
TAP	98	192	6
TAP	98	256	0
BRK	98	288	0
BRK	98	288	7
TAP	99	0	1
XTP	99	0	3
TAP	99	48	4
XTP	99	96	1
TAP	99	96	3
TAP	99	144	0
TAP	99	192	1
XTP	99	192	3
TAP	99	240	2
TAP	99	288	3
TAP	99	288	4
TAP	99	336	5
TAP	100	0	4
XTP	100	0	6
TAP	100	48	7
TAP	100	96	4
TAP	100	96	6
TAP	100	144	3
TAP	100	192	2
TAP	100	192	4
TAP	100	240	2
TAP	100	240	4
BRK	100	288	1
BRK	100	288	5
XST	101	0	6
SI_	101	0	6	96	48	3
TAP	101	48	6
XST	101	96	2
SI_	101	96	2	96	48	7
TAP	101	144	2
TAP	101	192	5
TAP	101	240	5
XTP	101	288	0
XTP	101	288	6
STR	102	0	3
SUL	102	0	3	96	48	7
STR	102	0	7
SUL	102	0	7	96	48	3
BRK	102	192	1
BRK	102	192	5
XTP	103	0	4
TAP	103	0	6
TAP	103	48	3
TAP	103	96	4
XTP	103	96	6
TAP	103	144	7
TAP	103	192	4
TAP	103	192	6
TAP	103	240	5
TAP	103	288	3
TAP	103	288	4
TAP	103	336	2
TAP	104	0	1
XTP	104	0	3
TAP	104	48	0
TAP	104	96	1
TAP	104	96	3
TAP	104	144	2
TAP	104	192	3
TAP	104	192	5
TAP	104	240	3
TAP	104	240	5
BRK	104	288	2
BRK	104	288	6
TAP	105	0	0
TAP	105	0	4
TAP	105	64	1
TAP	105	96	1
TAP	105	96	3
TAP	105	160	6
TAP	105	192	4
TAP	105	192	6
TAP	105	256	1
TAP	105	288	0
TAP	105	288	1
TAP	105	352	6
TAP	106	0	6
STR	106	0	7
SF_	106	0	7	96	48	3
XHO	106	192	1	192
XTP	106	192	5
TTP	107	0	0	C	1	M1

T_REC_TAP	481
T_REC_BRK	28
T_REC_XTP	86
T_REC_HLD	24
T_REC_XHO	2
T_REC_STR	28
T_REC_BST	3
T_REC_XST	11
T_REC_TTP	27
T_REC_THO	3
T_REC_SLD	42
T_REC_ALL	735
T_NUM_TAP	633
T_NUM_BRK	31
T_NUM_HLD	29
T_NUM_SLD	42
T_NUM_ALL	735
T_JUDGE_TAP	664
T_JUDGE_HLD	99
T_JUDGE_SLD	42
T_JUDGE_ALL	805
TTM_EACHPAIRS	140
TTM_SCR_TAP	316500
TTM_SCR_BRK	80600
TTM_SCR_HLD	29000
TTM_SCR_SLD	63000
TTM_SCR_ALL	489100
TTM_SCR_S	471450
TTM_SCR_SS	486000
TTM_RAT_ACV	10063

