VERSION	0.00.00	1.03.00
FES_MODE	0
BPM_DEF	190.000	190.000	190.000	190.000
MET_DEF	4	4
RESOLUTION	384
CLK_DEF	384
COMPATIBLE_CODE	MA2

BPM	0	0	190.000
MET	0	0	4	4

XHO	3	0	2	384
HLD	4	0	3	384
HLD	5	0	4	384
TAP	6	0	5
TAP	6	192	4
TAP	6	192	5
STR	7	0	6
SUL	7	0	6	96	192	2
STR	8	0	1
SUR	8	0	1	96	192	5
STR	9	0	6
SXL	9	0	6	96	480	3
HLD	11	0	2	192
TAP	11	192	3
HLD	12	0	5	192
TAP	12	192	4
HLD	13	0	2	192
TAP	13	192	3
HLD	14	0	4	96
HLD	14	0	5	96
TAP	14	192	4
TAP	14	192	5
HLD	15	0	6	192
TAP	15	192	7
HLD	16	0	1	192
TAP	16	192	0
HLD	17	0	6	192
TAP	17	192	7
TAP	18	0	0
TAP	18	0	7
TAP	18	96	0
TAP	18	96	7
XTP	18	192	1
XTP	18	192	6
TTP	19	0	4	B	0	L1
TTP	19	0	5	E	0	L1
TTP	20	0	5	B	0	L1
TTP	20	0	6	E	0	L1
THO	21	0	0	384	C	0	L1
TTP	23	0	3	B	0	L1
TTP	23	0	3	E	0	L1
TTP	24	0	2	B	0	L1
TTP	24	0	2	E	0	L1
THO	25	0	0	384	C	1	L1
XTP	27	0	0
TAP	27	192	0
TAP	28	0	1
TAP	28	192	1
TAP	29	0	2
TAP	29	192	2
TAP	30	0	3
TAP	30	192	3
TAP	31	0	3
TAP	31	0	4
TAP	31	96	3
TAP	31	96	4
TAP	31	192	2
TAP	31	192	5
TAP	31	288	2
TAP	31	288	5
TAP	32	0	1
TAP	32	0	6
TAP	32	96	1
TAP	32	96	6
TAP	32	192	0
TAP	32	192	7
TAP	32	288	0
TAP	32	288	7
TAP	33	0	6
TAP	33	48	6
TAP	33	96	6
TAP	33	192	1
TAP	33	240	1
TAP	33	288	1
BST	34	0	0
SI_	34	0	0	96	192	4
BST	34	0	7
SI_	34	0	7	96	192	3
HLD	35	0	2	192
TAP	35	192	3
TAP	35	288	3
TAP	36	0	4
TAP	36	96	4
TAP	36	192	3
TAP	36	192	5
HLD	37	0	5	192
TAP	37	192	4
TAP	37	288	4
TAP	38	0	3
TAP	38	96	3
TAP	38	192	2
TAP	38	192	4
HLD	39	0	1	192
TAP	39	192	0
TAP	39	288	0
TAP	40	0	7
TAP	40	96	7
TAP	40	192	0
TAP	40	192	6
HLD	41	0	6	192
TAP	41	192	7
TAP	41	288	7
XTP	42	0	0
XTP	42	0	7
XTP	42	96	0
XTP	42	96	7
BRK	42	192	1
BRK	42	192	6
HLD	43	0	2	96
TAP	43	96	3
TAP	43	192	3
HLD	44	0	5	96
TAP	44	96	4
TAP	44	192	4
TAP	45	0	2
TAP	45	96	2
TAP	45	192	3
TAP	45	288	3
TAP	46	0	4
TAP	46	96	4
TAP	46	192	3
TAP	46	192	5
HLD	47	0	6	96
TAP	47	96	7
TAP	47	192	7
HLD	48	0	1	96
TAP	48	96	0
TAP	48	192	0
TAP	49	0	6
TAP	49	96	6
TAP	49	192	7
TAP	49	288	7
TAP	50	0	0
TAP	50	96	0
BRK	50	192	1
BRK	50	192	7
TAP	51	0	2
TAP	51	96	2
TAP	51	192	3
TAP	51	288	3
TAP	52	0	2
TAP	52	96	2
TAP	52	96	3
TAP	52	192	1
TAP	52	192	4
TAP	53	0	5
TAP	53	96	5
TAP	53	192	4
TAP	53	288	4
TAP	54	0	5
TAP	54	96	4
TAP	54	96	5
TAP	54	192	3
TAP	54	192	6
TAP	55	0	6
TAP	55	96	6
TAP	55	192	7
TAP	55	288	7
TAP	56	0	6
TAP	56	96	6
TAP	56	96	7
TAP	56	192	0
TAP	56	192	5
TAP	57	0	1
TAP	57	96	1
TAP	57	192	0
TAP	57	288	0
TAP	58	0	1
TAP	58	96	0
TAP	58	96	7
XTP	58	192	1
XTP	58	192	6
TAP	59	0	2
TAP	59	96	2
TAP	59	96	3
TAP	59	192	4
TAP	59	288	3
TAP	59	288	4
TAP	60	0	2
TAP	60	96	2
TAP	60	96	3
TAP	60	192	1
TAP	60	192	4
TAP	61	0	5
TAP	61	96	4
TAP	61	96	5
TAP	61	192	3
TAP	61	288	3
TAP	61	288	4
TAP	62	0	5
TAP	62	96	4
TAP	62	96	5
TAP	62	192	3
TAP	62	192	6
TAP	63	0	6
TAP	63	96	6
TAP	63	96	7
TAP	63	192	0
TAP	63	288	0
TAP	63	288	7
TAP	64	0	6
TAP	64	96	6
TAP	64	96	7
TAP	64	192	0
TAP	64	192	5
TAP	65	0	1
TAP	65	96	0
TAP	65	96	1
TAP	65	192	7
TAP	65	288	0
TAP	65	288	7
TAP	66	0	1
TAP	66	96	0
TAP	66	96	7
BRK	66	192	1
BRK	66	192	6
STR	67	0	2
SLL	67	0	2	96	480	4
STR	67	0	5
SLR	67	0	5	96	480	3
STR	69	0	2
SLL	69	0	2	96	480	3
STR	69	0	5
SLR	69	0	5	96	480	4
TAP	71	0	3
TAP	71	0	4
TAP	71	96	3
TAP	71	96	4
TAP	71	192	2
TAP	71	192	5
TAP	71	288	2
TAP	71	288	5
TAP	72	0	1
TAP	72	0	6
TAP	72	96	1
TAP	72	96	6
TAP	72	192	0
TAP	72	192	7
TAP	72	288	0
TAP	72	288	7
TAP	73	0	7
TAP	73	48	7
TAP	73	96	7
TAP	73	192	0
TAP	73	240	0
TAP	73	288	0
TTP	74	0	0	C	1	L1
TTP	74	0	2	B	0	L1
TTP	74	0	5	B	0	L1
XTP	75	0	6
TAP	75	96	5
TAP	75	96	7
TAP	75	192	4
TAP	75	288	4
TAP	76	0	3
TAP	76	0	4
TAP	76	96	2
TAP	76	96	3
TAP	76	192	1
TAP	76	192	4
TAP	77	0	1
TAP	77	96	0
TAP	77	96	2
TAP	77	192	3
TAP	77	288	3
XST	78	0	3
SI_	78	0	3	96	192	7
XST	78	0	4
SI_	78	0	4	96	192	0
TAP	79	0	1
TAP	79	96	0
TAP	79	96	2
TAP	79	192	3
TAP	79	288	3
TAP	80	0	3
TAP	80	0	4
TAP	80	96	4
TAP	80	96	5
XTP	80	192	3
XTP	80	192	6
TAP	81	0	6
TAP	81	96	5
TAP	81	96	7
TAP	81	192	4
TAP	81	288	4
XTP	82	0	3
XTP	82	0	4
XTP	82	96	3
XTP	82	96	4
XTP	82	192	2
XTP	82	192	5
TAP	83	0	2
TAP	83	0	3
TAP	83	96	1
TAP	83	96	4
TAP	83	192	0
TAP	83	240	0
TAP	83	288	0
TAP	84	0	6
TAP	84	0	7
TAP	84	96	0
TAP	84	96	5
TAP	84	192	1
TAP	84	192	4
TAP	85	0	4
TAP	85	0	5
TAP	85	96	3
TAP	85	96	6
TAP	85	192	7
TAP	85	240	7
TAP	85	288	7
XST	86	0	0
SI_	86	0	0	96	192	3
XST	86	0	7
SI_	86	0	7	96	192	4
TAP	87	0	5
TAP	87	96	4
TAP	87	96	6
TAP	87	192	7
TAP	87	240	7
TAP	87	288	7
TAP	88	0	0
TAP	88	0	1
TAP	88	96	2
TAP	88	96	7
TAP	88	192	3
TAP	88	192	6
TAP	89	0	2
TAP	89	0	3
TAP	89	96	1
TAP	89	96	4
TAP	89	192	0
TAP	89	240	0
TAP	89	288	0
BRK	90	0	1
BRK	90	0	6
TAP	91	0	2
TAP	91	96	2
TAP	91	192	3
TAP	91	288	3
TAP	92	0	4
TAP	92	96	4
TAP	92	192	3
TAP	92	192	5
TAP	93	0	6
TAP	93	96	6
TAP	93	192	7
TAP	93	288	7
TAP	94	0	0
TAP	94	0	7
TAP	94	96	0
TAP	94	96	7
XTP	94	192	1
XTP	94	192	6
TAP	95	0	1
TAP	95	96	1
TAP	95	192	0
TAP	95	288	0
TAP	96	0	7
TAP	96	96	7
TAP	96	192	0
TAP	96	192	6
TAP	97	0	5
TAP	97	96	5
TAP	97	192	4
TAP	97	288	4
TAP	98	0	3
TAP	98	0	4
TAP	98	96	3
TAP	98	96	4
BRK	98	192	2
BRK	98	192	5
XTP	99	0	6
XTP	99	0	7
XTP	99	96	6
XTP	99	96	7
TAP	99	192	6
TAP	99	192	7
TAP	100	0	0
TAP	100	0	1
TAP	100	96	0
TAP	100	96	1
TAP	100	192	0
TAP	100	192	1
TAP	101	0	2
TAP	101	0	3
TAP	101	96	2
TAP	101	96	3
STR	101	192	2
SV_	101	192	2	96	192	7
STR	101	192	3
SV_	101	192	3	96	192	6
XTP	103	0	6
XTP	103	0	7
TAP	103	96	6
TAP	103	96	7
TAP	103	192	6
TAP	103	192	7
TAP	104	0	4
TAP	104	0	5
TAP	104	96	4
TAP	104	96	5
TAP	104	192	4
TAP	104	192	5
TAP	105	0	3
TAP	105	96	3
TAP	105	192	4
TAP	105	288	4
TAP	106	0	3
TAP	106	0	4
TAP	106	96	3
TAP	106	96	4
XTP	106	192	2
XTP	106	192	5
TTP	107	0	0	C	1	L1

T_REC_TAP	314
T_REC_BRK	10
T_REC_XTP	28
T_REC_HLD	18
T_REC_XHO	1
T_REC_STR	9
T_REC_BST	2
T_REC_XST	4
T_REC_TTP	12
T_REC_THO	2
T_REC_SLD	15
T_REC_ALL	415
T_NUM_TAP	367
T_NUM_BRK	12
T_NUM_HLD	21
T_NUM_SLD	15
T_NUM_ALL	415
T_JUDGE_TAP	379
T_JUDGE_HLD	92
T_JUDGE_SLD	15
T_JUDGE_ALL	486
TTM_EACHPAIRS	112
TTM_SCR_TAP	183500
TTM_SCR_BRK	31200
TTM_SCR_HLD	21000
TTM_SCR_SLD	22500
TTM_SCR_ALL	258200
TTM_SCR_S	249300
TTM_SCR_SS	257000
TTM_RAT_ACV	10046

