VERSION	0.00.00	1.03.00
FES_MODE	0
BPM_DEF	190.000	190.000	190.000	190.000
MET_DEF	4	4
RESOLUTION	384
CLK_DEF	384
COMPATIBLE_CODE	MA2

BPM	0	0	190.000
MET	0	0	4	4

TAP	7	0	0
TAP	8	0	0
TAP	9	0	7
TAP	10	0	7
TAP	11	0	0
TAP	12	0	1
TAP	13	0	2
TAP	14	0	3
TAP	14	0	4
TAP	15	0	4
TAP	16	0	5
TAP	17	0	6
TAP	18	0	0
TAP	18	0	7
STR	19	0	0
SI_	19	0	0	96	672	3
STR	23	0	7
SI_	23	0	7	96	672	4
STR	27	0	0
SI_	27	0	0	96	672	4
STR	31	0	7
SI_	31	0	7	96	672	3
XTP	35	0	3
TAP	35	192	3
TAP	36	0	3
TAP	37	0	2
TAP	37	192	2
TAP	38	0	2
TAP	39	0	1
TAP	39	192	1
TAP	40	0	1
TAP	41	0	0
TAP	41	192	0
XTP	42	0	0
XTP	42	0	7
TAP	43	0	7
TAP	43	192	7
TAP	44	0	7
TAP	45	0	6
TAP	45	192	6
TAP	46	0	6
TAP	47	0	5
TAP	47	192	5
TAP	48	0	5
TAP	49	0	4
TAP	49	192	4
BRK	50	0	3
BRK	50	0	4
TAP	51	0	3
TAP	51	0	4
TAP	51	192	3
TAP	51	192	4
TAP	52	0	3
TAP	52	0	4
TAP	52	192	3
TAP	52	192	4
TAP	53	0	4
TAP	53	96	4
TAP	53	192	4
TAP	54	0	5
TAP	54	192	5
TAP	55	0	6
TAP	55	96	6
TAP	55	192	6
TAP	56	0	7
TAP	56	192	7
TAP	57	0	0
TAP	57	96	0
TAP	57	192	0
TAP	58	0	0
TAP	58	0	7
XTP	58	192	0
XTP	58	192	7
TAP	59	0	1
TAP	59	96	1
TAP	59	192	1
TAP	60	0	2
TAP	60	192	2
TAP	61	0	3
TAP	61	96	3
TAP	61	192	3
TAP	62	0	4
TAP	62	192	3
TAP	62	192	4
TAP	63	0	5
TAP	63	96	5
TAP	63	192	4
TAP	63	192	5
TAP	64	0	3
TAP	64	192	3
TAP	64	192	4
TAP	65	0	2
TAP	65	96	2
TAP	65	192	2
TAP	65	192	3
TAP	66	0	3
TAP	66	0	4
TAP	66	192	3
TAP	66	192	4
BRK	67	0	3
BRK	67	0	4
TTP	71	0	5	E	0	L1
TTP	72	0	4	E	0	L1
TTP	73	0	3	E	0	L1
TTP	74	0	0	C	1	L1
HLD	75	0	7	192
TAP	76	0	7
HLD	77	0	6	192
XTP	78	0	6
HLD	79	0	5	192
TAP	80	0	5
HLD	81	0	3	192
HLD	81	0	4	192
TAP	82	0	3
TAP	82	0	4
HLD	83	0	3	192
TAP	84	0	3
HLD	85	0	2	192
TAP	86	0	2
HLD	87	0	1	192
TAP	88	0	1
HLD	89	0	0	192
HLD	89	0	7	192
TAP	90	0	0
TAP	90	0	7
TAP	91	0	0
TAP	91	96	0
TAP	91	192	0
TAP	92	0	1
TAP	92	96	1
TAP	92	192	1
TAP	93	0	2
TAP	93	96	2
TAP	93	192	2
TAP	94	0	3
TAP	94	96	3
XTP	94	192	3
XTP	94	192	4
TAP	95	0	4
TAP	95	96	4
TAP	95	192	4
TAP	96	0	5
TAP	96	96	5
TAP	96	192	5
TAP	97	0	6
TAP	97	96	6
TAP	97	192	6
BRK	98	0	0
BRK	98	0	7
TAP	99	0	7
TAP	99	96	7
TAP	99	192	6
TAP	99	288	6
TAP	100	0	5
TAP	100	96	5
TAP	100	192	4
TAP	100	192	5
TAP	101	0	3
TAP	101	96	3
TAP	101	192	2
TAP	101	288	2
TAP	102	0	1
TAP	102	96	1
TAP	102	192	0
TAP	102	192	1
TAP	103	0	0
TAP	103	96	0
TAP	103	192	1
TAP	103	288	1
TAP	104	0	2
TAP	104	96	2
TAP	104	192	3
TAP	104	288	3
TAP	105	0	4
TAP	105	96	4
TAP	105	192	5
TAP	105	288	5
TAP	106	0	6
TAP	106	96	6
XTP	106	192	0
XTP	106	192	7
BRK	107	0	1
BRK	107	0	6

T_REC_TAP	143
T_REC_BRK	8
T_REC_XTP	10
T_REC_HLD	10
T_REC_XHO	0
T_REC_STR	4
T_REC_BST	0
T_REC_XST	0
T_REC_TTP	4
T_REC_THO	0
T_REC_SLD	4
T_REC_ALL	183
T_NUM_TAP	161
T_NUM_BRK	8
T_NUM_HLD	10
T_NUM_SLD	4
T_NUM_ALL	183
T_JUDGE_TAP	169
T_JUDGE_HLD	40
T_JUDGE_SLD	4
T_JUDGE_ALL	213
TTM_EACHPAIRS	27
TTM_SCR_TAP	80500
TTM_SCR_BRK	20800
TTM_SCR_HLD	10000
TTM_SCR_SLD	6000
TTM_SCR_ALL	117300
TTM_SCR_S	113050
TTM_SCR_SS	116500
TTM_RAT_ACV	10068

